Уважаемый Гость!
Вы можете поддержать проект и зарегистрироваться у наших партнеров - онлайн-стратегия MyLands. При регистрации в игре Вы получите код, который сможете активировать после регистрации на pirat.ca и получить 1000 дублонов.

Ваш код:
60d6e9c000233e14387a537701beefec023ccf6a
 
     

Движение вверх (Антон Мегердичев) [2017 г., спорт, драма, TeleSynch]

Ответить на тему
 
Автор
Сообщение

Пост 29-Дек-2017 23:41

[Q] 

Су-34

Гроза морей

-Движение вверх- -Производство: Россия / Студия Тритэ
Режиссёр: Антон Мегердичев
Жанр: спорт, драма
Год выпуска: 2017 г.
Продолжительность: 02:06:27
Российская премьера: 28 декабря 2017-В ролях: Владимир Машков, Андрей Смоляков, Иван Колесников, Кирилл Зайцев, Джон Сэвэдж, Марат Башаров, Александра Ревенко, Виктория Толстоганова, Сергей Гармаш, Джеймс Тратас-Описание: Есть победы, которые меняют ход истории. Победы духа, победы страны, победы всего мира. Таким триумфом стали легендарные «три секунды» — выигрыш сборной СССР по баскетболу на роковой мюнхенской Олимпиаде 1972г. Впервые за 36 лет была повержена «непобедимая» команда США. Никто даже помыслить не мог о том, что это возможно — обыграть великолепных непогрешимых американцев на Олимпийских играх! Никто, кроме советских баскетболистов (русских и грузин, украинцев и казахов, белорусов и литовцев).
Когда проигрыш означал поражение страны, когда нужно было выходить и бороться в раскаленной обстановке из-за произошедшего теракта, великий тренер сборной СССР был готов на все, лишь бы помочь своим подопечным разбить американский миф о непотопляемой команде мечты. Ведь он знал, что создал самую сильную сборную на планете, и в начале заставил поверить в это своих игроков, а затем весь мир.-Сэмпл КиноПоиск-Качество видео: TeleSynch
Контейнер: AVI
Видео кодек: XviD
Аудио кодек: AC3
Видео: 1933 Kb/s, 720x304, Bits/(Pixel*Frame) : 0.350, 23.976 fps
Аудио: AC3, 384 Kb/s (2 ch), 48.0 KHz
Cубтитры: отсутствуют
D:\Torrents\DviJenie.VVerH.2O17.O.TS.21OOMB.avi
General
Complete name : D:\Torrents\DviJenie.VVerH.2O17.O.TS.21OOMB.avi
Format : AVI
Format/Info : Audio Video Interleave
File size : 2.05 GiB
Duration : 2h 6mn
Overall bit rate : 2 324 Kbps
Writing application : VirtualDubMod 1.5.10.2 (build 2540/release)
Writing library : VirtualDubMod build 2540/release
Video #0
ID : 0
Format : MPEG-4 Visual
Format profile : Advanced [email protected]
Format settings, BVOP : 2
Format settings, QPel : No
Format settings, GMC : No warppoints
Format settings, Matrix : Default (MPEG)
Codec ID : XVID
Codec ID/Hint : XviD
Duration : 2h 6mn
Bit rate : 1 839 Kbps
Width : 720 pixels
Height : 304 pixels
Display aspect ratio : 2.35:1
Frame rate : 23.976 fps
Color space : YUV
Chroma subsampling : 4:2:0
Bit depth : 8 bits
Scan type : Progressive
Compression mode : Lossy
Bits/(Pixel*Frame) : 0.350
Stream size : 1.62 GiB (79%)
Writing library : XviD 1.2.1 (UTC 2008-12-04)
Audio #1
ID : 1
Format : AC-3
Format/Info : Audio Coding 3
Mode extension : CM (complete main)
Format settings, Endianness : Big
Codec ID : 2000
Duration : 2h 6mn
Bit rate mode : Constant
Bit rate : 384 Kbps
Channel count : 2 channels
Channel positions : Front: L R
Sampling rate : 48.0 KHz
Bit depth : 16 bits
Compression mode : Lossy
Stream size : 347 MiB (17%)
Alignment : Split accross interleaves
Download / Скачать

Хотите скачать бесплатно? Зарегистрируйтесь на сайте (ссылка на регистрацию). Pirat.ca - самый быстрый торрент трекер в рунете!

Как скачивать  ·   Что такое торрент  ·   Рейтинг и ограничения

Ya Fratkin

Корсар

Пост 30-Дек-2017 21:34 (спустя 21 час)

[Q] 

Большое спасибо!
Выручили! Лови бочку
[Профиль]  [ЛС] 

and48

Корсар

170

Пост 01-Янв-2018 23:13 (спустя 2 дня 1 час)

[Q] 

Спасибо! Посмотрим!!!! Уж больно его разрекламировали!
[Профиль]  [ЛС] 

Sprut

Корсар

Пост 02-Янв-2018 12:12 (спустя 12 часов)

[Q] 

Спасибо!!!
[Профиль]  [ЛС] 

usya5

Корсар

Пост 05-Янв-2018 12:39 (спустя 3 дня)

[Q] 

815779Спасибо! Посмотрим!!!! Уж больно его разрекламировали!
на рекламу не пожалели, согласен!!!
как фильм?
Лови бочку
Добавлено спустя 2 минуты 6 секунд:
144 скачавших, где отзывы?!?
[Профиль]  [ЛС] 

Alexa

Шкипер

Пост 06-Янв-2018 12:53 (спустя 1 день)

[Q] 

Хоть будет что новенькое посмотреть, а то все "Семён Семёныч..." bj
[Профиль]  [ЛС] 

Cepreu

Корсар

Пост 06-Янв-2018 20:07 (спустя 7 часов)

[Q] 

Фильм отличный! Смотреть - в кинотеатре, если есть хоть малейшая такая возможность.
[Профиль]  [ЛС] 

BakyyM

Лоцман

Пост 07-Янв-2018 20:44 (спустя 1 день)

[Q] 

Решил рискнуть, пошел в кино. Народу много, причем много людей в возрасте. Сел, начинается реклама: будет пошлый мульт для детей, про медведя, про фигуристов... Думаю, вот расснимались про спорт, только про футбол не хватает - русское кино о футболе это нечто убойное будет =) И тут, Козловский в главных ролях, продюсерах и режиссерах в фильме о футболе, чуть под кресло не сполз. Началось кино. Коламбия Пикчерс представляет... И время пролетело незаметно! Все таки иногда снимают хорошо. Кто не ходил, но есть возможность, идите!
[Профиль]  [ЛС] 

vyches

Лоцман

Пост 12-Янв-2018 14:07 (спустя 4 дня)

[Q] 

Получил удовольствие от просмотра в кинотеатре. Годный фильм. Особенно понравилась игра Смолякова и Башарова. Машков тоже сыграл на уровне.
[Профиль]  [ЛС] 
Показать сообщения:    
Ответить на тему

Текущее время: Сегодня 15:42

Часовой пояс: GMT + 4



Вы не можете начинать темы
Вы не можете отвечать на сообщения
Вы не можете редактировать свои сообщения
Вы не можете удалять свои сообщения
Вы не можете голосовать в опросах
Вы не можете прикреплять файлы к сообщениям
Вы не можете скачивать файлы

▼ Вниз