Уважаемый Гость!
Вы можете поддержать проект и зарегистрироваться у наших партнеров - онлайн-стратегия MyLands. При регистрации в игре Вы получите код, который сможете активировать после регистрации на pirat.ca и получить 1000 дублонов.

Ваш код:
78aa50a474eca84d8db013aa70ab4d3c854287b1
 
     

Ёлки новые (Жора Крыжовников, Дмитрий Киселёв, Александр Карпиловский) [2018 г., комедия, мелодрама, CamRip]

Ответить на тему
 
Автор
Сообщение

Пост 31-Дек-2017 20:46

[Q] 

Су-34

Гроза морей

-Ёлки новые«Нашли, с кем праздновать!»- -Производство: Россия
Режиссёр: Жора Крыжовников, Дмитрий Киселёв, Александр Карпиловский
Жанр: комедия, мелодрама
Год выпуска: 2018 г.
Продолжительность: 01:21:30
Российская премьера: 21 декабря 2017-В ролях: Иван Ургант, Сергей Светлаков, Дмитрий Нагиев, Юлия Александрова, Антон Богданов, Валентина Мазунина, Елена Яковлева, Сергей Пускепалис-Описание: В декабре 2017 будет жарко! Дружба Жени и Бори едва не сгорит в огне семейного скандала; глубоко беременная Снегурочка отправится в Одиссею по нижегородским семьям; отчаянная Галя из Новосибирска пойдет на все, чтобы провести ночь с любимым врачом; экстремальный поход в лес за елкой станет проверкой на прочность для юного хипстера из Тюмени и его потенциального отчима. Новые и хорошо знакомые герои «Ёлок» влюбляются, ссорятся и мирятся, совершают геройские поступки и попадают впросак, лишь бы найти на Новый год настоящую родственную душу, как один смелый мальчик из Хабаровска, сбежавший в поисках новой мамы в Москву. И помочь им может только чудо… или вся страна!-Сэмпл КиноПоиск-Качество видео: CamRip
Контейнер: AVI
Видео кодек: XviD
Аудио кодек: AC3
Видео: 720x288 (2.500), 23.976 fps, XviD ~2 007 kbps avg
Аудио: 48.0 kHz, AC3 Dolby Digital, 2/0 (L,R) ch, ~384 kbps
Cубтитры: отсутствуют
D:\Torrents\ELLki.2O17.O.CAMRip.14OOMB.avi
General
Complete name : D:\Torrents\ELLki.2O17.O.CAMRip.14OOMB.avi
Format : AVI
Format/Info : Audio Video Interleave
File size : 1.37 GiB
Duration : 1h 21mn
Overall bit rate : 2 401 Kbps
Writing application : VirtualDubMod 1.5.10.2 (build 2540/release)
Writing library : VirtualDubMod build 2540/release
Video #0
ID : 0
Format : MPEG-4 Visual
Format profile : Advanced [email protected]
Format settings, BVOP : 2
Format settings, QPel : No
Format settings, GMC : No warppoints
Format settings, Matrix : Default (MPEG)
Codec ID : XVID
Codec ID/Hint : XviD
Duration : 1h 21mn
Bit rate : 2 008 Kbps
Width : 720 pixels
Height : 288 pixels
Display aspect ratio : 2.500
Frame rate : 23.976 fps
Color space : YUV
Chroma subsampling : 4:2:0
Bit depth : 8 bits
Scan type : Progressive
Compression mode : Lossy
Bits/(Pixel*Frame) : 0.404
Stream size : 1.14 GiB (84%)
Writing library : XviD 1.2.1 (UTC 2008-12-04)
Audio #1
ID : 1
Format : AC-3
Format/Info : Audio Coding 3
Mode extension : CM (complete main)
Format settings, Endianness : Big
Codec ID : 2000
Duration : 1h 21mn
Bit rate mode : Constant
Bit rate : 384 Kbps
Channel count : 2 channels
Channel positions : Front: L R
Sampling rate : 48.0 KHz
Bit depth : 16 bits
Compression mode : Lossy
Stream size : 224 MiB (16%)
Alignment : Split accross interleaves
Interleave, duration : 42 ms (1.00 video frame)
Interleave, preload duration : 500 ms
Download / Скачать

Хотите скачать бесплатно? Зарегистрируйтесь на сайте (ссылка на регистрацию). Pirat.ca - самый быстрый торрент трекер в рунете!

Как скачивать  ·   Что такое торрент  ·   Рейтинг и ограничения

RomanTroizk

Морской Волк

Пост 31-Дек-2017 21:35 (спустя 49 минут)

[Q] 

как раз искал- спасибо!!!! Лови бочку
[Профиль]  [ЛС] 

Drewshka

Штурман

Пост 03-Янв-2018 19:59 (спустя 2 дня 22 часа)

[Q] 

Друзья, можете написать плиз в личку, как скачивать это добро? :) У меня Хром и он блокирует скачивание файла для торрента, что делать? :))))
[Профиль]  [ЛС] 
Показать сообщения:    
Ответить на тему

Текущее время: Сегодня 11:36

Часовой пояс: GMT + 4



Вы не можете начинать темы
Вы не можете отвечать на сообщения
Вы не можете редактировать свои сообщения
Вы не можете удалять свои сообщения
Вы не можете голосовать в опросах
Вы не можете прикреплять файлы к сообщениям
Вы не можете скачивать файлы

▼ Вниз