Уважаемый Гость!
Вы можете поддержать проект и зарегистрироваться у наших партнеров - онлайн-стратегия MyLands. При регистрации в игре Вы получите код, который сможете активировать после регистрации на pirat.ca и получить 1000 дублонов.

Ваш код:
78aa50a474eca84d8db013aa70ab4d3c854287b1
 
     

Тайна Коко / Coco (Ли Анкрич, Эдриан Молина / Lee Unkrich, Adrian Molina) [2017 г., мультфильм, мюзикл, фэнтези, комедия, детектив, приключения, семейный, DVDSCr] Dub [Чистый звук]

Ответить на тему
 
Автор
Сообщение

Пост 05-Янв-2018 14:58

[Q] 

aleksey99

--Тайна Коко / Coco--«The celebration of a lifetime»-- Производство: США / Pixar Animation Studios, Walt Disney Pictures
Год выпуска: 2017 г.
Жанр: мультфильм, мюзикл, фэнтези, комедия, детектив, приключения, семейный
Продолжительность: 01:43:54--Мировая премьера: 20 октября 2017
Российская премьера: 23 ноября 2017, «WDSSPR»
Цифровой релиз: 16 февраля 2018, «Уолт Дисней Компани СНГ»
Дата выхода DVD: 20 марта 2018, «Уолт Дисней Компани СНГ»
Дата выхода Blu-Ray: 20 марта 2018, «Уолт Дисней Компани СНГ»--Перевод: Профессиональный (полное дублирование) [Чистый звук]--Режиссер: Ли Анкрич, Эдриан Молина / Lee Unkrich, Adrian Molina--В ролях: Энтони Гонсалес, Гаэль Гарсиа Берналь, Бенджамин Брэтт, Аланна Юбак, Рене Виктор, Хайме Камиль, Альфонсо Арау, Херберт Сигенса, Габриэль Иглесиас, Ломбардо Бойяр--Описание: 12-летний Мигель живёт в мексиканской деревушке в семье сапожников и тайно мечтает стать музыкантом. Тайно — потому что в его семейном клане музыка считается проклятием. Когда-то его прапрадед оставил свою жену, прапрабабку Мигеля, ради мечты, которая теперь не даёт спокойно жить Мигелю. С тех пор музыкальная тема в семье стала табу. Мигель обнаруживает, что между ним и его любимым певцом Эрнесто де ла Крусом, ныне покойным, существует некая — пока неназванная — связь. Паренёк отправляется к своему кумиру в Страну Мёртвых, где встречает души своих предков. Мигель знакомится там с духом-трикстером по имени Гектор (в облике скелета), который становится его проводником. Вдвоём они отправляются на поиски де ла Круса.-- --Качество видео: DVDSCr
Контейнер: AVI
Видео кодек: XviD
Аудио кодек: AC3
Видео: 720x304 (2.37:1), 23.976 fps, XviD build 50 ~1614 kbps avg, 0.31 bit/pixel
Аудио: 48 kHz, AC3 Dolby Digital, 2/0 (L,R) ch, ~384 kbps
Cубтитры: отсутствуют.
Общее
Полное имя : H:\Torrent2\Coco.2017.D.DVDScr.14OOMB.avi
Формат : AVI
Формат/Информация : Audio Video Interleave
Размер файла : 1,46 Гбайт
Продолжительность : 1 ч. 43 м.
Общий поток : 2008 Кбит/сек
Программа кодирования : VirtualDubMod 1.5.10.2 (build 2540/release)
Библиотека кодирования : VirtualDubMod build 2540/release
Видео
Идентификатор : 0
Формат : MPEG-4 Visual
Профиль формата : Advanced [email protected]
Настройки формата : BVOP2
Параметр BVOP формата : 2
Параметр QPel формата : Нет
Параметр GMC формата : Без точки перехода
Параметр матрицы формата : Default (MPEG)
Идентификатор кодека : XVID
Идентификатор кодека/Подсказка : XviD
Продолжительность : 1 ч. 43 м.
Битрейт : 1615 Кбит/сек
Ширина : 720 пикселей
Высота : 304 пикселя
Соотношение сторон : 2,35:1
Частота кадров : 23,976 (24000/1001) кадра/сек
Цветовое пространство : YUV
Субдискретизация насыщенности : 4:2:0
Битовая глубина : 8 бит
Тип развёртки : Прогрессивная
Метод сжатия : С потерями
Бит/(Пиксели*Кадры) : 0.308
Размер потока : 1,17 Гбайт (80%)
Библиотека кодирования : XviD 1.2.1 (UTC 2008-12-04)
Аудио
Идентификатор : 1
Формат : AC-3
Формат/Информация : Audio Coding 3
Идентификатор кодека : 2000
Продолжительность : 1 ч. 43 м.
Вид битрейта : Постоянный
Битрейт : 384 Кбит/сек
Каналы : 2 канала
Расположение каналов : Front: L R
Частота : 48,0 КГц
Частота кадров : 31,250 кадров/сек (1536 SPF)
Битовая глубина : 16 бит
Метод сжатия : С потерями
Размер потока : 285 Мбайт (19%)
Выравнивание : Разделение по промежуткам
Продолжительность промежутка : 42 мс. (1,00 видеокадр)
Время предзагрузки промежутка : 500 мс.
ServiceKind/String : Complete Main
Трейлер
Download / Скачать

Хотите скачать бесплатно? Зарегистрируйтесь на сайте (ссылка на регистрацию). Pirat.ca - самый быстрый торрент трекер в рунете!

Как скачивать  ·   Что такое торрент  ·   Рейтинг и ограничения



Последний раз редактировалось: aleksey99 (2018-01-15 17:56), всего редактировалось 1 раз

ГИППАРРД

Корсар

2

Пост 05-Янв-2018 18:33 (спустя 3 часа)

[Q] 

Что то свежее глянем с удовольствием!!!!!
[Профиль]  [ЛС] 

cv1979

Морской Волк

Пост 06-Янв-2018 01:00 (спустя 6 часов)

[Q] 

спасибо Лови бочку
[Профиль]  [ЛС] 

Cepreu

Корсар

Пост 06-Янв-2018 20:22 (спустя 19 часов)

[Q] 

Уж очень звук нехороший.
[Профиль]  [ЛС] 

aleksey99 ®

299236

Пост 15-Янв-2018 18:01 (спустя 8 дней)

[Q] 

Замена на Чистый звук

_________________

[Профиль]  [ЛС] 

SeaSide

Штурман

Пост 15-Янв-2018 21:00 (спустя 2 часа 58 минут)

[Q] 

Просто отличный мульт. Веселый и душевный.
[Профиль]  [ЛС] 
Показать сообщения:    
Ответить на тему

Текущее время: Сегодня 11:34

Часовой пояс: GMT + 4



Вы не можете начинать темы
Вы не можете отвечать на сообщения
Вы не можете редактировать свои сообщения
Вы не можете удалять свои сообщения
Вы не можете голосовать в опросах
Вы не можете прикреплять файлы к сообщениям
Вы не можете скачивать файлы

▼ Вниз