Агата Кристи - Рассказы о мистере Паркере Пайне. Части 1, 2 и 3 [2012 г., Юрий Вязовский , Александр Уткин , Валентина Кудинова, Юлия Хамитова, Денис Березин, Павел Аркадьев, Ирина Кнырикова , Дмитрий Басов, MP3, 06:22:15]

Ответить на тему
 
Автор
Сообщение

Пост 13-Авг-2012 18:24

[Q] 

Эвакуация

-
Рассказы о мистере Паркере Пайне
Части 1, 2 и 3
-- Год выпуска: 2012 г.
Автор: Агата Кристи
Перевод с англ.: Дмитрий Протасов
Исполнители: Юрий Вязовский , Александр Уткин , Валентина Кудинова, Юлия Хамитова, Денис Березин, Павел Аркадьев, Ирина Кнырикова , Дмитрий Басов
Жанр: Детектив
Издательство: Звуковая книга
Тип аудиокниги: аудиоспектакль-Аудио кодек: MP3
Битрейт аудио: 192 kbps, 44 kHz, Stereo
Время звучания: 02:21:13 + 01:51:02 + 02:10:00 = 06:22:15-
Внимание!
27.11.2012 – Добавлена Часть 3
Просьба перекачать торрент

Описание:
«Вы счастливы? Если нет, приходите на консультацию к мистеру Паркеру Пайну». Это объявление в утренней газете Лондона многих заинтересовало и привело в его офис. Каждый понимает счастье по-своему и Паркер Пайн, как доктор, поставив диагноз, действительно делает людей счастливыми.
Удивительно жизнеутверждающие рассказы Агаты Кристи и, как всегда с завораживающим детективным сюжетом, никого не оставят равнодушными.
01. Происшествие с молодой леди, попавшей в беду, 00:28:11
02. Происшествие с недовольным майором, 00:44:11
03. Происшествие с городским клерком, 00:35:13
04. Дом в окрестностях Шираза, 00:33:390
Прослушать фрагмент 1 части:
Общее
Полное имя : [Pirat.ca]_Kristi_Rasskazy.O.Mistere.Parkere.Paine\Часть 1\001_C1_fr1.mp3
Формат : MPEG Audio
Размер файла : 21,1 Мбайт
Продолжительность : 15 м.
Режим общего битрейта : Постоянный
Общий поток : 192 Кбит/сек
Альбом : Рассказы о мистере Пайне
Часть/Положение : 01
Трек : Фрагмент 1
Трек/Положение : 01
Трек/Всего : 01
Исполнитель : Кристи Агата
Издатель : Звуковая книга
Жанр : аудиоспектакль
Дата записи : 2011
Правообладатель : Звуковая книга
Обложка : Yes
Тип обложки : Cover (front)
MIME-тип обложки : image/jpeg
Примечание : Исполнители: Юрий Вязовский, Александр Гусев, Юлия Хамитова, Денис Березин, Павел Аркадьев
Аудио
Формат : MPEG Audio
Версия формата : Version 1
Профиль формата : Layer 3
Режим : Joint stereo
Продолжительность : 15 м.
Вид битрейта : Постоянный
Битрейт : 192 Кбит/сек
Каналы : 2 канала
Частота : 44,1 КГц
Метод сжатия : С потерями
Размер потока : 21,0 Мбайт (99%)
05. Происшествие с богатой дамой, 00:45:51
06. Вы получили все, что хотели?, 00:30:00
07. Происшествие с женщиной средних лет, 00:35:09
Прослушать фрагмент 2 части:
Общее
Полное имя : [Pirat.ca]_Kristi_Rasskazy.O.Mistere.Parkere.Paine\Часть 2\001_C1_fr1.mp3
Формат : MPEG Audio
Размер файла : 21,5 Мбайт
Продолжительность : 15 м.
Режим общего битрейта : Постоянный
Общий поток : 192 Кбит/сек
Альбом : Рассказы о мистере Пайне
Часть/Положение : 02
Трек : Фрагмент 1
Трек/Положение : 01
Трек/Всего : 01
Исполнитель : Кристи Агата
Издатель : Звуковая книга
Жанр : аудиоспектакль
Дата записи : 2012
Правообладатель : Звуковая книга
Обложка : Yes
Тип обложки : Cover (front)
MIME-тип обложки : image/jpeg
Примечание : Исполнители: Юрий Вязовский, Александр Уткин, Валентина Кудинова, Юлия Хамитова, Денис Березин, Павел Аркадьев, Ирина Кнырикова, Дмитрий Басов
Аудио
Формат : MPEG Audio
Версия формата : Version 1
Профиль формата : Layer 3
Режим : Joint stereo
Продолжительность : 15 м.
Вид битрейта : Постоянный
Битрейт : 192 Кбит/сек
Каналы : 2 канала
Частота : 44,1 КГц
Метод сжатия : С потерями
Размер потока : 21,4 Мбайт (99%)
08. Багдадские ворота
Паркер Пайн — Уткин Александр
Мисс Нетта Прайс — Хамитова Юлия
Господин О’Рурк — Козлов Владимир
Капитан Сметхурст — Приз Владимир
Синьор Полле, итальянец — Березин Денис
Доктор Лофтус — Аркадьев Павел
Лейтенант Вильямсон — Козлов Игорь
От автора — Вязовский Юрий
09. Дельфийский оракул
Миссис Петерс — Кнырикова Ирина
Виллард, ее сын — Березин Денис
Хозяин гостиницы — Козлов Владимир
Лже-Паркер Пайн — Аркадьев Павел
Томсон (Паркер Пайн) — Уткин Александр
От автора — Вязовский Юрий
10. Бесценная жемчужина
Паркер Пайн — Уткин Александр
Мистер Бланделл, американский магнат — Козлов Владимир
Керол Бланделл, его дочь — Хамитова Юлия
Доктор Карвер, пожилой археолог — Аркадьев Павел
Полковник Дюбоск, француз — Березин Денис
Дональд Марвел, член парламента — Козлов Игорь
От автора — Вязовский Юрий
11. Дом в окрестностях Шираза
Паркер Пайн — Уткин Александр
Г-н Шлагал, немецкий пилот — Березин Денис
Английский консул — Козлов Игорь
Мисс Эстер Карр — Хамитова Юлия
От автора — Вязовский Юрий
Прослушать фрагмент 3 части:
Общее
Полное имя : [Pirat.ca]_Kristi_Rasskazy.O.Mistere.Parkere.Paine\Часть 3\001_C1_fr1.mp3
Формат : MPEG Audio
Размер файла : 11,6 Мбайт
Продолжительность : 8 м. 24 с.
Режим общего битрейта : Постоянный
Общий поток : 192 Кбит/сек
Альбом : Рассказы о Паркере Пайне Диск 3
Трек : Багдадские ворота
Трек/Положение : 01
Исполнитель : Агата Кристи
Жанр : Аудиокнига
Дата записи : 2012
Правообладатель : Студия "Звуковая книга"
Обложка : Yes
Описание обложки : Cover.jpg
MIME-тип обложки : image/jpeg
Примечание : "Звуковая книга" / 2012 г.
Аудио
Формат : MPEG Audio
Версия формата : Version 1
Профиль формата : Layer 3
Режим : Joint stereo
Продолжительность : 8 м. 24 с.
Вид битрейта : Постоянный
Битрейт : 192 Кбит/сек
Каналы : 2 канала
Частота : 44,1 КГц
Метод сжатия : С потерями
Размер потока : 11,5 Мбайт (99%)
Агата (Кларисса) Кристи (Christie) (урожденная Миллер, Miller) (15 сентября 1890, Торки, графство Девоншир - 12 января 1976, Уоллингфорд, Оксфорд), английская писательница, непревзойденный мастер детектива.
Родилась в состоятельной семье, получила неплохое домашнее образование, в частности, музыкальное и только боязнь публичных выступлений помешала ей выбрать путь профессиональной исполнительницы. В 1914 году вышла замуж за майора Арчибалда Кристи, который дал ей имя, но не сделал счастливой. Во время Первой мировой войны работала в госпитальной аптеке, где получила знание о ядах, впоследствии использованное при создании детективных романов. В 1919 году у супругов Кристи родилась дочь.
Продолжая традицию Эдгара По и Артура Конана Дойла, в первый же детективный роман "Таинственное происшествие в Стайлзе" (1920) вводит пару сыщиков: хитроумного бельгийца Эркюля Пуаро и недалекого капитана Гастингса (отчасти спародированные Шерлок Холмс и доктор Ватсон). Следует также детективной традиции английской писательницы М. З. Брэддон (1837-1915) и американки Анны Кэтрин Грин, впервые в качестве детектива использующей женщину (мисс Джейн Марпл - у Кристи).
В 1926 году выходит один из самых популярных и известных романов Кристи "Убийство Роджера Экройда" и в том же году она расстается с неверным Арчибалдом Кристи. Через несколько лет писательница заключает более счастливый брак с археологом Максом Мэллоуэном и ездит с ним на раскопки в Сирию и Ирак (отсюда "восточный" цикл ее романов). Всего с 1920 по 1976 годы Кристи напишет 68 детективных романов, 6 романов любовно-психологических (под псевдонимом Мэри Уэстмэкотт), а также несколько пьес, одна из которых, "Мышеловка", уже 50 лет не сходит со сцены.
Каждый роман Кристи отчасти напоминает "шахматную" партию - "задачу", которая разыгрывается с помощью стереотипных фигур: молодые девушки, отставные военные, деревенские сквайры, семейные поверенные, легкомысленные светские красавицы, молодые люди, склонные к мотовству, а иногда злодейству. Все эти образы - "клише" - переходят из романа в роман, однако от этого они не становятся менее увлекательными. Главное у нее - "комбинации фигур" и непредсказуемые ходы в "игре".
Герои, как правило, действуют и размышляют на уровне общераспространенных мнений. Они выразители вечных истин: добро - это хорошо, а зло - плохо; смелость, благородство, верность должны побеждать; хитрость, обман, преступные наклонности и действия должны быть вскрыты, осуждены и наказаны. Повествовать нужно просто и доходчиво.
Щадя чувства многих своих читателей, Агата Кристи ни разу не сделала темой романа сексуальное преступление. В отличие от современных авторов криминального романа она умела балансировать на грани дозволенного художественным вкусом и чувством сострадания к жертве. Она понимала, что постоянная демонстрация жестокости и насилия сначала ужасает читателя, а потом нередко приводит к потере способности сочувствовать. В своей "Автобиографии" (1977) писала: "Никто тогда (в двадцатые годы) и помыслить не мог, что настанет время, когда будут читать криминальные романы, так как в них смакуются сцены насилия и они доставляют садистское удовольствие описанием зверства во имя зверства... Но теперь жестокость почти так же ежедневно употребительна, как хлеб с маслом".
Кристи всегда была поборницей женского равноправия, в частности, интеллектуального. В романе "Свидание со смертью" (1938) героиня Сейра Кинг так высказывает мысли самой Агаты Кристи: "Просто ненавижу эту дифференциацию по признаку пола... А ведь истина заключается в том, что одни девушки созданы для дела, другие - нет. Одни мужчины сентиментальны и мыслят сумбурно, другие обладают ясной головой и мыслят логически. Существуют просто разные типы умственной деятельности. Половые различия имеют значение только в сфере, непосредственно примыкающей к половым отношениям".
Лучшие романы Кристи, кроме упоминавшегося "Убийство Роджера Экройда" - "Убийство в Восточном экспрессе" (1934), "Смерть на Ниле" (1937) и самый ею любимый и великолепно написанный "Десять негритят" (1939). Практически все ее детективные романы были экранизированы или инсценированы, некоторые - неоднократно. За литературные заслуги была возведена в дворянское достоинство.
Жалко уши - читайте! - Агата Кристи - Собрание сочинений, 320 томов [FB2, RTF]
Download / Скачать

Хотите скачать бесплатно? Зарегистрируйтесь на сайте (ссылка на регистрацию). Pirat.ca - самый быстрый торрент трекер в рунете!

Как скачивать  ·   Что такое торрент  ·   Рейтинг и ограничения

Pugovka13

Лоцман

Пост 25-Дек-2012 17:42 (спустя 4 месяца 11 дней)

[Q] 

[Профиль]  [ЛС] 
Показать сообщения:    
Ответить на тему

Текущее время: Сегодня 03:56

Часовой пояс: GMT + 4



Вы не можете начинать темы
Вы не можете отвечать на сообщения
Вы не можете редактировать свои сообщения
Вы не можете удалять свои сообщения
Вы не можете голосовать в опросах
Вы не можете прикреплять файлы к сообщениям
Вы не можете скачивать файлы

Майнать ▼