Буало - Нарсежак - Подборка из 27 аудиокниг [2000-2012 гг., Ирина Ерисанова, Инна и Станислав Сытник, Вячеслав Герасимов, Максим Доронин и др., MP3, 127:11:53]

Ответить на тему
 
Автор
Сообщение

Пост 22-Окт-2012 09:26

[Q] 

Эвакуация

-Подборка из 27 аудиокниг-- Год выпуска: 2000-2012 гг.
Автор: Буало - Нарсежак
Исполнитель: Ирина Ерисанова, Инна и Станислав Сытник, Вячеслав Герасимов, Максим Доронин и др.
Жанр: Детектив
Издательство: Нигде не купишь (Клуб любителей аудиокниг), Библиофоника, Радио «Культура», «Звуковая книга» и др.
Тип аудиокниги: аудиокнига, аудиоспектакль
Аудио кодек: MP3
Время звучания: 127:11:53
Описание:
Известные французские писатели Пьер-Луи Буало и Том Нарсежак - создатели нового типа романа - «психологического детектива». В центре повествования у них обычно не сыщик, не полицейский, расследующий преступление, а жертва, ее трагическое одиночество в страшном обесчеловеченном мире. Напряженное драматическое повествование, глубина психологического анализа сделали романы этих писателей популярными во всем мире, большинство их экранизированы.
Предлагаем Вам подборку аудиокниг Буало-Нарсежака, с общим временем звучания более 127 часов.

Внимание!
02.11.2012 - Добавлен новый том - «21. Последний трюк каскадера»
05.11.2012 - Добавлено два новых тома - «22. Волчицы. Вариант 2», «23. Та, которой не стало. Вариант 2»
Просьба перекачать торрент
Год выпуска: 2012
Прочитано по изданию: Журнал «Наука и религия», 1996, № 2, 3, 4, 5 и 6
Исполнитель: Ирина Ерисанова
Звукорежиссер: Елена Иволгина
Жанр: Детектив
Издательство: Нигде не купишь (Клуб любителей аудиокниг)
Тип аудиокниги: аудиокнига
Аудио кодек: MP3
Битрейт аудио: 128 kbps, 44 kHz, Mono
Время звучания: 03:50:50
Описание:
Роман о том, что зачастую нельзя верить ни любимым ученикам, ни близким родственникам. «Брат Иуда» - рассказ об организации, членство в которой даруется только избранным. Однако очень большие деньги могут превратить в предателя почти любого, вступившего в нее, и тогда будущее братства окажется под угрозой.
Герои романа - обычные люди, таких, по словам самих писателей, «можно встретить на улице, в кафе или в метро». Интрига, как свойственно Буало-Нарсежаку, - очень сложна. И как всегда совершенно непредсказуем финал. Но в этом романе соавторы достигли таких вершин психологического анализа, что по праву заняли место в одном ряду с такими признанными знатоками человеческих душ, как Федор Достоевский, Уильям Фолкнер и Франсуа Мориак.
Общее
Полное имя : [Pirat.ca]_Boileau-Narcejac_Sobranie.Sochinenii_Audio\01. Брат Иуда\Bualo-Narsezhak_Iuda_01.mp3
Формат : MPEG Audio
Размер файла : 4,86 Мбайт
Продолжительность : 5 м. 14 с.
Режим общего битрейта : Постоянный
Общий поток : 128 Кбит/сек
Альбом : Брат Иуда
Трек/Положение : 076
Трек/Всего : 121
Исполнитель : Буало-Нарсежак
Жанр : Speech
Дата записи : 2012
Правообладатель : Клуб Любителей АудиоКниг
Обложка : Yes
Тип обложки : Cover (front)
MIME-тип обложки : image/jpeg
Примечание : Ерисанова Ирина
Аудио
Формат : MPEG Audio
Версия формата : Version 1
Профиль формата : Layer 3
Продолжительность : 5 м. 15 с.
Вид битрейта : Постоянный
Битрейт : 128 Кбит/сек
Каналы : 1 канал
Частота : 44,1 КГц
Метод сжатия : С потерями
Размер потока : 4,80 Мбайт (99%)
Год выпуска: 2012
Прочитано по изданию: Сочинения в 4-х томах, т. 2, М., Терра, Орлов и сын, 1996
Исполнитель: Вячеслав Герасимов
Звукорежиссер: Людмила Каверзнева
Жанр: Детектив
Издательство: Нигде не купишь (Клуб любителей аудиокниг)
Тип аудиокниги: аудиокнига
Аудио кодек: MP3
Битрейт аудио: 128 kbps, 44 kHz, Mono
Время звучания: 04:01:24
Описание:
Главный герой романа, совсем еще маленький мальчик Реми, однажды пережил сильную физическую травму, которая практически отобрала у него способность самостоятельно передвигаться. Вместе с умением ходить Реми потерял и свою общественную среду, оказавшись со временем забытым всеми друзьями и близкими. Юному персонажу предстоит пройти немало мук одиночества и испытать на себе настоящую горечь инвалидности. Вдобавок ко всему, в его жизни случаются поистине непонятные вещи, которые он просто не в силах разгадать самостоятельно. Но кому есть дело до страданий маленького калеки, когда мир вокруг кипит и бурлит настоящим весельем?!
Тонкий психологический роман настолько сильно погружает читателя в депрессивный мир одиночества, что просто невозможно не посочувствовать юному герою. Более того, здесь все персонажи как будто живут этой депрессией, не замечая того, что жизнь может быть хороша даже тогда, когда весь мир постоянно доводит обратное. В этой книге все буквально дышит страданием, безысходностью и ужасом горького испытания, которое никто не может облегчить или и вовсе отнять. «Дурной глаз» - это настоящий тест на сострадание, эмпатию и чуткость читателя, ведь он не просто предлагает решить детективную загадку, но и окунает в мир тех, кто несколько отличается чем-то от обычных людей.
Общее
Полное имя : [Pirat.ca]_Boileau-Narcejac_Sobranie.Sochinenii_Audio\02. Дурной глаз\Bualo-Narsezhak_Durnoy_glaz_01.mp3
Формат : MPEG Audio
Размер файла : 4,85 Мбайт
Продолжительность : 5 м. 13 с.
Режим общего битрейта : Постоянный
Общий поток : 128 Кбит/сек
Альбом : Дурной глаз
Трек/Положение : 01
Трек/Всего : 49
Исполнитель : Буало-Нарсежак
Жанр : Speech
Дата записи : 2012
Правообладатель : Клуб Любителей АудиоКниг
Обложка : Yes
Тип обложки : Cover (front)
MIME-тип обложки : image/jpeg
Примечание : Герасимов Вячеслав
Аудио
Формат : MPEG Audio
Версия формата : Version 1
Профиль формата : Layer 3
Продолжительность : 5 м. 14 с.
Вид битрейта : Постоянный
Битрейт : 128 Кбит/сек
Каналы : 1 канал
Частота : 44,1 КГц
Метод сжатия : С потерями
Размер потока : 4,79 Мбайт (99%)
Год выпуска: 2012
Прочитано по изданию: СС в 11-и томах, т. 3, М., Центрполиграф, 1995
Исполнитель: Вячеслав Герасимов
Звукорежиссер: Елена Ситникова
Жанр: Детектив
Издательство: Нигде не купишь (Клуб любителей аудиокниг)
Тип аудиокниги: аудиокнига
Аудио кодек: MP3
Битрейт аудио: 128 kbps, 44 kHz, Mono
Время звучания: 05:49:25
Описание:
«Заклятие» относится к жанру мистической экзотики. Этому произведению присуща характерная для Буало-Нарсежака гуманность и тревога за судьбу человека в безжалостном реальном мире.
«Заклятие» вовлекает в водоворот своих событий с самого первого слова. Он легко читается на одном дыхание, но впечатление от него остается просто неизгладимое. В этой книге авторы не отошли от своего мастерства в каждом человеке видеть целую вселенную, и поэтому роман поражает, прежде всего, не своей загадкой, а своей глубинной мысли, любви, ненависти и мести. Читателю просто нереально оторваться от прописных истин книги ровно до тех пор, пока не будет прочтена последняя фраза этого замысловатого детективного романа с хорошо ощутимыми элементами мистики.
Общее
Полное имя : [Pirat.ca]_Boileau-Narcejac_Sobranie.Sochinenii_Audio\03. Заклятие\Bualo-Narsezhak_Zaklyatie_01.mp3
Формат : MPEG Audio
Размер файла : 4,86 Мбайт
Продолжительность : 5 м. 14 с.
Режим общего битрейта : Постоянный
Общий поток : 128 Кбит/сек
Альбом : Заклятие
Трек/Положение : 01
Трек/Всего : 70
Исполнитель : Буало-Нарсежак
Жанр : Speech
Дата записи : 2012
Правообладатель : Клуб Любителей АудиоКниг
Обложка : Yes
Тип обложки : Cover (front)
MIME-тип обложки : image/jpeg
Примечание : Герасимов Вячеслав
Аудио
Формат : MPEG Audio
Версия формата : Version 1
Профиль формата : Layer 3
Продолжительность : 5 м. 14 с.
Вид битрейта : Постоянный
Битрейт : 128 Кбит/сек
Каналы : 1 канал
Частота : 44,1 КГц
Метод сжатия : С потерями
Размер потока : 4,80 Мбайт (99%)
Год выпуска: 2012
Прочитано по изданию: М., Центрполиграф, 1995
Исполнитель: Вячеслав Герасимов
Звукорежиссер: Людмила Каверзнева
Жанр: Детектив
Издательство: Нигде не купишь (Клуб любителей аудиокниг)
Тип аудиокниги: аудиокнига
Аудио кодек: MP3
Битрейт аудио: 128 kbps, 44 kHz, Mono
Время звучания: 02:38:24
Описание:
История начинается одним холодным и пасмурным утром 7 ноября в 1818 году во Франции. Главный персонаж романа, последний представитель мужской ветви дворянского рода графов де Мюзийяк - Пьер Орельен, возвращается на родные земли после долгих и кровавых лет диктатуры Бонапарта и бесконечных революций в стране. Вернувшись домой, Пьер вдруг узнает, что их родовой замок им уже давно не принадлежит. Герой всеми силами старается вернуть родной дом, для чего и познакомился с нынешним владельцем поместья - бароном Эрбо. И вот, когда остается всего пару шагов к окончательному договору о продаже замка, Пьер неожиданно влюбляется в прекрасную Клэр, единственную дочь барона. Именно эта сумасшедшая любовь и заставляет молодого Пьера позабыть о семейном доме и погрузиться в сладкую пучину страсти. Но жизнь ненадолго дарует Орельену счастливые минуты. Совсем скоро он узнает, что есть то, что и помешает возлюбленным навечно воссоединиться. И это не что иное, как смерть…
Общее
Полное имя : [Pirat.ca]_Boileau-Narcejac_Sobranie.Sochinenii_Audio\04. Замок спящей красавицы\Bualo-Narsezhak_Zamok_01.mp3
Формат : MPEG Audio
Размер файла : 4,84 Мбайт
Продолжительность : 5 м. 13 с.
Режим общего битрейта : Постоянный
Общий поток : 128 Кбит/сек
Альбом : Замок спящей красавицы
Трек/Положение : 01
Трек/Всего : 32
Исполнитель : Буало-Нарсежак
Жанр : Speech
Дата записи : 2012
Правообладатель : Клуб Любителей АудиоКниг
Обложка : Yes
Тип обложки : Cover (front)
MIME-тип обложки : image/jpeg
Примечание : Герасимов Вячеслав
Аудио
Формат : MPEG Audio
Версия формата : Version 1
Профиль формата : Layer 3
Продолжительность : 5 м. 14 с.
Вид битрейта : Постоянный
Битрейт : 128 Кбит/сек
Каналы : 1 канал
Частота : 44,1 КГц
Метод сжатия : С потерями
Размер потока : 4,79 Мбайт (99%)
Год выпуска: 2012
Прочитано по изданию: Сочинения в 4-х томах, т. 2, М., Терра, Орлов и сын, 1996
Исполнитель: Вячеслав Герасимов
Звукорежиссер: Людмила Каверзнева
Жанр: Детектив
Издательство: Нигде не купишь (Клуб любителей аудиокниг)
Тип аудиокниги: аудиокнига
Аудио кодек: MP3
Битрейт аудио: 128 kbps, 44 kHz, Mono
Время звучания: 06:05:09
Описание:
Этот роман - история погружения героя в безумие. Герой романа окончательно лишившись рассудка, не желая примириться с внезапно открывшейся реальностью, убивает свою подругу и остается возле трупа ждать ее очередной реинкарнации.
Роман «Дурной глаз» (другое название - «В холодном поту») написан в форме остросюжетного психологического детектива с элементами сложных и запутанных коллизий и, по признанию критики, их лучшее произведение.
Любопытный факт - по роману «Из страны мертвых» Хичкок снял фильм «Головокружение» (1958). Буало-Нарсежак сразу писали свой роман в расчете на экранизацию его Хичкоком. Первоначально маэстро саспенса нацеливался на более раннее творение французского дуэта - «Та, которой не стало». Но идею перехватил другой мастер экранного страха - Анри-Жорж Клузо.
Общее
Полное имя : [Pirat.ca]_Boileau-Narcejac_Sobranie.Sochinenii_Audio\05. Из страны мертвых\Bualo-Narsezhak_mertvyh_01.mp3
Формат : MPEG Audio
Размер файла : 4,84 Мбайт
Продолжительность : 5 м. 13 с.
Режим общего битрейта : Постоянный
Общий поток : 128 Кбит/сек
Альбом : Из страны мертвых
Трек/Положение : 01
Трек/Всего : 73
Исполнитель : Буало-Нарсежак
Жанр : Speech
Дата записи : 2012
Правообладатель : Клуб Любителей АудиоКниг
Обложка : Yes
Тип обложки : Cover (front)
MIME-тип обложки : image/jpeg
Примечание : Герасимов Вячеслав
Аудио
Формат : MPEG Audio
Версия формата : Version 1
Профиль формата : Layer 3
Продолжительность : 5 м. 13 с.
Вид битрейта : Постоянный
Битрейт : 128 Кбит/сек
Каналы : 1 канал
Частота : 44,1 КГц
Метод сжатия : С потерями
Размер потока : 4,78 Мбайт (99%)
Год выпуска: 2012
Прочитано по изданию: Сочинения в 4-х томах, т. 2, М., Терра, Орлов и сын, 1996
Исполнитель: Вячеслав Герасимов
Звукорежиссер: Людмила Каверзнева
Жанр: Детектив
Издательство: Нигде не купишь (Клуб любителей аудиокниг)
Тип аудиокниги: аудиокнига
Аудио кодек: MP3
Битрейт аудио: 128 kbps, 44 kHz, Mono
Время звучания: 05:38:10
Описание:
Свидетели убийства и кражи: инженеры завода и заводской охранник. Тишину прекрасного спокойного летнего дня внезапно нарушает выстрел. У послевоенного Парижа, который забыл ужасы оккупации, дежавю. На оборонном предприятии убит ведущий инженер, который отвечал за «цилиндр». Этот невзрачный на вид предмет, мог стереть с лица земли, этот прекрасный город. И вот эта «игрушка» похищена. Невидимый убийца исчез с места преступления, оставив после себя труп и открытый сейф. 14 секунд с момента рокового выстрела, понадобилось ему, что бы испариться, ведь именно столько времени, понадобилось свидетелям, что бы ворваться в комнату.
Комиссар Марей начинает расследовать дело об инженере… «инженере, который слишком любил цифры». А убийца, словно насмехаясь, продолжает,… продолжает «смеяться» над цифрами. Он наносит следующий удар и в этот раз ему хватило еще меньше времени, что бы «испариться», и еще один, – смеясь над всеми законами математики и здравым смыслом. Все лучшие силы полиции, службы безопасности и лучшие специалисты «тайной войны», включились в борьбу с «невидимкой». Неудача следует за неудачей.
«А Марею хотелось узнать. Уж так он был устроен, что неразрешимая проблема застревала у него в мозгу, как заноза, образуя болезненную ноющую, незаживающую рану. Его собственная жизнь, так как и жизнь других людей, переставала интересовать его».
Поединок между комиссаром Мареем и человеком, проходящим сквозь стены, начинается… Стрелки секундомера начали бесконечный круг… И счет идет на секунды.
«Инженер слишком любил цифры – Подведем итоги, – сказал он. – Убийца проник сюда во время обеденного перерыва… Сейчас проверим. Без десяти минут два он здесь, Леживр, который находится во дворе, закрывает ему путь к отступлению. Он убивает Сорбье. В это время подоспели мой друг Бельяр и мсье Ренардо. Здесь никого уже нет, а цилиндр весом в двадцать килограммов исчез… Вопрос: каким путем удалось скрыться убийце? – Именно так, – подтвердил Оберте.»
Общее
Полное имя : [Pirat.ca]_Boileau-Narcejac_Sobranie.Sochinenii_Audio\06. Инженер слишком любил цифры\Bualo-Narsezhak_Inzhener_01.mp3
Формат : MPEG Audio
Размер файла : 4,86 Мбайт
Продолжительность : 5 м. 13 с.
Режим общего битрейта : Постоянный
Общий поток : 128 Кбит/сек
Альбом : Инженер слишком любил цифры
Трек/Положение : 01
Трек/Всего : 68
Исполнитель : Буало-Нарсежак
Жанр : Speech
Дата записи : 2012
Правообладатель : Клуб Любителей АудиоКниг
Обложка : Yes
Тип обложки : Cover (front)
MIME-тип обложки : image/jpeg
Примечание : Герасимов Вячеслав
Аудио
Формат : MPEG Audio
Версия формата : Version 1
Профиль формата : Layer 3
Продолжительность : 5 м. 14 с.
Вид битрейта : Постоянный
Битрейт : 128 Кбит/сек
Каналы : 1 канал
Частота : 44,1 КГц
Метод сжатия : С потерями
Размер потока : 4,79 Мбайт (99%)
Год выпуска: 2012
Прочитано по изданию: Сочинения в 4-х томах, т. 3, М., Терра, Орлов и сын, 1996
Исполнитель: Юрий Заборовский
Звукорежиссер: Игорь Опарин
Жанр: Детектив
Издательство: Нигде не купишь (Клуб любителей аудиокниг)
Тип аудиокниги: аудиокнига
Аудио кодек: MP3
Битрейт аудио: 128 kbps, 44 kHz, Mono
Время звучания: 06:39:52
Описание:
Главный герой книги, молодой человек с умом и большим сердцем, не привык общаться с противоположным полом. Но это его не сильно смущало, пока однажды он не понял, что его сильно манит к двум сестренкам-близнецам. Они буквально сводят его с ума, заставляя грезить о себе днем и ночью. Их глаза и милые голоса преследуют его повсюду, заставляя забыть о предыдущих интересах и увлечениях. Весь окружающий мир героя вдруг начинает катиться в тартарары, но его это мало интересует. И все это происходит на фоне постоянных воспоминаний главного персонажа о прошлых годах жизни, где может быть спрятаны все ответы. Казалось бы, что в свете всех событий концовка этой истории настолько предсказуема, что нечего даже и мечтать об ином сложении обстоятельств. Но герой зря надеется на счастливый финал, ведь его горячее обожание обречено на медленную смерть от мистического происшествия…
Великолепный психологический детектив читается на удивление легко и быстро. Да и может ли быть иначе, если авторы просто рассказывают об обычной жизни вполне обычных людей?! Изюминку романа составил весь тот леденящий холод, который то и дело пытается проникнуть из внешнего мира в горячее и пылкое сердце главного героя. Эту книгу критики рекомендуют читать в полном спокойствии и только в теплое время года, иначе холод из книги может запросто заставить замерзнуть.
Общее
Полное имя : [Pirat.ca]_Boileau-Narcejac_Sobranie.Sochinenii_Audio\07. Куклы\Bualo-Narsezhak_Kukly_01.mp3
Формат : MPEG Audio
Размер файла : 4,65 Мбайт
Продолжительность : 5 м. 0 с.
Режим общего битрейта : Постоянный
Общий поток : 128 Кбит/сек
Альбом : Куклы
Трек/Положение : 01
Трек/Всего : 80
Исполнитель : Буало-Нарсежак
Жанр : Speech
Дата записи : 2012
Правообладатель : Клуб Любителей АудиоКниг
Обложка : Yes
Тип обложки : Cover (front)
MIME-тип обложки : image/jpeg
Примечание : Заборовский Юрий
Аудио
Формат : MPEG Audio
Версия формата : Version 1
Профиль формата : Layer 3
Продолжительность : 5 м. 1 с.
Вид битрейта : Постоянный
Битрейт : 128 Кбит/сек
Каналы : 1 канал
Частота : 44,1 КГц
Метод сжатия : С потерями
Размер потока : 4,59 Мбайт (99%)
Год выпуска: 2012
Прочитано по изданию: Сочинения в 4-х томах, т. 4, М., Терра, Орлов и сын, 1996
Исполнитель: Валерия Лебедева
Звукорежиссер: Алла Тополева
Жанр: Детектив
Издательство: Нигде не купишь (Клуб любителей аудиокниг)
Тип аудиокниги: аудиокнига
Аудио кодек: MP3
Битрейт аудио: 128 kbps, 44 kHz, Mono
Время звучания: 06:31:46
Описание:
Буало-Нарсежак остаются верны своей теме и в очередном романе, который называется «Лица во тьме». Человек в обычной жизни оказывается в самых необычных ситуациях. И ему ничего не остается, как приспосабливаться к предложенным судьбой условиям. Хватит ли ему воли выжить в предложенных обстоятельствах, тяжесть коих ложится не только на него, но и на тех, кто окружает героя – любимые, родные вынуждены нести это бремя вместе с ним… Мы видим в романе не только развитие сюжета, но и вместе с героем переживаем его внутреннее состояние.
«Затаив дыхание, он шагнул навстречу голосам в непроницаемую, промозглую тишину подземелья. Вскоре, однако, ему снова пришлось глубоко втянуть в себя воздух, и тьма в ответ вторила его дыханию. Казалось, невидимая, горестная процессия сопровождает его тяжким стоном. Лабиринт был наполнен чьим-то скорбным присутствием, кто-то молча с трудом волочил ноги в кромешной тьме. Эрмантье задел плечом окаймлявшую дорогу ограду. Она была скользкой и липкой от влаги. И казалась бесконечной...»
Общее
Полное имя : [Pirat.ca]_Boileau-Narcejac_Sobranie.Sochinenii_Audio\08. Лица во тьме\Bualo-Narsezhak_Litsa_01.mp3
Формат : MPEG Audio
Размер файла : 4,66 Мбайт
Продолжительность : 5 м. 1 с.
Режим общего битрейта : Постоянный
Общий поток : 128 Кбит/сек
Альбом : Лица во тьме
Трек/Положение : 01
Трек/Всего : 78
Исполнитель : Буало-Нарсежак
Жанр : Speech
Дата записи : 2012
Правообладатель : Клуб Любителей АудиоКниг
Обложка : Yes
Тип обложки : Cover (front)
MIME-тип обложки : image/jpeg
Примечание : Лебедева Валерия
Аудио
Формат : MPEG Audio
Версия формата : Version 1
Профиль формата : Layer 3
Продолжительность : 5 м. 2 с.
Вид битрейта : Постоянный
Битрейт : 128 Кбит/сек
Каналы : 1 канал
Частота : 44,1 КГц
Метод сжатия : С потерями
Размер потока : 4,60 Мбайт (99%)
Год выпуска: 2012
Прочитано по изданию: Сочинения в 4-х томах, т. 4, М., Терра, Орлов и сын, 1996
Исполнитель: Валерия Лебедева
Звукорежиссер: Алла Тополева
Жанр: Детектив
Издательство: Нигде не купишь (Клуб любителей аудиокниг)
Тип аудиокниги: аудиокнига
Аудио кодек: MP3
Битрейт аудио: 128 kbps, 44 kHz, Mono
Время звучания: 06:30:50
Описание:
Рассказ начинается с известия о том, что Жоpж Севp в один не столь прекрасный день покончил с собой выстpелом своего же pужья себе в лоб. Сразу после этого его зять, Филипп Меpибель, сбежал из дома. Главным подозреваемым становится, конечно же, пропавший неожиданно Мерибель, но в ходе расследования все оказывается не таким уж и легким, как на то надеются следователи убийства. Читатели будут ошарашены, когда узнают, что это Мерибель на самом деле мертв, а Жорж Севр всего лишь инсценировал собственную смерть. Но кого он выгораживает и зачем он это сделал, останется загадкой до конца детектива. Виновен ли тот, на кого указывают все улики или он просто жертва искусного игрока и опытного наблюдателя?
Интрига, неожиданные повороты событий и роковые ошибки не оставят ни одного читателя равнодушным к гениальному и тонкому психологическому произведению. Такого напряжения и волнения нельзя найти ни в одной из уже изданных книг, отчего этот роман еще называют «Трагедией ошибок». До самых последних страниц любого чтеца книги будет терзать вопрос о настоящем преступнике и о том, какое наказание ждет тех, кто все это гениально спланировал и устроил. Но финал этой истории, несомненно, удивит всех и каждого, ведь он совсем не такой, как подсказывает дедукция и логика…
Общее
Полное имя : [Pirat.ca]_Boileau-Narcejac_Sobranie.Sochinenii_Audio\09. Недоразумение\Bualo-Narsezhak_Nedorazumenie_01.mp3
Формат : MPEG Audio
Размер файла : 4,66 Мбайт
Продолжительность : 5 м. 1 с.
Режим общего битрейта : Постоянный
Общий поток : 128 Кбит/сек
Альбом : Недоразумение
Трек/Положение : 01
Трек/Всего : 78
Исполнитель : Буало-Нарсежак
Жанр : Speech
Дата записи : 2012
Правообладатель : Клуб Любителей АудиоКниг
Обложка : Yes
Тип обложки : Cover (front)
MIME-тип обложки : image/jpeg
Примечание : Лебедева Валерия
Аудио
Формат : MPEG Audio
Версия формата : Version 1
Профиль формата : Layer 3
Продолжительность : 5 м. 1 с.
Вид битрейта : Постоянный
Битрейт : 128 Кбит/сек
Каналы : 1 канал
Частота : 44,1 КГц
Метод сжатия : С потерями
Размер потока : 4,60 Мбайт (99%)
Год выпуска: 2012
Прочитано по изданию: Сочинения в 4-х томах, т. 4, М., Терра, Орлов и сын, 1996
Исполнитель: Валерия Лебедева
Звукорежиссер: Алла Тополева
Жанр: Детектив
Издательство: Нигде не купишь (Клуб любителей аудиокниг)
Тип аудиокниги: аудиокнига
Аудио кодек: MP3
Битрейт аудио: 128 kbps, 44 kHz, Mono
Время звучания: 06:19:23
Описание:
«Она припала лицом к груди Лепра, и он почувствовал, как руки любовницы судорожно, до боли стиснули его ребра. Это были ее рыдания. «Я в отчаянии, что все так вышло, - самым нежным голосом сказал Лепра. - Но зато теперь я могу тебя любить. И не хочу потерять. Я готов на все, только бы не потерять тебя». Голос его дрогнул. Слова всегда имели над ним непонятную власть. До него еще не вполне дошло, что он убил Фожера, но он и в самом деле был готов на все, чтобы удержать Еву».
Думаю, уже из этих строк вам стала ясна интрига романа «Очертя сердце» признанных мастеров детективного жанра Пьера Луи Буало и Тома Нарсежака
Общее
Полное имя : [Pirat.ca]_Boileau-Narcejac_Sobranie.Sochinenii_Audio\10. Очертя сердце\Bualo-Narsezhak_Ochertya_01.mp3
Формат : MPEG Audio
Размер файла : 4,99 Мбайт
Продолжительность : 5 м. 23 с.
Режим общего битрейта : Постоянный
Общий поток : 128 Кбит/сек
Альбом : Очертя сердце
Трек/Положение : 001
Трек/Всего : 121
Исполнитель : Буало-Нарсежак
Жанр : Speech
Дата записи : 2012
Правообладатель : Клуб Любителей АудиоКниг
Обложка : Yes
Тип обложки : Cover (front)
MIME-тип обложки : image/jpeg
Примечание : Лебедева Валерия
Аудио
Формат : MPEG Audio
Версия формата : Version 1
Профиль формата : Layer 3
Продолжительность : 5 м. 24 с.
Вид битрейта : Постоянный
Битрейт : 128 Кбит/сек
Каналы : 1 канал
Частота : 44,1 КГц
Метод сжатия : С потерями
Размер потока : 4,94 Мбайт (99%)
Год выпуска: 2012
Прочитано по изданию: СС в 11-и томах, т. 1, М., Центрполиграф, 1995
Исполнитель: Вячеслав Герасимов
Звукорежиссер: Людмила Каверзнева
Жанр: Детектив
Издательство: Нигде не купишь (Клуб любителей аудиокниг)
Тип аудиокниги: аудиокнига
Аудио кодек: MP3
Битрейт аудио: 128 kbps, 44 kHz, Mono
Время звучания: 04:55:14
Описание:
Первая литературная работа тандема Пьера Буало и Пьера Робера Эро (Тома Нарсежака).
В пансионат «Каравелла» приезжает пара молодых людей: старшая сестра Симона, двадцатидвухлетняя, довольно привлекательная женщина и ее двадцатишестилетний брат, начинающий художник Сильвен. Через неделю, Сильвен спасает от гибели в бурных водах реки, некую Клодетту, которая в качестве благодарности приглашает брата и сестру пожить в доме ее родителей. Так Симона и Сильвен начинают жить в доме спасенной девушки, вместе с ее матерью и отчимом. И само собой между спасителем и спасенной возникает любовь. «И поженились они, и стали жить счастливо и померли в один день»… стоп, это в сказках так. Они не поженились, хотя… Тут надо остановиться. Прямо сейчас начнет разворачиваться детективный сюжет.
Общее
Полное имя : [Pirat.ca]_Boileau-Narcejac_Sobranie.Sochinenii_Audio\11. Призрачная охота\Bualo-Narsezhak_ohota_01.mp3
Формат : MPEG Audio
Размер файла : 4,86 Мбайт
Продолжительность : 5 м. 14 с.
Режим общего битрейта : Постоянный
Общий поток : 128 Кбит/сек
Альбом : Призрачная охота
Трек/Положение : 01
Трек/Всего : 59
Исполнитель : Буало-Нарсежак
Жанр : Speech
Дата записи : 2012
Правообладатель : Клуб Любителей АудиоКниг
Обложка : Yes
Тип обложки : Cover (front)
MIME-тип обложки : image/jpeg
Примечание : Герасимов Вячеслав
Аудио
Формат : MPEG Audio
Версия формата : Version 1
Профиль формата : Layer 3
Продолжительность : 5 м. 15 с.
Вид битрейта : Постоянный
Битрейт : 128 Кбит/сек
Каналы : 1 канал
Частота : 44,1 КГц
Метод сжатия : С потерями
Размер потока : 4,80 Мбайт (99%)
Год выпуска: 2009
Исполнителb: Александр Быков, Ирина Маликова, Олег Мартьянов, Владимир Левашов , Владимир Гранов
Жанр: Детектив
Издательство: Радио России
Тип аудиокниги: аудиоспектакль
Аудио кодек: MP3
Битрейт аудио: 160 kbps, 44 kHz, Stereo
Время звучания: 01:50:00
Описание:
Отлично исполненный детективный роман известных мастеров французской прозы Пьера Буало и Тома Нарсежака «Жизнь вдребезги», следствие в котором ведется не профессиональным сыщиком, а главным героем-жертвой. Дюваль женился на женщине с состоянием, но брак не принес счастья ни ему, ни его жене Веронике. Авария на дороге позволяет Веронике считать, что Дюваль желает ее смерти...
Общее
Полное имя : [Pirat.ca]_Boileau-Narcejac_Sobranie.Sochinenii_Audio\12. Жизнь вдребезги\01_Part_1.mp3
Формат : MPEG Audio
Размер файла : 21,3 Мбайт
Продолжительность : 18 м.
Режим общего битрейта : Постоянный
Общий поток : 160 Кбит/сек
Трек : Жизнь вдребезги
Трек/Положение : 01
Трек/Всего : 07
Исполнитель : Буало-Нарсежак
Аудио
Формат : MPEG Audio
Версия формата : Version 1
Профиль формата : Layer 3
Продолжительность : 18 м.
Вид битрейта : Постоянный
Битрейт : 160 Кбит/сек
Каналы : 2 канала
Частота : 44,1 КГц
Метод сжатия : С потерями
Размер потока : 21,3 Мбайт (100%)
Год выпуска: 2000
Прочитано по изданию: Журнал «Смена», 2000, № 5
Перевод с фр.: Александр Давыдов
Исполнитель: Вячеслав Герасимов
Жанр: Детектив
Издательство: Нигде не купишь (Клуб любителей аудиокниг)
Тип аудиокниги: аудиокнига
Аудио кодек: MP3
Битрейт аудио: 96 kbps, 44 kHz, Mono
Время звучания: 03:38:04
Описание:
«Колдуньи» - роман с запутанной и сложной интригой и психологически продуманными характерами действующих лиц. В этом романе авторы всегда верны своему методу. Главный герой повествования, от лица которого ведется рассказ, - жертва трагических обстоятельств, создаваемых безжалостными преследователями. Сцены с иллюзионистическими эффектами описаны с величайшим мастерством, свойственным этим авторам.
Общее
Полное имя : [Pirat.ca]_Boileau-Narcejac_Sobranie.Sochinenii_Audio\13. Колдуньи\01_01_01.mp3
Формат : MPEG Audio
Размер файла : 3,52 Мбайт
Продолжительность : 5 м. 7 с.
Режим общего битрейта : Постоянный
Общий поток : 96,0 Кбит/сек
Трек/Положение : 1
Аудио
Формат : MPEG Audio
Версия формата : Version 1
Профиль формата : Layer 3
Продолжительность : 5 м. 8 с.
Вид битрейта : Постоянный
Битрейт : 96,0 Кбит/сек
Каналы : 1 канал
Частота : 44,1 КГц
Метод сжатия : С потерями
Размер потока : 3,52 Мбайт (100%)
Год выпуска: 2009
Исполнители: Татьяна Курьянова, Николай Верещенко, Олег Форостенко, Людмила Долгорукова, Анатолий Лобоцкий, Игорь Баховко, Михаил Янушкевич, Зинаида Андреева, Александра Назарова. В эпизодах — артисты московских театров
Режиссер: Николай Глунин
Автор инсценировки: Елена Ковалевская
Звукооператоры: Ирина Кудинова, Наталья Сазонова
Жанр: Детектив
Издательство: «Звуковая книга», из архива «Гостелерадиофонда»
Тип аудиокниги: Радиоспектакль по книге «В волчьей пасти», запись 1995 года
Аудио кодек: MP3
Битрейт аудио: 192 kbps, 44 kHz, Stereo
Время звучания: 01:44:49
Описание:
Каждый мальчишка в 13 лет мечтает о приключениях. Но мог ли Франсуа предугадать, чем обернется скучная поездка в горы, навязанная ему родителями? Что вместе с другом Полем они будут вести настоящее расследование, даже не подозревая, насколько оно рискованное и опасное? Но что может остановить бесстрашных, любознательных, отчаянных мальчишек, пытающихся проникнуть в тайну «сюрприза на букву «п»?
Общее
Полное имя : [Pirat.ca]_Boileau-Narcejac_Sobranie.Sochinenii_Audio\14. Пещера загадок\01.mp3
Формат : MPEG Audio
Размер файла : 11,1 Мбайт
Продолжительность : 8 м. 5 с.
Режим общего битрейта : Постоянный
Общий поток : 192 Кбит/сек
Альбом : Ïåùåðà çàãàäîê
Трек : ×àñòü 1 ôðàãìåíò 1
Трек/Положение : 01
Исполнитель : Áóàëî-Íàðñåæàê
Жанр : Speech
Дата записи : 2009
Примечание : Çàïèñü 1995 ã.
Аудио
Формат : MPEG Audio
Версия формата : Version 1
Профиль формата : Layer 3
Режим : Joint stereo
Продолжительность : 8 м. 6 с.
Вид битрейта : Постоянный
Битрейт : 192 Кбит/сек
Каналы : 2 канала
Частота : 44,1 КГц
Метод сжатия : С потерями
Размер потока : 11,1 Мбайт (100%)
Год выпуска: 2006
Перевод с фр.: Элла Завьялова
Исполнитель: Максим Доронин
Жанр: Детектив
Издательство: Проект «Открытая студия», Алма-Ата
Тип аудиокниги: аудиокнига
Аудио кодек: MP3
Битрейт аудио: 64 kbps, 32 kHz, Mono
Время звучания: 04:28:08
Описание:
«Та, которой не стало» - рассказ о муже, который планирует убийство жены, но не знает о том, какую цену ему придется заплатить за это...
Здесь нет такого привычного нам следователя-ищейки, расследующего преступление, как нет и никакой тайны в том, кто же его совершил. С первых же строк мы становимся свидетелями убийства жены мужем и его любовницей из-за страховки. Казалось бы, никакой загадки? Как бы не так!
Полное погружение в мысли и чувства человека, по своей сути не способного совершить преступления, и все же, его совершившего. Что он чувствует? О чем думает? Раскаивается или же выдумывает оправдания? Мосье Равинель очень серый и банальный человек, коммивояжер под давлением своей властной любовницы решается на убийство. Казалось бы, он любил свою жену, да и деньги для него были не так важны, но он привык еще с детства слушаться деспота-отца, а теперь роль тирана выполняет любовница. Или же это только оправдание самого себя, чтобы скрыть более глубинные мотивы, червоточины его личности?
Увлекательно. Особенно тем, что сюжет делает неожиданные повороты и психологический детектив выливается в мистику, а затем... но ладно, не будем о том, что следует «за тем», чтобы избежать спойлеров. Застыв в напряжении, не можешь сдвинуться с места и вот, вспышка, кульминация и... звон в ушах. Весь сюжет, все, что ты уже знал переворачивается с ног на голову. Вспоминаются оброненные слова, какие-то мелкие детали, обрывки разговоров. И мистический туман отступает оставляя место сухому расчету и обыденности. И все-таки концовка остается открытой…
Любопытный и необычный представитель своего жанра, да и еще и читается быстро и легко, почему бы не скоротать за ним свободный вечерок? Классический криминальный роман, на поверку оказывающийся повествованием об иллюзорности мира, лег в основу кинолент, вошедших в золотой фонд французского и американского кинематографа.
Общее
Полное имя : [Pirat.ca]_Boileau-Narcejac_Sobranie.Sochinenii_Audio\15. Та, которой не стало\001.MP3
Формат : MPEG Audio
Размер файла : 4,18 Мбайт
Продолжительность : 9 м. 7 с.
Режим общего битрейта : Постоянный
Общий поток : 64,0 Кбит/сек
Жанр : Blues
Аудио
Формат : MPEG Audio
Версия формата : Version 1
Профиль формата : Layer 3
Продолжительность : 9 м. 7 с.
Вид битрейта : Постоянный
Битрейт : 64,0 Кбит/сек
Каналы : 1 канал
Частота : 32,0 КГц
Метод сжатия : С потерями
Размер потока : 4,18 Мбайт (100%)
Год выпуска: 2007
Исполнители: Наталья Киндинова, Олег Мартьянов, Александр Быков, Владимир Левашёв, Александр Литовкин
Жанр: Детектив
Издательство: Радио «Культура», программа «Острый сюжет»
Тип аудиокниги: аудиоспектакль
Аудио кодек: MP3
Битрейт аудио: 128 kbps, 44 kHz, Stereo
Время звучания: 01:46:31
Описание:
Радиоспектакль «Последняя песня для Евы» по известному детективному роману писательского дуэта Буало – Нарсежак «Смерть на 45 оборотов». Нестандартный подход классиков французского психологического детектива к теме трагического любовного треугольника.
Общее
Полное имя : [Pirat.ca]_Boileau-Narcejac_Sobranie.Sochinenii_Audio\16. Последняя песня для Евы\Буало-Нарсежак - Последняя песня для Евы - 1.mp3
Формат : MPEG Audio
Размер файла : 16,8 Мбайт
Продолжительность : 18 м.
Режим общего битрейта : Постоянный
Общий поток : 128 Кбит/сек
Аудио
Формат : MPEG Audio
Версия формата : Version 1
Профиль формата : Layer 3
Режим : Joint stereo
Расширение режима : MS Stereo
Продолжительность : 18 м.
Вид битрейта : Постоянный
Битрейт : 128 Кбит/сек
Каналы : 2 канала
Частота : 44,1 КГц
Метод сжатия : С потерями
Размер потока : 16,8 Мбайт (100%)
Год выпуска: 2008
Исполнители: Леонид Кулагин, Геннадий Юшко, Алина Покровская, Ольга Сирина, Татьяна Махова
Режиссер: Мария Попова
Жанр: Детектив
Издательство: Радио «Культура», программа «Острый сюжет», запись «Гостелерадиофонда»
Тип аудиокниги: аудиоспектакль
Аудио кодек: MP3
Битрейт аудио: 128 kbps, 48 kHz, Stereo
Время звучания: 01:28:03
Описание:
Аудиоспектакль по приключенческому роману «Волчицы» - классический пример психологического детектива, созданный творческим тандемом Пьера Буало и Тома Нарсежака.
Идет Вторая Мировая Война. Франция оккупирована. Два друга совершают побег из немецкого лагеря для военнопленных, но когда успех операции уже кажется очевидным, один из них погибает. Так под именем своего товарища Жерве Ларош попадает в дом Элен Мадинье, где главного героя начинают мучить не только угрызения совести, но и предчувствие – именно он становится жертвой изощренной интриги.
Общее
Полное имя : [Pirat.ca]_Boileau-Narcejac_Sobranie.Sochinenii_Audio\17. Волчицы\001.mp3
Формат : MPEG Audio
Размер файла : 16,4 Мбайт
Продолжительность : 17 м.
Режим общего битрейта : Постоянный
Общий поток : 128 Кбит/сек
Альбом :
Трек : âîë÷èöû
Жанр : Other
Дата записи : 2008
Аудио
Формат : MPEG Audio
Версия формата : Version 1
Профиль формата : Layer 3
Продолжительность : 17 м.
Вид битрейта : Постоянный
Битрейт : 128 Кбит/сек
Каналы : 2 канала
Частота : 48,0 КГц
Метод сжатия : С потерями
Размер потока : 16,4 Мбайт (100%)
Год выпуска: 2002
Прочитано по изданию: СС в 11-и томах, т. 3, М., Центрполиграф, 1995
Перевод с фр.: Машкова, Леликова, Закарьян
Исполнитель: Вячеслав Герасимов
Жанр: Детектив
Издательство: Нигде не купишь (Клуб любителей аудиокниг)
Тип аудиокниги: аудиокнига
Аудио кодек: MP3
Битрейт аудио: 96 kbps, 44 kHz, Mono
Время звучания: 16:32:02
Описание:
Вошедшие в эту аудиокнигу произведения (С сердцем не в ладу. Заклятие. Трагедия ошибок) необычайно многоплановы и емки по содержанию для раскрытия писательского кредо авторов.
Мистическая экзотика «Заклятия»; фотографическая точность в отображении нравов парижской богемы романа «С сердцем не в ладу» и насыщенная философскими размышлениями о добре и зле на фоне отзвуков давно закончившейся Второй мировой войны ткань романа «Трагедия ошибок». Объединяет эти произведения неизменно присущая Буало-Нарсежаку гуманность и тревога за судьбу человека в безжалостном реальном мире.
Содержание:
1. С сердцем не в ладу – 05:14:34
2. Заклятие – 05:40:00
3. Трагедия ошибок – 05:38:26
Общее
Полное имя : [Pirat.ca]_Boileau-Narcejac_Sobranie.Sochinenii_Audio\18. С сердцем не в ладу\1. С сердцем не в ладу\01_01_01.mp3
Формат : MPEG Audio
Размер файла : 3,56 Мбайт
Продолжительность : 5 м. 11 с.
Режим общего битрейта : Постоянный
Общий поток : 96,0 Кбит/сек
Аудио
Формат : MPEG Audio
Версия формата : Version 1
Профиль формата : Layer 3
Продолжительность : 5 м. 11 с.
Вид битрейта : Постоянный
Битрейт : 96,0 Кбит/сек
Каналы : 1 канал
Частота : 44,1 КГц
Метод сжатия : С потерями
Размер потока : 3,56 Мбайт (100%)
Год выпуска: 2002
Перевод с фр.: Скороходов
Исполнитель: Вячеслав Герасимов
Звукорежиссер: Людмила Каверзнева
Жанр: Детектив
Издательство: «Логос», Нигде не купишь (Клуб любителей аудиокниг)
Тип аудиокниги: аудиокнига
Аудио кодек: MP3
Битрейт аудио: 128 kbps, 44 kHz, Mono
Время звучания: 08:40:08
Описание:
В эту книгу Буало-Нарсежака вошли романы с запутанной и сложной интригой и психологически продуманными характерами действующих лиц. В этих романах авторы неизменно верны своему методу. Главный герой повествования, от лица которого ведется рассказ, - жертва трагических обстоятельств, создаваемых безжалостными преследователями.
Общее
Полное имя : [Pirat.ca]_Boileau-Narcejac_Sobranie.Sochinenii_Audio\19. Фокусницы. Замок спящей красавицы\t 101.mp3
Формат : MPEG Audio
Размер файла : 57,1 Кбайт
Продолжительность : 3 с. 657 мс.
Режим общего битрейта : Постоянный
Общий поток : 128 Кбит/сек
Аудио
Формат : MPEG Audio
Версия формата : Version 1
Профиль формата : Layer 3
Продолжительность : 3 с. 657 мс.
Вид битрейта : Постоянный
Битрейт : 128 Кбит/сек
Каналы : 1 канал
Частота : 44,1 КГц
Метод сжатия : С потерями
Размер потока : 57,1 Кбайт (100%)
Год выпуска: 2006
Исполнители: Инна и Станислав Сытник
Жанр: Детектив
Издательство: Библиофоника
Тип аудиокниги: аудиокнига
Аудио кодек: MP3
Битрейт аудио: 128 kbps, 44 kHz, Mono
Время звучания: 11:16:14
Описание:
Увлекательные романы Буало-Нарсежака «Смерть сказала: может быть» и «Вдовцы» - это замечательные образцы детективного жанра, отличающиеся оригинальной интригой, остросюжетностью, наращиванием напряженности, глубоким анализом психологии героев, ярким, лаконичным стилем.
В основе первого романа лежит описание попытки самоубийства молодой женщины. В службу доверия обращается девушка на грани нервного срыва, утверждая, что ей не на что надеяться и она хочет покончить с собой. Попытка помочь ей грозит закончиться для героя романа трагически. Запутанный клубок психологических проблем, биографических фактов, благородных стремлений и преступных намерений и действий разматывается на протяжении всего произведения и лишь неожиданная концовка расставляет все точки над i.
Во «Вдовцах» изображена, казалось бы, банальная ситуация ревнивого мужа, но решается она необычно: жертва и преступник объединяются в одном персонаже. Начинающий литератор, молодой, талантливый, по очень ревнивый, покупает на черном рынке пистолет, чтобы убить предполагаемого любовника своей жены... Главный герой терзается сам и терзает свою любовь. Он талантлив, он написал роман, претендующий на престижную премию, однако его сжигают страсти: жажда славы и ревность. В результате наделаны глупости, любимая женщина погибает, а герой терзается ужасом разоблачения. Дополнительный интерес сообщает роману психологическая мотивация поступков главного героя.
Общее
Полное имя : [Pirat.ca]_Boileau-Narcejac_Sobranie.Sochinenii_Audio\20. Смерть сказала может быть. Вдовцы\Sm_Gl_01\Track_00.MP3
Формат : MPEG Audio
Размер файла : 677 Кбайт
Продолжительность : 43 с.
Режим общего битрейта : Постоянный
Общий поток : 128 Кбит/сек
Аудио
Формат : MPEG Audio
Версия формата : Version 1
Профиль формата : Layer 3
Продолжительность : 43 с.
Вид битрейта : Постоянный
Битрейт : 128 Кбит/сек
Каналы : 1 канал
Частота : 44,1 КГц
Метод сжатия : С потерями
Размер потока : 676 Кбайт (100%)
Год выпуска: 2012
Прочитано по изданию: М., Журнал «Смена», 1990 , № 1
Перевод с фр.: Галина Беляева
Исполнитель: Сергей Кирсанов
Звукорежиссер: Елена Иволгина
Жанр: Детектив
Издательство: Нигде не купишь (Клуб любителей аудиокниг)
Тип аудиокниги: аудиокнига
Аудио кодек: MP3
Битрейт аудио: 96 kbps, 44 kHz, Mono
Время звучания: 04:30:39
Описание:
Говорят, что идеальных преступлений не бывает. Невозможно все предусмотреть. Но и, чтобы заметить ошибку преступника, нужен особый талант. У комиссара Дре, расследующего самоубийство крупного предпринимателя Фромана, видимо, такой талант был.
«Слегка скрипнуло кресло, человек сел. Неожиданно в темноту дерева врезается круг ослепительного света лампы — в кругу его руки. В одной — смятый в комок носовой платок, в другой — револьвер. В ярком свете лишь руки полны жизни. Лицо мужчины похоже на подвешенную загадочным образом гипсовую маску. Правая рука с величайшей предосторожностью кладет оружие на подлокотник и застывает. Осмелев, рука отодвигается, медлит. Закрывает глаза. Глазницы заливает мертвенная бледность. Левая рука поднимает носовой платок к скорбному лицу, мелкими движениями вытирает его, как бы успокаиваясь. После она тянется к телефону, стоящему на углу стола, ставит его на подлокотник, срывает трубку и точным движением нажимает на клавиши. Трубка прижата к уху. Четко слышен сигнал вызова — в ночной тишине он будто пронзает бесконечность. И вдруг щелчок. Голос...»
Общее
Полное имя : [Pirat.ca]_Boileau-Narcejac_Sobranie.Sochinenii\21. Последний трюк каскадера\PTK_001.mp3
Формат : MPEG Audio
Размер файла : 4,67 Мбайт
Продолжительность : 6 м. 42 с.
Режим общего битрейта : Постоянный
Общий поток : 96,0 Кбит/сек
Альбом : Последний трюк каскадера
Трек/Положение : 01
Трек/Всего : 39
Исполнитель : Буало-Нарсежак
Кодирование произвёл : V131
Издатель : Клуб Любителей АудиоКниг
Жанр : Other
Дата записи : 2012
Обложка : Yes
Тип обложки : Cover (front)
MIME-тип обложки : image/jpeg
Примечание : Кирсанов Сергей
Аудио
Формат : MPEG Audio
Версия формата : Version 1
Профиль формата : Layer 3
Продолжительность : 6 м. 43 с.
Вид битрейта : Постоянный
Битрейт : 96,0 Кбит/сек
Каналы : 1 канал
Частота : 44,1 КГц
Метод сжатия : С потерями
Размер потока : 4,61 Мбайт (99%)
Год выпуска: 2012
Прочитано по изданию: М., Прогресс, 1988
Перевод с фр.: Татьяна В. Чугунова
Исполнитель: Александр Конкс
Звукорежиссер: Вера Орлова
Жанр: Детектив
Издательство: Нигде не купишь (Клуб любителей аудиокниг)
Тип аудиокниги: аудиокнига
Аудио кодек: MP3
Битрейт аудио: 96 kbps, 44 kHz, Mono
Время звучания: 06:37:07
Описание:
«Волчицы» - повествование о юноше и двух влюбленных в него сестрах. Молодой человек выдает себя за погибшего друга, а одна из сестер утверждает, что обладает даром ясновидения.
Классический криминальный роман об иллюзорности мира лег в основу киноленты, вошедшей в золотой фонд французского кинематографа.
Общее
Полное имя : [Pirat.ca]_Boileau-Narcejac_Sobranie.Sochinenii_Audio\22. Волчицы. Вариант 2\Volchicy_001.mp3
Формат : MPEG Audio
Размер файла : 4,71 Мбайт
Продолжительность : 6 м. 46 с.
Режим общего битрейта : Постоянный
Общий поток : 96,0 Кбит/сек
Альбом : Волчицы
Трек/Положение : 01
Трек/Всего : 58
Исполнитель : Буало-Нарсежак
Кодирование произвёл : V131
Издатель : Клуб Любителей АудиоКниг
Жанр : Other
Дата записи : 2012
Обложка : Yes
Тип обложки : Cover (front)
MIME-тип обложки : image/jpeg
Примечание : Конкс Александр
Аудио
Формат : MPEG Audio
Версия формата : Version 1
Профиль формата : Layer 3
Продолжительность : 6 м. 46 с.
Вид битрейта : Постоянный
Битрейт : 96,0 Кбит/сек
Каналы : 1 канал
Частота : 44,1 КГц
Метод сжатия : С потерями
Размер потока : 4,65 Мбайт (99%)
Год выпуска: 2012
Прочитано по изданию: М., Правда, 1989
Перевод с фр.: Лия Михайловна Завьялова
Исполнитель: Вячеслав Герасимов
Звукорежиссер: Людмила Каверзнева
Жанр: Детектив
Издательство: Нигде не купишь (Клуб любителей аудиокниг)
Тип аудиокниги: аудиокнига
Аудио кодек: MP3
Битрейт аудио: 96 kbps, 44 kHz, Mono
Время звучания: 05:04:41
Описание:
«Та, которой не стало» - рассказ о муже, который планирует убийство жены, но не знает о том, какую цену ему придется заплатить за это... Классический криминальный роман, на поверку оказывающийся повествованием об иллюзорности мира. Лег в основу кинолент, вошедших в золотой фонд французского и американского кинематографа.
Общее
Полное имя : [Pirat.ca]_Boileau-Narcejac_Sobranie.Sochinenii_Audio\23. Та, которой не стало. Вариант 2\TKN_001.mp3
Формат : MPEG Audio
Размер файла : 4,77 Мбайт
Продолжительность : 6 м. 51 с.
Режим общего битрейта : Постоянный
Общий поток : 96,0 Кбит/сек
Альбом : Та, которой не стало
Трек/Положение : 01
Трек/Всего : 42
Исполнитель : Буало-Нарсежак
Кодирование произвёл : V131
Издатель : Клуб Любителей АудиоКниг
Жанр : Other
Дата записи : 2012
Обложка : Yes
Тип обложки : Cover (front)
MIME-тип обложки : image/jpeg
Примечание : Герасимов Вячеслав
Аудио
Формат : MPEG Audio
Версия формата : Version 1
Профиль формата : Layer 3
Продолжительность : 6 м. 52 с.
Вид битрейта : Постоянный
Битрейт : 96,0 Кбит/сек
Каналы : 1 канал
Частота : 44,1 КГц
Метод сжатия : С потерями
Размер потока : 4,71 Мбайт (99%)
Напоминаю, что Вы можете скачать только нужные Вам аудиокниги, убрав галочки с ненужных при запуске торрента
Буало – Нарсежак (фр. Boileau-Narcejac) — творческий тандем, который составляли два французских писателя — Пьер Буало (1906—1989) и Тома Нарсежак (1908—1998).
Пьер Буало
Пьер-Луи Буало (фр. Pierre Louis Boileau) родился 28 апреля 1906 года в Париже.
Именно он первым стал известен как писатель. В 1932 году в журнале «Чтение для всех» появились рассказы, герой которых — сыщик Андре Брюнель — затем перекочевал в роман Буало «Дрожащий Пьер» (1934).
Четвертая книга Буало — «Отдых Вакха» — в 1938 году получила приз французского конкурса приключенческих романов (фр. Prix du Roman d'Aventures) как лучший детектив года.
В этом же году начал писать Пьер Робер Эро (фр. Pierre Robert Ayraud) — будущий Тома Нарсежак.
Пьер Робер Эро (Тома Нарсежак)
Пьер Робер Эро родился 3 июля 1908 в Рошфор-сюр-Мер.
До конца 40-х годов XX века преподавал философию (был профессором университета), написал ряд философских работ. В 1947 году выпустил книгу «Эстетика детективного жанра», куда вошла, в частности, критика творчества уже известного на тот момент писателя Пьера Буало. После того, как сам Буало прочитал эту книгу, между ним и Эро завязалась переписка.
Встреча. Совместное творчество
В 1948 году, на церемонии вручения Нарсежаку приза за лучший приключенческий роман (за «Смерть в отъезде») писатели познакомились, а через некоторое время стали писать детективы вместе, образовав знаменитый творческий тандем «Буало-Нарсежак».
Что касается псевдонима Пьера Эро, то существует версия, что псевдоним был взят «в память о мальчике и его рыбалках на речке Нарсежак близ деревни Тома».
Датой начала совместной творческой деятельности «Буало-Нарсежака» является 1951 год — год выхода романа «Призрачная охота».
Всего же Буало-Нарсежак создали почти за сорок лет свыше пятидесяти детективных романов и повестей. Помимо детективов, ими написаны 37 «обычных» романов, 5 романов серии об Арсене Люпене, продолжающих повествование о похождениях «джентльмена-грабителя», героя произведений Мориса Леблана, 6 романов «для юношества», два сборника рассказов, а также сборник «Узурпация личностей» (1959). Сборник состоит из пастишей (жанр, к которому больше тяготел Нарсежак) на Конан Дойла, Агату Кристи, Эллери Куина, Дороти Сэйерс, Гилберта Честертона, Рекса Стаута, Лесли Чартериса и др.
Буало-Нарсежак выступали и как теоретики детективного жанра — так, ими созданы сообща литературно-критические эссе под одинаковым названием «Полицейский роман» (1964 и 1975). Правда, последнее из них имеет подзаголовок «Машина, созданная в угоду читателям».
В 1966 году эссе вышло книгой. Целью исследования писателей было не только проследить историю полицейского романа, но и поставить вопрос о его проблематике, тенденциях развития, обосновать принципы «психологического детектива».
По произведениям Буало-Нарсежака снято немало фильмов, в числе режиссёров, экранизировавших их сюжеты в 50-е годы — Анри-Жорж Клузо («Дьяволицы») и Альфред Хичкок («Головокружение»).
В 1986 Буало-Нарсежак выпустили книгу о своём творчестве, которую назвали «Тандем, или Тридцать пять лет „тревожной напряженности“».
После того, как умер Буало (16 января 1989), Нарсежак написал ещё несколько книг. Умер он 7 июня 1998 года в Ницце незадолго до 90-го дня рождения. Ещё до его смерти, в 1995 году, в России начало выходить полное собрание сочинений «Буало-Нарсежака».
А можно и почитать - Буало - Нарсежак - Собрание сочинений, 18 томов [1951-1989 гг., FB2]
Download / Скачать

Хотите скачать бесплатно? Зарегистрируйтесь на сайте (ссылка на регистрацию). Pirat.ca - самый быстрый торрент трекер в рунете!

Как скачивать  ·   Что такое торрент  ·   Рейтинг и ограничения

Alex-Orel

Штурман

Пост 21-Янв-2013 14:05 (спустя 2 месяца 30 дней)

[Q] 

[Профиль]  [ЛС] 

prjadkin

Гроза морей

Пост 22-Авг-2014 07:51 (спустя 1 год 7 месяцев)

[Q] 

Спасибо!!! Лови бочку слушаю, особенно нравится в машине во время поездок...
[Профиль]  [ЛС] 
Показать сообщения:    
Ответить на тему

Текущее время: Сегодня 11:07

Часовой пояс: GMT + 4



Вы не можете начинать темы
Вы не можете отвечать на сообщения
Вы не можете редактировать свои сообщения
Вы не можете удалять свои сообщения
Вы не можете голосовать в опросах
Вы не можете прикреплять файлы к сообщениям
Вы не можете скачивать файлы

Майнать ▼