Уважаемый Гость!
Вы можете поддержать проект и зарегистрироваться у наших партнеров - онлайн-стратегия MyLands. При регистрации в игре Вы получите код, который сможете активировать после регистрации на pirat.ca и получить 1000 дублонов.

Ваш код:
ec66f8b271024106587fff31fe23e0a3f5ec3f46
 
     

Артур Конан Дойль - Последнее дело. Рассказы [2012 г., Аркадий Бухмин, MP3, 05:14:18]

Ответить на тему
 
Автор
Сообщение

Пост 05-Фев-2013 21:46

[Q] 

Эвакуация

-Последнее дело. Рассказы-- Год выпуска: 2012 г.
Автор: Артур Конан Дойль
Исполнитель: Аркадий Бухмин
Жанр: Детективные рассказы
Издательство: ИДДК
Тип аудиокниги: аудиокнига
Цикл/Серия: Из воспоминаний о Шерлоке Холмсе-Аудио кодек: MP3
Битрейт аудио: 192/320 kbps, 32/44 kHz, Joint Stereo
Время звучания: 05:14:18-Описание:
Артур Конан Дойл - знаменитый английский писатель, один из основателей детективного жанра, автор всеми любимых произведений о высокоинтеллектуальном и ироничном аристократе Шерлоке Холмсе и его друге докторе Ватсоне, блестяще раскрывающих любые самые запутанные преступления.
В настоящий сборник вошли завораживающие повести и рассказы о великолепном Шерлоке Холмсе, его блистательном брате Майкрофте и о чуть было не кончившейся трагично встрече с гениальным вдохновителем криминального мира - профессором Мориарти.
01. Внезапное исчезновение Сильвер-Блэза, (320 kbps, 44 kHz)
02. Месгрэвский обряд, (320 kbps, 44 kHz)
03. Рейгэтские помещики, (320 kbps, 44 kHz)
04. Морской договор, (320 kbps, 44 kHz)
05. Последнее дело, (192 kbps, 32 kHz)
Сэр А́ртур Игна́тиус Ко́нан Дойль (Дойл) (англ. Sir Arthur Ignatius Conan Doyle; 22 мая 1859, Эдинбург - 7 июля 1930, Кроуборо, Сассекс) - шотландский и английский врач и писатель, всемирную известность которому принесли детективные произведения - о Шерлоке Холмсе, приключенческие и научно-фантастические - о профессоре Челленджере, юмористические - о бригадире Жераре, а также исторические романы («Белый отряд» и др.). А. Конан Дойль также - автор пьес («Ватерлоо», «Ангелы Тьмы», «Огни судьбы», «Пёстрая лента»), стихотворений (сборники баллад «Песни действия» (1898) и «Песни дороги»), автобиографических очерков («Записки Старка Монро», также произведение известно как «Загадка Старка Монро») и бытовых романов («Дуэт в сопровождении случайного хора»), соавтор-либреттист оперетты «Джейн Энни» (1893).
Артур Конан Дойль родился в столице Шотландии Эдинбурге 22 мая 1859 года. Отец его был художником.
В 1881 году Конан Дойль окончил медицинский факультет Эдинбургского университета и в качестве корабельного медика совершил путешествие в Африку.
Вернувшись на родину, он занялся медицинской практикой в одном из районов Лондона. Защитил диссертацию, стал доктором медицины. Но постепенно начал писать рассказы и очерки в местные журналы.
Как-то раз он вспомнил одного чудака, некого Джозефа Белла, который был преподавателем в Эдинбургского университете и периодически поражал своих учеников своей чрезмерной наблюдательностью и умением при помощи «дедуктивного метода» разобраться в самых сложных и запутанных проблемах. Так Джозеф Белл под вымышленным именем сыщика—любителя Шерлока Холмса появился в одной из повестей автора. Правда, эта повесть осталась незамеченной, зато следующая - «Знак четырёх» (1890) - принесла ему популярность. В начале 90-х годов XIX века один за другим выходят сборники рассказов «Приключения Шерлока Холмса», «Воспоминания о Шерлоке Холмсе», «Возвращение Шерлока Холмса». «Изюминкой» образа Шерлока Холмса стали интеллектуальность, ироничность и духовный аристократизм, которые придают особый блеск раскрытию запутанных преступлений.
Читатели требовали от автора всё новых и новых произведений о любимом герое, но Конан Дойль понимал, что фантазия его постепенно угасает и написал несколько произведений с другими главными героями - бригадиром Жераром и профессором Челенджером.
Дойль много путешествовал, плавал судовым врачом в Арктику на китобойном судне, в Южную и Западную Африку, служил полевым хирургом во время англо-бурской войны.
В последние годы жизни Конан Дойль занимался спиритизмом и даже издал двухтомный труд «История спиритизма» (1926) за собственный счёт. Также издано три тома его стихотворений.
Умер Конан Дойль в 1930 году в возрасте 71 года. Он сам написал свою эпитафию:

Я выполнил свою простую задачу,
Если дал хотя бы час радости
Мальчику, который уже наполовину мужчина,
Или мужчине - ещё наполовину мальчику.
Общее
Полное имя : [Pirat.ca]_Doyle_Poslednee.Delo.Rasskazy\16 Poslednee delo_1.mp3
Формат : MPEG Audio
Размер файла : 27,9 Мбайт
Продолжительность : 20 м.
Режим общего битрейта : Постоянный
Общий поток : 192 Кбит/сек
Альбом : Аудиокнига. Артур Конан Дойль. "Последнее дело" Рассказы. Из воспоминаний о Шерлоке Холмсе
Трек : Последнее дело_1
Трек/Положение : 16
Трек/Всего : 18
Исполнитель : Артур Конан Дойль
Кодирование произвёл : Audio Transcoder
Издатель : ИДДК
Жанр : Speech
Дата записи : 2012
Библиотека кодирования : LAME3.98r
Обложка : Yes
Тип обложки : Cover (front)
MIME-тип обложки : image/jpeg
Примечание : Читает Аркадий Бухмин
PUBLISHER : ИДДК
COVER ART (FRONT) : Cover Art (Front).jpg
Аудио
Формат : MPEG Audio
Версия формата : Version 1
Профиль формата : Layer 3
Режим : Joint stereo
Расширение режима : MS Stereo
Продолжительность : 20 м.
Вид битрейта : Постоянный
Битрейт : 192 Кбит/сек
Каналы : 2 канала
Частота : 32,0 КГц
Метод сжатия : С потерями
Размер потока : 27,8 Мбайт (100%)
Библиотека кодирования : LAME3.98r
Настройки программы : -m j -V 4 -q 5 -lowpass 16 -b 192
Общее
Полное имя : [Pirat.ca]_Doyle_Poslednee.Delo.Rasskazy\08 Rejgetskie pomeschiki_1.mp3
Формат : MPEG Audio
Размер файла : 34,6 Мбайт
Продолжительность : 15 м.
Режим общего битрейта : Постоянный
Общий поток : 320 Кбит/сек
Альбом : Аудиокнига. Артур Конан Дойль. "Последнее дело" Рассказы. Из воспоминаний о Шерлоке Холмсе
Трек : Рейгэтские помещики_1
Трек/Положение : 08
Трек/Всего : 18
Исполнитель : Артур Конан Дойль
Издатель : ИДДК
Жанр : Speech
Дата записи : 2012
Библиотека кодирования : LAME3.98r
Обложка : Yes
Тип обложки : Cover (front)
MIME-тип обложки : image/jpeg
Примечание : Читает Аркадий Бухмин
BPM (beats per minute) : 120
Software : GarageBand 6.0.5
Аудио
Формат : MPEG Audio
Версия формата : Version 1
Профиль формата : Layer 3
Режим : Joint stereo
Расширение режима : MS Stereo
Продолжительность : 15 м.
Вид битрейта : Постоянный
Битрейт : 320 Кбит/сек
Каналы : 2 канала
Частота : 44,1 КГц
Метод сжатия : С потерями
Размер потока : 34,5 Мбайт (100%)
Библиотека кодирования : LAME3.98r
Настройки программы : -m j -V 4 -q 3 -lowpass 20.5
Download / Скачать

Хотите скачать бесплатно? Зарегистрируйтесь на сайте (ссылка на регистрацию). Pirat.ca - самый быстрый торрент трекер в рунете!

Как скачивать  ·   Что такое торрент  ·   Рейтинг и ограничения



Последний раз редактировалось: Эвакуация (2013-07-21 11:31), всего редактировалось 1 раз

Дядя Витя

60316

Пост 05-Фев-2013 22:07 (спустя 20 минут)

[Q] 


_________________
?
[Профиль]  [ЛС] 
Показать сообщения:    
Ответить на тему

Текущее время: Сегодня 08:01

Часовой пояс: GMT + 4



Вы не можете начинать темы
Вы не можете отвечать на сообщения
Вы не можете редактировать свои сообщения
Вы не можете удалять свои сообщения
Вы не можете голосовать в опросах
Вы не можете прикреплять файлы к сообщениям
Вы не можете скачивать файлы

▼ Вниз