Уважаемый Гость!
Вы можете поддержать проект и зарегистрироваться у наших партнеров - онлайн-стратегия MyLands. При регистрации в игре Вы получите код, который сможете активировать после регистрации на pirat.ca и получить 1000 дублонов.

Ваш код:
b7151c3acfba9d1ce96604f103333e3bbf33cc4b
 
     

Бернхард Шлинк - Правосудие Зельба. Обман Зельба. Прощание Зельба [2013 г., Сергей Кирсанов, Ирина Ерисанова, MP3, 25:06:48]

Ответить на тему
 
Автор
Сообщение

Пост 20-Сен-2013 20:51

[Q] 

Эвакуация

-Правосудие Зельба. Обман Зельба. Прощание Зельба-- Год выпуска: 2013 г.
Автор: Бернхард Шлинк
Прочитано по изданию: СПб, Азбука, Азбука-Аттикус, 2010, 2011
Перевод с нем.: Роман Эйвадис, Татьяна Заславская
Исполнители: Сергей Кирсанов, Ирина Ерисанова
Звукорежиссёр: Наталья Весёлкина
Жанр: Психологический детектив
Издательство: Нигде не купишь (Клуб любителей аудиокниг)
Тип аудиокниги: аудиокнига
Цикл/Серия: Герхард Зельб-Аудио кодек: MP3
Битрейт аудио: 96 kbps, 22 kHz, Mono
Время звучания: 25:06:48-Описание:
Представляем Вашему вниманию серию из трех детективов Бернхарда Шлинка. Открывает серию роман «Правосудие Зельба», написанный Шлинком в соавторстве с коллегой-юристом Вальтером Поппом. Именно с этого романа началось знакомство немецких и англоязычных читателей с харизматичным частным сыщиком Герхардом Зельбом - ему шестьдесят восемь лет, вдовец, курит сигареты «Свит Афтон» и пьет коктейль «Aviateur», не обделен чувством юмора, знает толк в еде, вине и женщинах, ценит крепкую мужскую дружбу. Когда к Зельбу обращается друг его юности Кортен с просьбой расследовать случай взлома системы компьютерной защиты крупного химического завода, Зельб соглашается ему помочь. В компьютерах он мало что понимает, зато неплохо разбирается в людях, а круг подозреваемых уже очерчен. Однако поиски хакера приводят Зельба к неожиданным результатам: ему открываются мрачные тайны прошлого. Его собственного прошлого.
Содержание:
Книга 1 - Правосудие Зельба (Читает Сергей Кирсанов, Время звучания - 08:55:15)
Книга 2 - Обман Зельба (Читает Сергей Кирсанов, Время звучания - 09:09:57)
Книга 3 - Прощание Зельба (Читает Ирина Ерисанова, Время звучания - 07:01:36)
Правосудие ЗельбаОбман ЗельбаПрощание Зельба
Бернхард Шлинк (нем. Bernhard Schlink; 6 июля 1944, Билефельд) - немецкий юрист и писатель.
Бернхард Шлинк родился 6 июля 1944 года в семье профессора теологии Эдмунда Шлинка, переехавшего в Гейдельберг после войны. Детство и юность Бернхарда прошли в Гейдельберге.
Окончив классическую гимназию, он поступил в университет на юридический факультет, позднее переехал в берлинский Свободный университет. Защитив кандидатскую, а затем докторскую диссертацию, в 1982 году он получает должность профессора Боннского университета. Занимался конституционным правом.
Примерно в конце восьмидесятых годов начинаются его первые литературные опыты. Сначала вместе со своим другом, а потом один он сочиняет трилогию о частном детективе Гебхарде Зельбе. Подобный поворот в биографии выглядит неординарно: солидный профессор, эксперт по государственному праву вдруг обращается к «несерьёзному» жанру.
Во всех трёх книгах его главный герой сталкивается с событиями, которые так или иначе связаны с непреодолённым прошлым, определяющим и нынешние преступления. «Право-вина- будущее» - под таким заголовком в 1988 году Шлинк опубликовал своё первое публицистическое эссе, где затрагиваются темы, позднее ставшие ключевыми для романа «Чтец». Прежде всего - тема внутреннего конфликта «второго поколения», разрывающегося между желанием понять истоки преступлений, совершенных поколением родителей, и стремлением осудить эти преступления.
Бернхард Шлинк стал первым западногерманским профессором права, который уже в 1990 году начал преподавать в восточноберлинском университете имени Гумбольдта, профессором которого он является и до сих пор.
Правосудие Зельба
Общее
Полное имя : [Pirat.ca]_Schlink_Trilogiia.O.Zelbe\Книга 1 - Правосудие Зельба\0001.mp3
Формат : MPEG Audio
Размер файла : 4,20 Мбайт
Продолжительность : 5 м. 58 с.
Режим общего битрейта : Постоянный
Общий поток : 96,0 Кбит/сек
Альбом : Трилогия о Зельбе
Альбом/Исполнитель : Сергей Кирсанов
Трек : книга 1_Правосудие Зельба
Трек/Положение : 01
Трек/Всего : 66
Исполнитель : Шлинк Бернхард
Библиотека кодирования : LAME3.99.5
Обложка : Yes
Тип обложки : Cover (front)
MIME-тип обложки : image/jpeg
Аудио
Формат : MPEG Audio
Версия формата : Version 2
Профиль формата : Layer 3
Продолжительность : 5 м. 59 с.
Вид битрейта : Постоянный
Битрейт : 96,0 Кбит/сек
Каналы : 1 канал
Частота : 22,05 КГц
Метод сжатия : С потерями
Размер потока : 4,11 Мбайт (98%)
Библиотека кодирования : LAME3.99.5
Обман Зельба
Общее
Полное имя : [Pirat.ca]_Schlink_Trilogiia.O.Zelbe\Книга 2 - Обман Зельба\0001.mp3
Формат : MPEG Audio
Размер файла : 5,92 Мбайт
Продолжительность : 8 м. 29 с.
Режим общего битрейта : Постоянный
Общий поток : 96,0 Кбит/сек
Альбом : Трилогия о Зельбе
Альбом/Исполнитель : Сергей Кирсанов
Трек : книга 2 - Обман Зельба
Трек/Положение : 66
Трек/Всего : 401
Исполнитель : Шлинк Бернхард
Библиотека кодирования : LAME3.99.5ЄЄЄЄЄЄЄЄЄЄ
Обложка : Yes
Тип обложки : Cover (front)
MIME-тип обложки : image/jpeg
Аудио
Формат : MPEG Audio
Версия формата : Version 2
Профиль формата : Layer 3
Продолжительность : 8 м. 29 с.
Вид битрейта : Постоянный
Битрейт : 96,0 Кбит/сек
Каналы : 1 канал
Частота : 22,05 КГц
Метод сжатия : С потерями
Размер потока : 5,83 Мбайт (98%)
Библиотека кодирования : LAME3.99.5ЄЄЄЄЄЄЄЄЄЄ
Прощание Зельба
Общее
Полное имя : [Pirat.ca]_Schlink_Trilogiia.O.Zelbe\Книга 3 - Прощание Зельба\0001.mp3
Формат : MPEG Audio
Размер файла : 4,10 Мбайт
Продолжительность : 5 м. 49 с.
Режим общего битрейта : Постоянный
Общий поток : 96,0 Кбит/сек
Альбом : Трилогия о Зельбе
Альбом/Исполнитель : Ирина Ерисанова
Трек : книга 3 - Прощание Зельба
Трек/Положение : 134
Трек/Всего : 390
Исполнитель : Шлинк Бернхард
Библиотека кодирования : LAME3.99.5
Обложка : Yes
Тип обложки : Cover (front)
MIME-тип обложки : image/jpeg
Аудио
Формат : MPEG Audio
Версия формата : Version 2
Профиль формата : Layer 3
Продолжительность : 5 м. 50 с.
Вид битрейта : Постоянный
Битрейт : 96,0 Кбит/сек
Каналы : 1 канал
Частота : 22,05 КГц
Метод сжатия : С потерями
Размер потока : 4,00 Мбайт (98%)
Библиотека кодирования : LAME3.99.5
Download / Скачать

Хотите скачать бесплатно? Зарегистрируйтесь на сайте (ссылка на регистрацию). Pirat.ca - самый быстрый торрент трекер в рунете!

Как скачивать  ·   Что такое торрент  ·   Рейтинг и ограничения

Показать сообщения:    
Ответить на тему

Текущее время: Сегодня 00:47

Часовой пояс: GMT + 4



Вы не можете начинать темы
Вы не можете отвечать на сообщения
Вы не можете редактировать свои сообщения
Вы не можете удалять свои сообщения
Вы не можете голосовать в опросах
Вы не можете прикреплять файлы к сообщениям
Вы не можете скачивать файлы

▼ Вниз