Уважаемый Гость!
Вы можете поддержать проект и зарегистрироваться у наших партнеров - онлайн-стратегия MyLands. При регистрации в игре Вы получите код, который сможете активировать после регистрации на pirat.ca и получить 1000 дублонов.

Ваш код:
a326abf88a160642f216f12e9aa6217c2ab57b9c
 
     

Дэн Браун - Сборник бестселлеров [Александр Андриенко / Эммануил Виторган / Радик Мухаметзянов, 2010, >100 часов]

Ответить на тему

Часто ли вы слушаете аудиокниги?

1-2 книги в месяц   22%  22%  [ 10 ]
3-4 книги в месяц   38%  38%  [ 17 ]
>5 книг в месяц   38%  38%  [ 17 ]

Всего проголосовало : 44

 
Автор
Сообщение

Пост 10-Ноя-2011 10:58

[Q] 

Oltus

Лоцман

Дэн Браун. Сборник бестселлеров
Год выпуска: 2010
Автор: Дэн Браун.
Время звучания: >100 часов
Исполнитель: Александр Андриенко / Эммануил Виторган / Радик Мухаметзянов
Жанр: Детектив
Издательство: ООО "Аудиокнига"
Тип: аудиокнига
Аудио кодек: MP3
Битрейт аудио: 128 Kbps
Дэн Браун - Сборник бестселлеров Детективы.
«Люди обожают все таинственное»: захватывающие поиски, прерывающиеся историко-искусствоведческими отступлениями,
приводят в конце концов к тупику - довольно сложно разобраться, где заканчиваются факты и смелые гипотезы и начинается разгул
безудержной фантазии автора.
«Всякая вера на этой земле основана на фабрикации.
В любой религии Бог описывается через метафоры, аллегории и преувеличения…
Проблемы возникают, когда мы начинаем воспринимать метафоры буквально».
Такие проблемы могут возникнуть и у читателя.
Легкомысленно играя с текстом Библии, выдавая догадки за истину, без пояснения, что это лишь сказка,
эрудированный американец обеспечивает себе популярность, забывая о доверчивости и наивности массового читателя.
Ведь «немного веры - и человек способен творить настоящие чудеса… Совсем немного веры…».
Веры, которую Браун неаккуратно испытывает.
Общее
Полное имя : Z:\Users\Desktop\Дэн Браун. Сборник бестселлеров[pirat.ca]\Дэн Браун. Сборник\Ангелы и Демоны\CD1\003_Glava3.mp3
Формат : MPEG Audio
Размер файла : 1,25 Мбайт
Продолжительность : 1 м. 22 с.
Режим общего битрейта : Постоянный
Общий поток : 128 Кбит/сек
Альбом : Ангелы и демоны
Трек : Глава 3.
Трек/Положение : 3
Исполнитель : Дэн Браун
Жанр : Other
Аудио
Формат : MPEG Audio
Версия формата : Version 1
Профиль формата : Layer 3
Продолжительность : 1 м. 22 с.
Вид битрейта : Постоянный
Битрейт : 128 Кбит/сек
Каналы : 2 канала
Частота : 44,1 КГц
Метод сжатия : С потерями
Размер потока : 1,25 Мбайт (100%)
Общее
Полное имя : Z:\Users\Desktop\Дэн Браун. Сборник бестселлеров[pirat.ca]\Дэн Браун. Сборник\Ангелы и Демоны\CD2\077_Glava77.mp3
Формат : MPEG Audio
Размер файла : 2,70 Мбайт
Продолжительность : 2 м. 57 с.
Режим общего битрейта : Постоянный
Общий поток : 128 Кбит/сек
Альбом : Ангелы и демоны
Трек : Глава 77.
Трек/Положение : 77
Исполнитель : Дэн Браун
Жанр : Other
Аудио
Формат : MPEG Audio
Версия формата : Version 1
Профиль формата : Layer 3
Продолжительность : 2 м. 57 с.
Вид битрейта : Постоянный
Битрейт : 128 Кбит/сек
Каналы : 2 канала
Частота : 44,1 КГц
Метод сжатия : С потерями
Размер потока : 2,70 Мбайт (100%)
Общее
Полное имя : Z:\Users\Desktop\Дэн Браун. Сборник бестселлеров[pirat.ca]\Дэн Браун. Сборник\Код да Винчи\1CD\0000fakty.mp3
Формат : MPEG Audio
Размер файла : 2,14 Мбайт
Продолжительность : 1 м. 52 с.
Режим общего битрейта : Постоянный
Общий поток : 160 Кбит/сек
Альбом : Код да Винчи
Трек : Факты
Исполнитель : Дэн Браун
Жанр : Other
Примечание : Dan Brown - Da Vinci Code
Аудио
Формат : MPEG Audio
Версия формата : Version 1
Профиль формата : Layer 3
Продолжительность : 1 м. 52 с.
Вид битрейта : Постоянный
Битрейт : 160 Кбит/сек
Каналы : 2 канала
Частота : 44,1 КГц
Метод сжатия : С потерями
Размер потока : 2,14 Мбайт (100%)
Общее
Полное имя : Z:\Users\Desktop\Дэн Браун. Сборник бестселлеров[pirat.ca]\Дэн Браун. Сборник\Код да Винчи\2CD\0060glava 59.mp3
Формат : MPEG Audio
Размер файла : 3,79 Мбайт
Продолжительность : 3 м. 18 с.
Режим общего битрейта : Постоянный
Общий поток : 160 Кбит/сек
Альбом : Код да Винчи
Трек : Глава 59
Трек/Положение : 60
Исполнитель : Дэн Браун
Жанр : Other
Примечание : Dan Brown - Da Vinci Code
Аудио
Формат : MPEG Audio
Версия формата : Version 1
Профиль формата : Layer 3
Продолжительность : 3 м. 18 с.
Вид битрейта : Постоянный
Битрейт : 160 Кбит/сек
Каналы : 2 канала
Частота : 44,1 КГц
Метод сжатия : С потерями
Размер потока : 3,79 Мбайт (100%)
Общее
Полное имя : Z:\Users\Desktop\Дэн Браун. Сборник бестселлеров[pirat.ca]\Дэн Браун. Сборник\Точка обмана\000 - Вступление.mp3
Формат : MPEG Audio
Размер файла : 2,37 Мбайт
Продолжительность : 2 м. 35 с.
Режим общего битрейта : Постоянный
Общий поток : 128 Кбит/сек
Альбом : Точка обмана
Трек : Вступление
Исполнитель : Дэн Браун
Жанр : Other
Аудио
Формат : MPEG Audio
Версия формата : Version 1
Профиль формата : Layer 3
Режим : Joint stereo
Продолжительность : 2 м. 35 с.
Вид битрейта : Постоянный
Битрейт : 128 Кбит/сек
Каналы : 2 канала
Частота : 44,1 КГц
Метод сжатия : С потерями
Размер потока : 2,37 Мбайт (100%)
Общее
Полное имя : Z:\Users\Desktop\Дэн Браун. Сборник бестселлеров[pirat.ca]\Дэн Браун. Сборник\Утраченный символ\1CD\005 - Gl05 - 00.mp3
Формат : MPEG Audio
Размер файла : 5,35 Мбайт
Продолжительность : 5 м. 50 с.
Режим общего битрейта : Постоянный
Общий поток : 128 Кбит/сек
Альбом : Утраченный символ
Трек : Глава 5
Исполнитель : Дэн Браун
Аудио
Формат : MPEG Audio
Версия формата : Version 1
Профиль формата : Layer 3
Продолжительность : 5 м. 51 с.
Вид битрейта : Постоянный
Битрейт : 128 Кбит/сек
Каналы : 2 канала
Частота : 44,1 КГц
Метод сжатия : С потерями
Размер потока : 5,35 Мбайт (100%)
Общее
Полное имя : Z:\Users\Desktop\Дэн Браун. Сборник бестселлеров[pirat.ca]\Дэн Браун. Сборник\Утраченный символ\2CD\081 - Gl72 - 00.mp3
Формат : MPEG Audio
Размер файла : 2,55 Мбайт
Продолжительность : 2 м. 47 с.
Режим общего битрейта : Постоянный
Общий поток : 128 Кбит/сек
Альбом : Утраченный символ
Трек : Глава 72
Исполнитель : Дэн Браун
Аудио
Формат : MPEG Audio
Версия формата : Version 1
Профиль формата : Layer 3
Продолжительность : 2 м. 47 с.
Вид битрейта : Постоянный
Битрейт : 128 Кбит/сек
Каналы : 2 канала
Частота : 44,1 КГц
Метод сжатия : С потерями
Размер потока : 2,55 Мбайт (100%)
Общее
Полное имя : Z:\Users\Desktop\Дэн Браун. Сборник бестселлеров[pirat.ca]\Дэн Браун. Сборник\Цифровая крепость\002Glava2.mp3
Формат : MPEG Audio
Размер файла : 1,23 Мбайт
Продолжительность : 53 с.
Режим общего битрейта : Постоянный
Общий поток : 192 Кбит/сек
Альбом : Цифровая крепость
Трек : Глава 2
Исполнитель : Дэн Браун
Жанр : Other
Библиотека кодирования : LAME3.95
Аудио
Формат : MPEG Audio
Версия формата : Version 1
Профиль формата : Layer 3
Режим : Joint stereo
Расширение режима : MS Stereo
Продолжительность : 53 с.
Вид битрейта : Постоянный
Битрейт : 192 Кбит/сек
Каналы : 2 канала
Частота : 44,1 КГц
Метод сжатия : С потерями
Размер потока : 1,23 Мбайт (100%)
Библиотека кодирования : LAME3.95
(1) Цифровая крепость (1998 г.)
Автор супербестселлера десятилетия предлагает вам взломать еще один код – сверхсложный, таящий в себе опасность и угрозу для всего мира!
Но… кто придумал этот код?!
Чего он добивается?!
Зачем вступил в безжалостную игру с Агентством национальной безопасности США?!
Оружие загадочного врага – всего лишь набор символов и букв.
За расшифровку берется лучший криптограф Америки Сьюзан Флетчер.
И то, что она обнаруживает, ставит под угрозу не только важнейшие разработки спецслужб США, но и судьбы миллионов людей…
2) Точка обмана (2001 г.)
Потрясающий технологический триллер от автора «Кода да Винчи» и «Ангелов и демонов»!
В Арктике обнаружен уникальный артефакт, способный раз и навсегда изменить будущее человечества.
На место открытия отправляется научная экспедиция, цель которой – установить подлинность поразительной находки.
Но вскоре после прибытия члены экспедиции начинают гибнуть один за другим. Кто – и почему – убивает их?
Возможно, они подошли к разгадке тайны слишком близко?
3) Код да Винчи (2003 г.)
Секретный код скрыт в работах Леонардо да Винчи…
Только он поможет найти христианские святыни, дающие немыслимые власть и могущество…
Ключ к величайшей тайне, над которой человечество билось веками, может быть найден…
В романе «Код да Винчи» автор собрал весь накопленный опыт расследований и вложил его в главного героя,
гарвардского профессора иконографии и истории религии по имени Роберт Лэнгдон.
Завязкой нынешней истории послужил ночной звонок, оповестивший Лэнгдона об убийстве в Лувре старого хранителя музея.
Возле тела убитого найдена зашифрованная записка, ключи к которой сокрыты в работах Леонардо да Винчи…
4) Ангелы и демоны (2007 г.)
Иллюминаты. Древний таинственный орден, прославившийся в Средние века яростной борьбой с официальной церковью.
Легенда далекого прошлого? Возможно… Но — почему тогда на груди убитого при загадочных обстоятельствах ученого вырезан
именно символ иллюминатов? Приглашенный из Гарварда специалист по символике и его напарница, дочь убитого, начинают собственное расследование — и вскоре приходят к невероятным результатам…
5) Утраченный символ (2010 г.)
"Утраченный символ" - это продолжение приключений профессора Роберта Лэнгдона - героя бестселлеров "Код да Винчи" и "Ангелы и демоны".
На этот раз Лэнгдон раскрывает величайшую тайну масонов.
По сюжету романа, который вплоть до выхода книги держался в строгом секрете, в 1991 году в сейф директора ЦРУ поместили некий документ,
который хранится там и по сей день. В загадочном тексте упоминаются древний портал и подземный тайник.
Также в нем можно найти фразу "Оно сокрыто где-то там".
Download / Скачать

Хотите скачать бесплатно? Зарегистрируйтесь на сайте (ссылка на регистрацию). Pirat.ca - самый быстрый торрент трекер в рунете!

Как скачивать  ·   Что такое торрент  ·   Рейтинг и ограничения



Последний раз редактировалось: Oltus (2011-11-16 11:50), всего редактировалось 3 раз(а)

Oltus ®

Лоцман

128

Пост 10-Ноя-2011 11:25 (спустя 26 минут)

[Q] 

Чет не пойму создал торрент как обычно, а при скачивании пишет что торрент "неверно закодирован" и не могу теперь его запустить чтоб раздача шла. Кто знает в чем дело подскажите,спс.
Все решилось само,просто через пару часов зашел опять попробывал и заработало,хз че было))
[Профиль]  [ЛС] 

Пост 18-Ноя-2011 19:00 (спустя 8 дней)

Топик был перенесен из форума Библиотека (Аудиокниги) в форум Детективы

Эвакуация
 

Дядя Витя

59787

Пост 14-Фев-2014 15:59 (спустя 2 года 3 месяца)

[Q] 

Полного источника не было: 14 часов ..............
Эй, вернитесь на раздачу...

_________________
?
[Профиль]  [ЛС] 
Показать сообщения:    
Ответить на тему

Текущее время: Сегодня 01:44

Часовой пояс: GMT + 4



Вы не можете начинать темы
Вы не можете отвечать на сообщения
Вы не можете редактировать свои сообщения
Вы не можете удалять свои сообщения
Вы не можете голосовать в опросах
Вы не можете прикреплять файлы к сообщениям
Вы не можете скачивать файлы

▼ Вниз