ML
     
  Уважаемый Гость!
Вы можете поддержать проект и зарегистрироваться у наших партнеров - онлайн-стратегия MyLands. При регистрации в игре Вы получите код, который сможете активировать после регистрации на pirat.ca и получить 1000 дублонов.

Ваш код:
4855957e17f50c5c1236a0f8c4492b2b0bba00a0
 
     

Христофор Колумб: История открытий / Christopher Columbus: The Discovery (Джон Глен) [1992 г.] (Приключения, биография, история) [BDRip] AVO (Гаврилов) + оригинал

Ответить на тему
 
Автор
Сообщение

Пост 29-Окт-2011 00:11

[Q] 

Kote Makaradze

Христофор Колумб: История открытий / Christopher Columbus: The Discovery- -Год выпуска: 1992
Производство: США, Великобритания, Испания
Жанр: Приключения, биография, история
Продолжительность: 01:55:43
Перевод: Авторский (одноголосый)
Оригинальный аудиопоток: Английский
Автор(ы) перевода: Андрей Гаврилов
-Режиссер: Джон Глен
В ролях:
Марлон Брандо, Том Селлек, Жорж Коррафас, Рэйчел Уорд, Роберт Дави, Кэтрин Зета-Джонс, Оливер Коттон, Бенисио Дель Торо, Матьё Карьер, Мануэль Де Блас, Глен Грейн, Питер Гиннесс, Найджел Терри, Ницан Шаррон, Стивен Хартли, Хьюго Блик, Найджел Харрисон, Крис Хантер, Саймон Дорманди, Кристофер Чаплин

Описание:
Потратив несколько лет на подготовку беспрецедентного плавания, Христофор Колумб получает, наконец, аудиенцию у короля и королевы Испании. Преодолев финансовые препятствия, избежав хитроумной ловушки жестокого инквизитора, он во главе трех каравелл — «Санта-Мария», «Пинта», «Нинья» — отправляется в путешествие всей своей жизни. Его ждут необыкновенные приключения на море и коварные опасности на суше.

Сэмпл
Источник/Качество: BDRip
Формат: MKV
Видео кодек: Другой MPEG4
Аудио кодек: AC3
Видео: MPEG-4 AVC, 6126 Кбит/с, 1280x544
Аудио: Русский (AC3, 2 ch, 192 Кбит/с), английский (AC3, 2 ch, 640 Кбит/с)
-

Общее
Уникальный идентификатор : 244003399980955778667829632021151742937 (0xB791586FC6946C1B90217370A9D5FBD9)
Полное имя : C:\Фильмы\Hristofor.Kolumb.Istoriya.otkrytij.1992.x264.BDRip(720p)-Bikc.mkv
Формат : Matroska
Версия формата : Version 1
Размер файла : 5,62 Гбайт
Продолжительность : 1 ч. 55 м.
Общий поток : 6960 Кбит/сек
Дата кодирования : UTC 2011-04-14 20:12:19
Программа кодирования : mkvmerge v2.3.0 ('Freak U') built on Sep 8 2008 18:32:16
Библиотека кодирования : libebml v0.7.7 + libmatroska v0.8.1

Видео
Идентификатор : 1
Формат : AVC
Формат/Информация : Advanced Video Codec
Профиль формата : [email protected]
Параметр CABAC формата : Да
Параметр ReFrames формата : 5 кадров
Идентификатор кодека : V_MPEG4/ISO/AVC
Продолжительность : 1 ч. 55 м.
Битрейт : 6126 Кбит/сек
Ширина : 1280 пикселей
Высота : 544 пикселя
Соотношение сторон : 2,35:1
Частота кадров : 25,000 кадров/сек
Цветовое пространство : YUV
Субдискретизация насыщенности : 4:2:0
Битовая глубина : 8 бит
Тип развёртки : Прогрессивная
Бит/(Пиксели*Кадры) : 0.352
Размер потока : 4,84 Гбайт (86%)
Библиотека кодирования : x264 core 114 r1900 60ef1f8
Настройки программы : cabac=1 / ref=5 / deblock=1:0:0 / analyse=0x3:0x133 / me=umh / subme=7 / psy=1 / psy_rd=1.00:0.00 / mixed_ref=1 / me_range=16 / chroma_me=1 / trellis=1 / 8x8dct=1 / cqm=0 / deadzone=21,11 / fast_pskip=0 / chroma_qp_offset=-2 / threads=12 / sliced_threads=0 / nr=0 / decimate=1 / interlaced=0 / constrained_intra=0 / bframes=3 / b_pyramid=2 / b_adapt=1 / b_bias=0 / direct=1 / weightb=1 / open_gop=0 / weightp=2 / keyint=250 / keyint_min=25 / scenecut=40 / intra_refresh=0 / rc_lookahead=40 / rc=2pass / mbtree=1 / bitrate=6126 / ratetol=1.0 / qcomp=0.60 / qpmin=10 / qpmax=51 / qpstep=4 / cplxblur=20.0 / qblur=0.5 / ip_ratio=1.40 / aq=1:1.00
Язык : English

Аудио #1
Идентификатор : 2
Формат : AC-3
Формат/Информация : Audio Coding 3
Расширение режима : CM (complete main)
Идентификатор кодека : A_AC3
Продолжительность : 1 ч. 55 м.
Вид битрейта : Постоянный
Битрейт : 192 Кбит/сек
Каналы : 2 канала
Расположение каналов : Front: L R
Частота : 48,0 КГц
Битовая глубина : 16 бит
Метод сжатия : С потерями
Размер потока : 159 Мбайт (3%)
Заголовок : Gavrilov
Язык : Russian

Аудио #2
Идентификатор : 3
Формат : AC-3
Формат/Информация : Audio Coding 3
Расширение режима : CM (complete main)
Идентификатор кодека : A_AC3
Продолжительность : 1 ч. 55 м.
Вид битрейта : Постоянный
Битрейт : 640 Кбит/сек
Каналы : 2 канала
Расположение каналов : Front: L R
Частота : 48,0 КГц
Битовая глубина : 16 бит
Метод сжатия : С потерями
Размер потока : 529 Мбайт (9%)
Язык : English
-



-
Download / Скачать

Хотите скачать бесплатно? Зарегистрируйтесь на сайте (ссылка на регистрацию). Pirat.ca - самый быстрый торрент трекер в рунете!

Как скачивать  ·   Что такое торрент  ·   Рейтинг и ограничения



Последний раз редактировалось: Kote Makaradze (2011-12-15 15:54), всего редактировалось 3 раз(а)

Koralina

80159

Пост 29-Окт-2011 01:30 (спустя 1 час 19 минут)

[Q] 

Kote Makaradze, Спасибо за труды!!!!!

_________________
[Профиль]  [ЛС] 

Kote Makaradze ®

5934

Пост 29-Окт-2011 02:31 (спустя 1 час)

[Q] 

Koralina, И Вам спасибо, красавица, тоже нелегко одной с ПО бороться)) ax

_________________
Подпись отключена за нарушение правил форума
[Профиль]  [ЛС] 
Показать сообщения:    
Ответить на тему

Текущее время: Сегодня 06:10

Часовой пояс: GMT + 4



Вы не можете начинать темы
Вы не можете отвечать на сообщения
Вы не можете редактировать свои сообщения
Вы не можете удалять свои сообщения
Вы не можете голосовать в опросах
Вы не можете прикреплять файлы к сообщениям
Вы не можете скачивать файлы

▼ Вниз