ML
     
  Уважаемый Гость!
Вы можете поддержать проект и зарегистрироваться у наших партнеров - онлайн-стратегия MyLands. При регистрации в игре Вы получите код, который сможете активировать после регистрации на pirat.ca и получить 1000 дублонов.

Ваш код:
ef8b3e8cd07bec918273586d22e5aaf18e0ae925
 
     

Агент А-201 – наш человек в гестапо (Александр Сидоров)(2 серии из 2) [2011 г., Документальный, SATRip]

Ответить на тему
 
Автор
Сообщение

Пост 13-Дек-2011 15:52

[Q] 

Степаныч

Агент А-201 – наш человек в гестапо
Год выпуска: 2011
Производство: Россия
Жанр: Документальный
Продолжительность: 01:25:42
Режиссер: Александр Сидоров
В ролях: Леонид Калараш в роли Вилли Лемана
Ведущий: Юрий Соломин
Описание: Фильм посвящен человеку уникальной судьбы – Вилли Леману. Этот исторический персонаж был убежденным антифашистом. Но, несмотря на это, смог стать старшим офицером гестапо, куратором оборонной промышленности и военного строительства Германии. На протяжении 12 лет Леман был ценнейшим источником сведений для советской разведки под псевдонимом «А-201» или «Брайтенбах».
Вилли Леман передавал СССР бесценные сведения об укреплении фашистского режима, о масштабах приготовлений Германии к установлению мирового господства. Он постоянно рисковал жизнью, но все же действовал против ненавистного ему режима.
Его информация об активном наращивании германского военного потенциала, новейших технических разработках, конкретных планах подготовки гитлеровской Германии к войне против СССР поступала политическому руководству Советского Союза.
Документальная кинолента создана на основе рассекреченных в июне 2009 года материалов СВР России, которые вошли в книгу Т. Гладкова «Его величество агент». Автор фильма режиссер-документалист Александр Сидоров творчески и точно распорядился историческим материалом.
Уникальные документальные кадры предвоенной хроники позволят зрителю окунуться в атмосферу предвоенной Германии
Источник/Качество: SATRip
Формат: AVI
Видео кодек: XviD
Аудио кодек: MP3
Видео: MPEG4, XviD, 704x400 (16/9), 25.000 fps, 1 545 Kbps (0.219 bit/pixel)
Аудио: MP3, 48.0 KHz, 2 ch, 128 Kbps, CBR
Формат : AVI
Формат/Информация : Audio Video Interleave
Размер файла : 522 Мбайт
Продолжительность : 43 м.
Общий поток : 1686 Кбит/сек
Библиотека кодирования : TMPGEnc 4.0 XPress Version. 4.7.6.304
Видео
Идентификатор : 0
Формат : MPEG-4 Visual
Профиль формата : Advanced [email protected]
Параметр BVOP формата : 2
Параметр QPel формата : Нет
Параметр GMC формата : Без точки перехода
Параметр матрицы формата : Default (MPEG)
Режим смешивания : Сжатый битовый поток
Идентификатор кодека : XVID
Идентификатор кодека/Подсказка : XviD
Продолжительность : 43 м.
Битрейт : 1545 Кбит/сек
Ширина : 704 пикс.
Высота : 400 пикс.
Соотношение сторон : 16:9
Частота кадров : 25,000 кадр/сек
Цветовое пространство : YUV
Подвыборка цветности : 4:2:0
Битовая глубина : 8 бит
Тип развёртки : Прогрессивная
Метод сжатия : С потерями
Бит/(Пиксели*Кадры) : 0.219
Размер потока : 479 Мбайт (92%)
Библиотека кодирования : XviD 62
Аудио
Идентификатор : 1
Формат : MPEG Audio
Версия формата : Version 1
Профиль формата : Layer 3
Режим : Joint stereo
Расширение режима : MS Stereo
Идентификатор кодека : 55
Идентификатор кодека/Подсказка : MP3
Продолжительность : 43 м.
Вид битрейта : Постоянный
Битрейт : 128 Кбит/сек
Канал(ы) : 2 канала(ов)
Частота : 48,0 КГц
Метод сжатия : С потерями
Размер потока : 39,7 Мбайт (8%)
Выравнивание : Соединение по промежуткам
Продолжительность промежутка : 40 мс. (1,00 видеокадр)
Время предзагрузки промежутка : 384 ms
Общее
Полное имя : D:\релиз 3\Agent.A.201.Nash.chelovek.v.gestapo.(2.serii.iz.2).2011 [pirat.ca]\Agent.A.201.Nash.chelovek.v.gestapo.(2.serii.iz.2).2011 [pirat.ca].torrent
Размер файла : 10,5 Кбайт
Общее
Полное имя : D:\релиз 3\Agent.A.201.Nash.chelovek.v.gestapo.(2.serii.iz.2).2011 [pirat.ca]\Agent.A.201.Nash.chelovek.v.gestapo.(2.serija.iz.2).2011.avi
Формат : AVI
Формат/Информация : Audio Video Interleave
Размер файла : 513 Мбайт
Продолжительность : 42 м.
Общий поток : 1683 Кбит/сек
Программа кодирования : VirtualDubMod 1.5.10.3 (build 2550/release)
Библиотека кодирования : VirtualDubMod build 2550/release
Видео
Идентификатор : 0
Формат : MPEG-4 Visual
Профиль формата : Advanced [email protected]
Параметр BVOP формата : 2
Параметр QPel формата : Нет
Параметр GMC формата : Без точки перехода
Параметр матрицы формата : Default (MPEG)
Режим смешивания : Сжатый битовый поток
Идентификатор кодека : XVID
Идентификатор кодека/Подсказка : XviD
Продолжительность : 42 м.
Битрейт : 1545 Кбит/сек
Ширина : 704 пикс.
Высота : 400 пикс.
Соотношение сторон : 16:9
Частота кадров : 25,000 кадр/сек
Цветовое пространство : YUV
Подвыборка цветности : 4:2:0
Битовая глубина : 8 бит
Тип развёртки : Прогрессивная
Метод сжатия : С потерями
Бит/(Пиксели*Кадры) : 0.219
Размер потока : 471 Мбайт (92%)
Библиотека кодирования : XviD 62
Аудио
Идентификатор : 1
Формат : MPEG Audio
Версия формата : Version 1
Профиль формата : Layer 3
Режим : Joint stereo
Расширение режима : MS Stereo
Идентификатор кодека : 55
Идентификатор кодека/Подсказка : MP3
Продолжительность : 42 м.
Вид битрейта : Постоянный
Битрейт : 128 Кбит/сек
Канал(ы) : 2 канала(ов)
Частота : 48,0 КГц
Метод сжатия : С потерями
Размер потока : 39,0 Мбайт (8%)
Выравнивание : Разделение по промежуткам
Продолжительность промежутка : 40 мс. (1,00 видеокадр)
Время предзагрузки промежутка : 500 ms


Download / Скачать

Хотите скачать бесплатно? Зарегистрируйтесь на сайте (ссылка на регистрацию). Pirat.ca - самый быстрый торрент трекер в рунете!

Как скачивать  ·   Что такое торрент  ·   Рейтинг и ограничения

Показать сообщения:    
Ответить на тему

Текущее время: Сегодня 18:39

Часовой пояс: GMT + 4



Вы не можете начинать темы
Вы не можете отвечать на сообщения
Вы не можете редактировать свои сообщения
Вы не можете удалять свои сообщения
Вы не можете голосовать в опросах
Вы не можете прикреплять файлы к сообщениям
Вы не можете скачивать файлы

▼ Вниз