ML
     
  Уважаемый Гость!
Вы можете поддержать проект и зарегистрироваться у наших партнеров - онлайн-стратегия MyLands. При регистрации в игре Вы получите код, который сможете активировать после регистрации на pirat.ca и получить 1000 дублонов.

Ваш код:
ef8b3e8cd07bec918273586d22e5aaf18e0ae925
 
     

Тупак: Воскрешение / Tupac: Resurrection / Сезон: Серии: (Лорен Лэйзин / Lauren Lazin) [2003 г., документальный, биография, музыка, ..., DVDRip] DVO

Ответить на тему
 
Автор
Сообщение

Пост 25-Янв-2013 18:12

[Q] 

Gweg

-Тупак: Воскрешение / Tupac: Resurrection-- Производство: США
Жанр: документальный, биография, музыка, ...
Год выпуска: 2003 г.
Продолжительность: 01:44:48
Мировая премьера: 22 января 2003
Перевод: Профессиональный (двухголосый, закадровый)
Режиссер: Лорен Лэйзин / Lauren Lazin-В ролях: Тупак Шакур, Rappin' 4-Tay, Конрад Бэйн, Бил Беллами, Уильям Дж. Беннетт, Тодд Бриджес, Пэт Бьюкэнэн, Джеймс Кэгни, Конни Чунг, Элдридж Кливер...-Описание: Первый документальный фильм, снятый о жизни и смерти одного из самых знаменитых и уважаемых рэпперов в мире Тупака Шакура, в котором показаны многие ранее невиданные интервью и выступления.Фильм показывает раннюю жизнь Тупака, — его школьный период, которую комментирует сам Тупак, рассказывая те или иные подробности; его музыкальную карьеру, тюремный период, и знакомство с Death Row Records. В фильме так же присутствуют The Notorious B.I.G и Puff Daddy, дающие интервью уже после смерти Тупака, рассказывающие в подробностях о стрельбе 1994 года.Фильм завоевал 11 строчку в списке самых кассовых документальных фильмов США-
Качество видео: DVDRip
Контейнер: AVI
Видео кодек: DivX
Аудио кодек: MP3
Видео: 640x480 (1.33:1), 25 fps, DivX Codec 5.2.1 build 1328 ~1757 kbps avg, 0.23 bit/pixel
Аудио: 44.100 kHz, MPEG Layer 3, 2 ch, ~102.78 kbps avg
Cубтитры: отсутствуют
Фильм был номинирован на премию «Оскар».
Полное имя : C:\Users\Александр\Downloads\Торренты\Тупак- Воскрешение.avi
Формат : AVI
Формат/Информация : Audio Video Interleave
Размер файла : 1,37 Гбайт
Продолжительность : 1 ч. 44 м.
Режим общего битрейта : Переменный
Общий поток : 1873 Кбит/сек
Режиссёр : Slider
Программа кодирования : VirtualDubMod 1.4.13
Библиотека кодирования : VirtualDub build 14328/release
Видео
Идентификатор : 0
Формат : MPEG-4 Visual
Параметр BVOP формата : 2
Параметр QPel формата : Нет
Параметр GMC формата : 2 точки перехода
Параметр матрицы формата : Default (MPEG)
Идентификатор кодека : DX50
Идентификатор кодека/Подсказка : DivX 5
Продолжительность : 1 ч. 44 м.
Битрейт : 1758 Кбит/сек
Ширина : 640 пикселей
Высота : 480 пикселей
Соотношение сторон : 4:3
Частота кадров : 25,000 кадров/сек
Цветовое пространство : YUV
Субдискретизация насыщенности : 4:2:0
Битовая глубина : 8 бит
Тип развёртки : Прогрессивная
Метод сжатия : С потерями
Бит/(Пиксели*Кадры) : 0.229
Размер потока : 1,29 Гбайт (94%)
Библиотека кодирования : DivX 1328m
Аудио
Идентификатор : 1
Формат : MPEG Audio
Версия формата : Version 1
Профиль формата : Layer 3
Режим : Dual mono
Идентификатор кодека : 55
Идентификатор кодека/Подсказка : MP3
Продолжительность : 1 ч. 44 м.
Продолжительность оригинала : 1 ч. 44 м.
Вид битрейта : Переменный
Битрейт : 103 Кбит/сек
Каналы : 2 канала
Частота : 44,1 КГц
Метод сжатия : С потерями
Задержка видео : 52 мс.
Размер потока : 77,0 Мбайт (5%)
Выравнивание : Соединение по промежуткам
Продолжительность промежутка : 26 мс. (0,65 видеокадр)
Время предзагрузки промежутка : 637 мс.
Библиотека кодирования : LAME3.96r
Настройки программы : -m d -V 4 -q 3 -lowpass 15.3 --abr 103
Download / Скачать

Хотите скачать бесплатно? Зарегистрируйтесь на сайте (ссылка на регистрацию). Pirat.ca - самый быстрый торрент трекер в рунете!

Как скачивать  ·   Что такое торрент  ·   Рейтинг и ограничения



Последний раз редактировалось: Gweg (2013-01-25 23:22), всего редактировалось 1 раз
Показать сообщения:    
Ответить на тему

Текущее время: Сегодня 18:38

Часовой пояс: GMT + 4



Вы не можете начинать темы
Вы не можете отвечать на сообщения
Вы не можете редактировать свои сообщения
Вы не можете удалять свои сообщения
Вы не можете голосовать в опросах
Вы не можете прикреплять файлы к сообщениям
Вы не можете скачивать файлы

▼ Вниз