ML
     
  Уважаемый Гость!
Вы можете поддержать проект и зарегистрироваться у наших партнеров - онлайн-стратегия MyLands. При регистрации в игре Вы получите код, который сможете активировать после регистрации на pirat.ca и получить 1000 дублонов.

Ваш код:
bb0cb47ee786a33f751af5a500dd264c9487bfac
 
     

Высоцкий. Последний год (Руслан Трещeв) [2011 г., Документальный, Биографический фильм, HDTVRip]

Ответить на тему
 
Автор
Сообщение

Пост 27-Янв-2013 12:01

[Q] 

cergo

Гроза морей

-Высоцкий.Последний год-- Производство: Россия, Первый канал
Жанр: Документальный, Биографический фильм
Год выпуска: 2011 г.
Продолжительность: 00:46:56
Перевод: Не требуется
Режиссер: Руслан Трещeв
-Описание: В фильме впервые будут продемонстрированы уникальные кадры. Съемка японского телевидения 12 июля 1980 года, которую мало кто видел. Последнее в жизни интервью Владимира Высоцкого, за две недели до смерти. Уставший и больной человек, каким зритель его не видел никогда. Кажется, он знает, что обречен…-Качество видео: HDTVRip
Контейнер: AVI
Видео кодек: XviD
Аудио кодек: AC3
Видео: 720x400 (1.80:1), 25 fps, XviD MPEG-4 ~1897 kbps avg, 0.26 bit/pixel
Аудио: 48 kHz, AC3 Dolby Digital, 2/0 (L,R) ch, ~192 kbps
Cубтитры: отсутствуют
Общее
Полное имя : D:\Архив\ФИЛЬМЫ\Vysotsky.Poslednyi.god.HDTVRip .GeneralFilm.avi
Формат : AVI
Формат/Информация : Audio Video Interleave
Размер файла : 705 Мбайт
Продолжительность : 46 м.
Общий поток : 2099 Кбит/сек
Библиотека кодирования : VirtualDub build 32507/release
Видео
Идентификатор : 0
Формат : MPEG-4 Visual
Профиль формата : Advanced [email protected]
Параметр BVOP формата : 2
Параметр QPel формата : Нет
Параметр GMC формата : Без точки перехода
Параметр матрицы формата : Default (H.263)
Режим смешивания : Сжатый битовый поток
Идентификатор кодека : XVID
Идентификатор кодека/Подсказка : XviD
Продолжительность : 46 м.
Битрейт : 1897 Кбит/сек
Ширина : 720 пикселей
Высота : 400 пикселей
Соотношение сторон : 16:9
Частота кадров : 25,000 кадров/сек
Цветовое пространство : YUV
Субдискретизация насыщенности : 4:2:0
Битовая глубина : 8 бит
Тип развёртки : Прогрессивная
Метод сжатия : С потерями
Бит/(Пиксели*Кадры) : 0.264
Размер потока : 637 Мбайт (90%)
Библиотека кодирования : XviD 64
Аудио
Идентификатор : 1
Формат : AC-3
Формат/Информация : Audio Coding 3
Расширение режима : CM (complete main)
Идентификатор кодека : 2000
Продолжительность : 46 м.
Вид битрейта : Постоянный
Битрейт : 192 Кбит/сек
Каналы : 2 канала
Расположение каналов : Front: L R
Частота : 48,0 КГц
Битовая глубина : 16 бит
Метод сжатия : С потерями
Размер потока : 64,5 Мбайт (9%)
Выравнивание : Соединение по промежуткам
Продолжительность промежутка : 40 мс. (1,00 видеокадр)
Время предзагрузки промежутка : 512 мс.
Download / Скачать

Хотите скачать бесплатно? Зарегистрируйтесь на сайте (ссылка на регистрацию). Pirat.ca - самый быстрый торрент трекер в рунете!

Как скачивать  ·   Что такое торрент  ·   Рейтинг и ограничения

kam67

Штурман

Пост 27-Янв-2013 14:41 (спустя 2 часа 40 минут)

[Q] 

[Профиль]  [ЛС] 
Показать сообщения:    
Ответить на тему

Текущее время: Сегодня 02:22

Часовой пояс: GMT + 4



Вы не можете начинать темы
Вы не можете отвечать на сообщения
Вы не можете редактировать свои сообщения
Вы не можете удалять свои сообщения
Вы не можете голосовать в опросах
Вы не можете прикреплять файлы к сообщениям
Вы не можете скачивать файлы

▼ Вниз