ML
     
  Уважаемый Гость!
Вы можете поддержать проект и зарегистрироваться у наших партнеров - онлайн-стратегия MyLands. При регистрации в игре Вы получите код, который сможете активировать после регистрации на pirat.ca и получить 1000 дублонов.

Ваш код:
dbd0d701284cde74a1f34d06ce20b7bc75a73e75
 
     

Владимир Высоцкий. Я не верю судьбе (Людмила Снигирёва) [2013 г., биография, документальный, SATRip]

Ответить на тему
 
Автор
Сообщение

Пост 27-Янв-2013 13:55

[Q] 

cergo

Гроза морей

-Владимир ВысоцкийЯ не верю судьбе-- Производство: Россия
Жанр: биография, документальный
Год выпуска: 2013 г.
Продолжительность: 00:51:37
Перевод: Не требуется
Режиссер: Людмила Снигирёва
-Описание: Фильм основан на уникальных, до сих пор неизвестных широкому зрителю документах о жизни поэта. Впервые рассказать о Высоцком согласились его первая жена Изольда, двоюродная сестра Ирэна, друзья и товарищи, которые были с ним рядом в разные периоды жизни. Почему отец Высоцкого признал талант сына только после его смерти? Кого поэт любил больше: мачеху или родную мать? Благодаря кому он написал свою знаменитую песню "Где мои 17 лет"? Почему он не мог ужиться ни с одной из своих жен, и так и не создал полноценную семью?-Качество видео: SATRip
Контейнер: AVI
Видео кодек: XviD
Аудио кодек: MP3
Видео: 704x400 (1.76:1), 25 fps, XviD build 50 ~1601 kbps avg, 0.23 bit/pixel
Аудио: 48 kHz, MPEG Layer 3, 2 ch, ~128.00 kbps avg
Cубтитры: отсутствуют
Общее
Полное имя : D:\Архив\ФИЛЬМЫ\Ne.verju.sudjbe.2013.SATRip.avi
Формат : AVI
Формат/Информация : Audio Video Interleave
Размер файла : 642 Мбайт
Продолжительность : 51 м.
Общий поток : 1738 Кбит/сек
Библиотека кодирования : VirtualDub-MPEG2 build 24600/release
Видео
Идентификатор : 0
Формат : MPEG-4 Visual
Профиль формата : [email protected]
Параметр BVOP формата : Нет
Параметр QPel формата : Нет
Параметр GMC формата : Без точки перехода
Параметр матрицы формата : Default (H.263)
Идентификатор кодека : DX50
Идентификатор кодека/Подсказка : DivX 5
Продолжительность : 51 м.
Битрейт : 1601 Кбит/сек
Ширина : 704 пикселя
Высота : 400 пикселей
Соотношение сторон : 16:9
Частота кадров : 25,000 кадров/сек
Цветовое пространство : YUV
Субдискретизация насыщенности : 4:2:0
Битовая глубина : 8 бит
Тип развёртки : Прогрессивная
Метод сжатия : С потерями
Бит/(Пиксели*Кадры) : 0.227
Размер потока : 591 Мбайт (92%)
Библиотека кодирования : XviD 1.2.1 (UTC 2008-12-04)
Аудио
Идентификатор : 1
Формат : MPEG Audio
Версия формата : Version 1
Профиль формата : Layer 3
Режим : Joint stereo
Расширение режима : MS Stereo
Идентификатор кодека : 55
Идентификатор кодека/Подсказка : MP3
Продолжительность : 51 м.
Вид битрейта : Постоянный
Битрейт : 128 Кбит/сек
Каналы : 2 канала
Частота : 48,0 КГц
Метод сжатия : С потерями
Размер потока : 47,3 Мбайт (7%)
Выравнивание : Разделение по промежуткам
Продолжительность промежутка : 40 мс. (1,00 видеокадр)
Время предзагрузки промежутка : 500 мс.
Библиотека кодирования : LAME3.98.2
Download / Скачать

Хотите скачать бесплатно? Зарегистрируйтесь на сайте (ссылка на регистрацию). Pirat.ca - самый быстрый торрент трекер в рунете!

Как скачивать  ·   Что такое торрент  ·   Рейтинг и ограничения

kam67

Штурман

Пост 27-Янв-2013 14:20 (спустя 24 минуты)

[Q] 

[Профиль]  [ЛС] 
Показать сообщения:    
Ответить на тему

Текущее время: Сегодня 18:34

Часовой пояс: GMT + 4



Вы не можете начинать темы
Вы не можете отвечать на сообщения
Вы не можете редактировать свои сообщения
Вы не можете удалять свои сообщения
Вы не можете голосовать в опросах
Вы не можете прикреплять файлы к сообщениям
Вы не можете скачивать файлы

▼ Вниз