ML
     
  Уважаемый Гость!
Вы можете поддержать проект и зарегистрироваться у наших партнеров - онлайн-стратегия MyLands. При регистрации в игре Вы получите код, который сможете активировать после регистрации на pirat.ca и получить 1000 дублонов.

Ваш код:
bb0cb47ee786a33f751af5a500dd264c9487bfac
 
     

Арнольд Шварценеггер. Он вернулся (Леонид Млечин) [2013 г., Документальный, биография, SATRip]

Ответить на тему
 
Автор
Сообщение

Пост 08-Фев-2013 09:03

[Q] 

Gweg

-Арнольд Шварценеггер. Он вернулся-- Производство: Россия (ТВЦ)
Жанр: Документальный, биография
Год выпуска: 2013 г.
Продолжительность: 00:59:59
Российская премьера: 8 января 2013
Перевод: Не требуется
Режиссер: Леонид Млечин-В ролях: Арнольд Шварценеггер, Мария Шрайвер, Леонид Млечин-Описание: Его считают обаятельным и забавным. Ценят его чувство юмора. Его словечки из фильмов знают все. Человек, прежде не знавший поражений, добившийся высших результатов в спорте и мировой славы в кинематографе, впервые споткнулся. Политическая карьера, с которой он связывал свое будущее, могла рухнуть, не начавшись. В 2003 году судьба Арнольда Шварценеггера висела на волоске… Знаменитому культуристу и актеру предъявили обвинения, ставившие крест на его амбициях. Спасать его бросилась та единственная женщина, которой только и могли поверить американцы — его жена Мария Шрайвер из знаменитого клана Кеннеди. Именно она нашла тогда те единственные слова, которые изменили общественное мнение и обеспечили Арнольду победу на выборах губернатора Калифорнии. История человека, добившегося успеха во всем, за что брался.-Качество видео: SATRip
Контейнер: AVI
Видео кодек: XviD
Аудио кодек: MP3
Видео: 720x528 (1.36:1), 25 fps, XviD MPEG-4 ~1905 kbps avg, 0.20 bit/pixel
Аудио: 48 kHz, MPEG Layer 3, 2 ch, ~128.00 kbps avg
Cубтитры: отсутствуют
Формат : AVI
Формат/Информация : Audio Video Interleave
Размер файла : 875 Мбайт
Продолжительность : 59 м.
Общий поток : 2040 Кбит/сек
Видео
Идентификатор : 0
Формат : MPEG-4 Visual
Профиль формата : Advanced [email protected]
Параметр BVOP формата : 2
Параметр QPel формата : Нет
Параметр GMC формата : Без точки перехода
Параметр матрицы формата : Default (MPEG)
Идентификатор кодека : XVID
Идентификатор кодека/Подсказка : XviD
Продолжительность : 59 м.
Битрейт : 1803 Кбит/сек
Ширина : 720 пикселей
Высота : 528 пикселей
Соотношение сторон : 4:3
Частота кадров : 25,000 кадров/сек
Цветовое пространство : YUV
Субдискретизация насыщенности : 4:2:0
Битовая глубина : 8 бит
Тип развёртки : Прогрессивная
Метод сжатия : С потерями
Бит/(Пиксели*Кадры) : 0.190
Размер потока : 774 Мбайт (88%)
Библиотека кодирования : XviD 1.2.1 (UTC 2008-12-04)
Аудио
Идентификатор : 1
Формат : MPEG Audio
Версия формата : Version 1
Профиль формата : Layer 3
Режим : Joint stereo
Расширение режима : MS Stereo
Идентификатор кодека : 55
Идентификатор кодека/Подсказка : MP3
Продолжительность : 59 м.
Вид битрейта : Постоянный
Битрейт : 128 Кбит/сек
Каналы : 2 канала
Частота : 48,0 КГц
Метод сжатия : С потерями
Размер потока : 54,9 Мбайт (6%)
Выравнивание : Соединение по промежуткам
Продолжительность промежутка : 24 мс. (0,60 видеокадр)
- -
Download / Скачать

Хотите скачать бесплатно? Зарегистрируйтесь на сайте (ссылка на регистрацию). Pirat.ca - самый быстрый торрент трекер в рунете!

Как скачивать  ·   Что такое торрент  ·   Рейтинг и ограничения

zlotosalien

Флибустьер

Пост 19-Янв-2014 18:33 (спустя 11 месяцев 11 дней)

[Q] 

Тут озвучка одноголосая? А то в нете глянул несколько вариантов...там несколько человек озвучивают и получается это нелепо...даже смотреть неинтересно! Не в смысле по ролям озвучивают а, в смысле просто по переменки...чуть-чуть женщина, чуть-чуть один мужской голос и чуть-чуть другой мужской голос...
[Профиль]  [ЛС] 

Begemot Ural

18

Пост 22-Апр-2014 11:10 (спустя 3 месяца 2 дня)

[Q] 

479986Тут озвучка одноголосая? А то в нете глянул несколько вариантов...там несколько человек озвучивают и получается это нелепо...даже смотреть неинтересно! Не в смысле по ролям озвучивают а, в смысле просто по переменки...чуть-чуть женщина, чуть-чуть один мужской голос и чуть-чуть другой мужской голос...
Озвучка не одноголосая

_________________
Aut Caesar, aut nihil
[Профиль]  [ЛС] 

zlotosalien

Флибустьер

Пост 23-Апр-2014 00:34 (спустя 13 часов)

[Q] 

525826
479986Тут озвучка одноголосая? А то в нете глянул несколько вариантов...там несколько человек озвучивают и получается это нелепо...даже смотреть неинтересно! Не в смысле по ролям озвучивают а, в смысле просто по переменки...чуть-чуть женщина, чуть-чуть один мужской голос и чуть-чуть другой мужской голос...
Озвучка не одноголосая
Многоголосая но, слушать ее не получается нормально...только привыкаешь к одному голосу как вдруг начинает женщина озвучивать...только к ней привыкаешь и начинает другой мужской голос говорить и так весь фильм!
[Профиль]  [ЛС] 
Показать сообщения:    
Ответить на тему

Текущее время: Сегодня 02:21

Часовой пояс: GMT + 4



Вы не можете начинать темы
Вы не можете отвечать на сообщения
Вы не можете редактировать свои сообщения
Вы не можете удалять свои сообщения
Вы не можете голосовать в опросах
Вы не можете прикреплять файлы к сообщениям
Вы не можете скачивать файлы

▼ Вниз