ML
     
  Уважаемый Гость!
Вы можете поддержать проект и зарегистрироваться у наших партнеров - онлайн-стратегия MyLands. При регистрации в игре Вы получите код, который сможете активировать после регистрации на pirat.ca и получить 1000 дублонов.

Ваш код:
ec3b26eefbcdc72e08e9fd33c6846bb2ca10f8b1
 
     

CNBC: Титаны. Стив Джобс / CNBC Titans. Steve Jobs (Чарльз Фиджеральд / Charles Fidzherald) [2011 г., документальный, биография, SATRip] (VO)

Ответить на тему
 
Автор
Сообщение

Пост 23-Дек-2011 20:29

[Q] 

me14

CNBC: Титаны. Стив Джобс / CNBC Titans. Steve Jobs
Год выпуска: 2011
Производство: США / CNBC
Жанр: документальный, биография
Продолжительность: 00:41:40
Перевод: Профессиональный (одноголосый)
Режиссер: Чарльз Фиджеральд / Charles Fidzherald
Описание: Стив Джобс - легендарная личность в компьютерной индустрии. Человек, обладающий уникальной харизмой и лидерскими качествами. За свою жизнь коренным образом повлиял на развитие всего компьютерного мира. Человек, который изменил мир высоких технологий, а также стиль ведения бизнеса в этой сфере. Он сделал устройства для мультимедиа понятными и желанными для пользователя. Компьютеры, плееры и телефоны Apple стали для многих людей настоящей философией и стилем жизни.Документальный фильм телекомпании CNBC, посвященный личности основателя и исполнительного директора компании Apple Стива Джобса.-
Источник/Качество: SATRip
Формат: AVI
Видео кодек: XviD
Аудио кодек: MP3
Видео: XviD, 704x400, 30 fps, ~1693 kbps avg
Аудио: 44.100 kHz, MPEG Layer 3, ~128.00 kbps avg
Формат : AVI
Формат/Информация : Audio Video Interleave
Размер файла : 546 MiB
Продолжительность : 41mn 40s
Общий поток : 1 832 Kbps
Программа кодирования : VirtualDubMod 1.5.10.2 (build 2540/release)
Библиотека кодирования : VirtualDubMod build 2540/release
Video
Идентификатор : 0
Формат : MPEG-4 Visual
Профиль формата : Advanced [email protected]
Параметр BVOP формата : 1
Параметр QPel формата : No
Параметр GMC формата : No warppoints
Параметр матрицы формата : Default (H.263)
Идентификатор кодека : XVID
Идентификатор кодека/Подсказка : XviD
Продолжительность : 41mn 40s
Битрейт : 1 693 Kbps
Ширина : 704 pixels
Высота : 400 pixels
Соотношение сторон : 16:9
Частота кадров : 30.000 fps
Цветовое пространство : YUV
Подвыборка цветности : 4:2:0
Битовая глубина : 8 bits
Тип развёртки : Progressive
Метод сжатия : Lossy
Бит/(Пиксели*Кадры) : 0.200
Размер потока : 505 MiB (92%)
Библиотека кодирования : XviD 1.2.1 (UTC 2008-12-04)
Audio
Идентификатор : 1
Формат : MPEG Audio
Версия формата : Version 1
Профиль формата : Layer 3
Идентификатор кодека : 55
Идентификатор кодека/Подсказка : MP3
Продолжительность : 41mn 40s
Вид битрейта : Constant
Битрейт : 128 Kbps
Канал(ы) : 2 channels
Частота : 44.1 KHz
Метод сжатия : Lossy
Задержка видео : 21ms
Размер потока : 38.2 MiB (7%)
Выравнивание : Split accross interleaves
Продолжительность промежутка : 33 ms (1.00 video frame)
Время предзагрузки промежутка : 500 ms







-
Download / Скачать

Хотите скачать бесплатно? Зарегистрируйтесь на сайте (ссылка на регистрацию). Pirat.ca - самый быстрый торрент трекер в рунете!

Как скачивать  ·   Что такое торрент  ·   Рейтинг и ограничения

Показать сообщения:    
Ответить на тему

Текущее время: Сегодня 03:49

Часовой пояс: GMT + 4



Вы не можете начинать темы
Вы не можете отвечать на сообщения
Вы не можете редактировать свои сообщения
Вы не можете удалять свои сообщения
Вы не можете голосовать в опросах
Вы не можете прикреплять файлы к сообщениям
Вы не можете скачивать файлы

▼ Вниз