ML
     
  Уважаемый Гость!
Вы можете поддержать проект и зарегистрироваться у наших партнеров - онлайн-стратегия MyLands. При регистрации в игре Вы получите код, который сможете активировать после регистрации на pirat.ca и получить 1000 дублонов.

Ваш код:
74c28610d77aaac24ba694c4128f3b9b46b04220
 
     

Революционная ОС / Revolution OS (Дж. Т.С. Мур / J.T.S. Moore) [2001 г., документальный, комедия, DVDRip] DVO

Ответить на тему
 
Автор
Сообщение

Пост 19-Сен-2013 19:45

[Q] 

moscowpan

-Революционная ОС / Revolution OS-«Hackers, Programmers & Rebels UNITE!»- Производство: США, Wonderview Productions
Жанр: документальный, комедия
Год выпуска: 2001 г.
Продолжительность: 01:25:04
Мировая премьера: 15 февраля 2002
Перевод: Профессиональный (двухголосый, закадровый)
Режиссер: Дж. Т.С. Мур / J.T.S. Moore-Описание: REVOLUTION OS рассказывает историю хакеров, восставших против собственнической модели программного обеспечения и Microsoft чтобы создать GNU/Linux и Движение за Открытые исходные коды. 1 июня 2001 года исполнительный директор Microsoft Стив Баллмер (Steve Ballmer) сказал "Linux -- это раковая опухоль, которая присоединяется, в плане интеллектуальной собственности, ко всему к чему прикасается." Microsoft боится GNU/Linux, и правильно. GNU/Linux движения за Открытые исходные коды и Свободное программное обеспечение убедительно представляют величайшую угрозу для способа существования Microsoft. Снятый в Кремниевой Долине для широкоформатных кинотеатров на 35мм пленку, REVOLUTION OS высвечивает ключевых авторов и инициаторов стоящих за Linux и выясняет как и почему Linux стал этой потенциальной угрозой.-
Качество видео: DVDRip
Контейнер: AVI
Видео кодек: XviD
Аудио кодек: AC3
Видео: 640x256 (2.50:1), 23.976 fps, XviD MPEG-4 ~1904 kbps avg, 0.48 bit/pixel
Аудио: 48 kHz, AC3 Dolby Digital, 2/0 (L,R) ch, ~384.00 kbps avg
Cубтитры: отсутствуют
General
Complete name : Revoljucionnaja.OS.2001.L2.DVDRip_[pirat.ca].avi
Format : AVI
Format/Info : Audio Video Interleave
File size : 1.37 GiB
Duration : 1h 25mn
Overall bit rate : 2 298 Kbps
Writing application : VirtualDubMod 1.5.10.2 (build 2540/release)
Writing library : VirtualDubMod build 2540/release
Video
ID : 0
Format : MPEG-4 Visual
Format profile : Advanced [email protected]
Format settings, BVOP : 2
Format settings, QPel : No
Format settings, GMC : No warppoints
Format settings, Matrix : Default (MPEG)
Muxing mode : Packed bitstream
Codec ID : XVID
Codec ID/Hint : XviD
Duration : 1h 25mn
Bit rate : 1 905 Kbps
Width : 640 pixels
Height : 256 pixels
Display aspect ratio : 2.500
Frame rate : 23.976 fps
Color space : YUV
Chroma subsampling : 4:2:0
Bit depth : 8 bits
Scan type : Progressive
Compression mode : Lossy
Bits/(Pixel*Frame) : 0.485
Stream size : 1.13 GiB (83%)
Writing library : XviD 1.2.1 (UTC 2008-12-04)
Audio
ID : 1
Format : AC-3
Format/Info : Audio Coding 3
Mode extension : CM (complete main)
Format settings, Endianness : Big
Codec ID : 2000
Duration : 1h 25mn
Bit rate mode : Constant
Bit rate : 384 Kbps
Channel(s) : 2 channels
Channel positions : Front: L R
Sampling rate : 48.0 KHz
Bit depth : 16 bits
Compression mode : Lossy
Stream size : 234 MiB (17%)
Alignment : Split accross interleaves
Interleave, duration : 42 ms (1.00 video frame)
Interleave, preload duration : 500 ms
Download / Скачать

Хотите скачать бесплатно? Зарегистрируйтесь на сайте (ссылка на регистрацию). Pirat.ca - самый быстрый торрент трекер в рунете!

Как скачивать  ·   Что такое торрент  ·   Рейтинг и ограничения

Показать сообщения:    
Ответить на тему

Текущее время: Сегодня 09:55

Часовой пояс: GMT + 4



Вы не можете начинать темы
Вы не можете отвечать на сообщения
Вы не можете редактировать свои сообщения
Вы не можете удалять свои сообщения
Вы не можете голосовать в опросах
Вы не можете прикреплять файлы к сообщениям
Вы не можете скачивать файлы

▼ Вниз