ML
     
  Уважаемый Гость!
Вы можете поддержать проект и зарегистрироваться у наших партнеров - онлайн-стратегия MyLands. При регистрации в игре Вы получите код, который сможете активировать после регистрации на pirat.ca и получить 1000 дублонов.

Ваш код:
dbd0d701284cde74a1f34d06ce20b7bc75a73e75
 
     

Путешествие металлиста / Metal: A Headbanger's Journey (Сэм Данн, Скот МакФадьен и Джессика Уайз) [2005 г., документальный, DVDRip]

Ответить на тему
 
Автор
Сообщение

Пост 27-Окт-2011 22:02

[Q] 

Призрак

Корсар

Путешествие металлиста / Metal: A Headbanger's Journey
Год выпуска: 2005
Страна: США
Жанр: документальный, музыкальный
Продолжительность: 01:38:08
Перевод: Любительский (одноголосый)
Режиссер: Сэм Данн / Sam Dunn, Скот МакФадьен / Scot McFadyen и Джессика Уайз / Jessica Joy Wise
В ролях: Том Арайя / Tom Araya, Элис Купер / Alice Cooper, Брюс Дикинсон /Bruce Dickinson, Ронни Джеймс Дио / Ronnie James Dio, Томми Айомми / Tony Iommi, Керри Кинг / Kerry King
Описание: Документальный фильм рассказывает о путешествиях Сэма Данна, канадского антрополога. Будучи фанатом хеви-метала с 12 лет, Данн передаёт различные мнения об этом жанре, пытается выяснить его происхождение, описать явления культуры, споры и противоречия, связанные с ним, и, в конце концов — найти причину популярности хеви-метала.
Доп. информация: Фильм впервые вышел на экраны на международном кинофестивале в Торонто в 2005 году, а 19 сентября 2006 года появился в США в виде специального издания на двух DVD-дисках.
Кинопоиск
IMDb
Качество: DVDRip
Формат: AVI
Видео кодек: XviD
Аудио кодек: MP3
Видео: 560x304 (1.84:1), 23.976 fps, XviD Final 1.0.1 (build 35) ~880 kbps avg, 0.22 bit/pixel
Аудио: 48 kHz, MPEG Layer 3, 2 ch, ~112.00 kbps avg
Общее
Формат : AVI
Формат/Информация : Audio Video Interleave
Размер файла : 703 Мбайт
Продолжительность : 1 ч. 38 м.
Общий поток : 1002 Кбит/сек
Программа кодирования : VirtualDubMod 1.5.10.2 (build 2540/release)
Библиотека кодирования : VirtualDubMod build 2540/release
Видео
Идентификатор : 0
Формат : MPEG-4 Visual
Профиль формата : [email protected]
Параметр BVOP формата : 2
Параметр QPel формата : Нет
Параметр GMC формата : Без точки перехода
Параметр матрицы формата : Default (H.263)
Режим смешивания : Сжатый битовый поток
Идентификатор кодека : XVID
Идентификатор кодека/Подсказка : XviD
Продолжительность : 1 ч. 38 м.
Битрейт : 880 Кбит/сек
Ширина : 560 пикселей
Высота : 304 пикселя
Соотношение сторон : 16:9
Частота кадров : 23,976 кадра/сек
Цветовое пространство : YUV
Субдискретизация насыщенности : 4:2:0
Битовая глубина : 8 бит
Тип развёртки : Прогрессивная
Метод сжатия : С потерями
Бит/(Пиксели*Кадры) : 0.216
Размер потока : 618 Мбайт (88%)
Библиотека кодирования : XviD 1.0.1 (UTC 2004-06-05)
Аудио
Идентификатор : 1
Формат : MPEG Audio
Версия формата : Version 1
Профиль формата : Layer 3
Режим : Joint stereo
Расширение режима : MS Stereo
Идентификатор кодека : 55
Идентификатор кодека/Подсказка : MP3
Продолжительность : 1 ч. 38 м.
Вид битрейта : Постоянный
Битрейт : 112 Кбит/сек
Каналы : 2 канала
Частота : 48,0 КГц
Метод сжатия : С потерями
Размер потока : 78,6 Мбайт (11%)
Выравнивание : Соединение по промежуткам
Продолжительность промежутка : 42 мс. (1,00 видеокадр)
Время предзагрузки промежутка : 504 мс.
Download / Скачать

Хотите скачать бесплатно? Зарегистрируйтесь на сайте (ссылка на регистрацию). Pirat.ca - самый быстрый торрент трекер в рунете!

Как скачивать  ·   Что такое торрент  ·   Рейтинг и ограничения



Последний раз редактировалось: Призрак (2011-10-30 15:04), всего редактировалось 2 раз(а)

ReKing

Лоцман

Пост 09-Фев-2012 01:49 (спустя 3 месяца 12 дней)

[Q] 

скорости плиз!)
[Профиль]  [ЛС] 

Twilight Angel

1470

Пост 02-Июн-2012 18:21 (спустя 3 месяца 22 дня)

[Q] 

спасибо.. давно хотел посмотреть этот фильм..

_________________
[Профиль]  [ЛС] 

FreshMeat

Морской Волк

Пост 06-Июн-2012 09:19 (спустя 3 дня)

[Q] 


_________________
[Профиль]  [ЛС] 
Показать сообщения:    
Ответить на тему

Текущее время: Сегодня 18:34

Часовой пояс: GMT + 4



Вы не можете начинать темы
Вы не можете отвечать на сообщения
Вы не можете редактировать свои сообщения
Вы не можете удалять свои сообщения
Вы не можете голосовать в опросах
Вы не можете прикреплять файлы к сообщениям
Вы не можете скачивать файлы

▼ Вниз