ML
     
  Уважаемый Гость!
Вы можете поддержать проект и зарегистрироваться у наших партнеров - онлайн-стратегия MyLands. При регистрации в игре Вы получите код, который сможете активировать после регистрации на pirat.ca и получить 1000 дублонов.

Ваш код:
ec3b26eefbcdc72e08e9fd33c6846bb2ca10f8b1
 
     

Как Стив Джобс изменил мир / The Way Steve Jobs Changed the World (Бертран Дево, Антуан Робин / Bertrand Deveaud, Antoine Robin) [2011 г., Документальный, SATRip] MVO

Ответить на тему
 
Автор
Сообщение

Пост 09-Янв-2012 20:44

[Q] 

zyyx

--Как Стив Джобс изменил мир
The Way Steve Jobs Changed the World
-- Год выпуска: 2011
Производство: Франция
Жанр: Документальный
Продолжительность: 00:45:20
Перевод: Профессиональный (многоголосый, закадровый)
Субтитры: отсутствуют
Режиссер: Бертран Дево, Антуан Робин / Bertrand Deveaud, Antoine Robin
Описание
Верите или нет, но Стив Джобс ничего не изобрел. Он не был ни инженером, ни ученым. И все же без него мы никогда не увидели бы Maкинтош или Аймак. Никто бы не слушал музыку на Айподе, и не звонил бы с Айфона, и не бродил бы в сети с планшетника Айпад. Каждый новый продукт он представлял как шаг в будущее, и делала это невероятно изящно. Джобс был буквально соткан из парадоксов: мечтатель, харизматичный босс, и в то же время авторитарный, безжалостный человек с манией величия. Себя он позиционировал, как одного из величайших мировых, культурных и политических лидеров нашего времени. Фильм пытается ответить на вопрос, каким же образом этому самоучке с обостренным чувством собственной значимости удалось создать одну из крупнейших компаний современности?
Источник/Качество: SATRip
Формат: AVI
Видео кодек: XviD
Аудио кодек: MP3
Видео: 720x400, 16:9, 1700 kbps, 25 fps
Аудио: 192 kbps, 48 kHz, 2 ch
General
Complete name : C:\Users\zyyx\Desktop\The Way Steve Jobs Changed the World.avi
Format : AVI
Format/Info : Audio Video Interleave
File size : 617 MiB
Duration : 45mn 20s
Overall bit rate : 1 902 Kbps
Writing application : VirtualDubMod 1.5.10.3 | www.virtualdub-fr.org || (build 2550/release)
Writing library : VirtualDubMod build 2550/release
Video
ID : 0
Format : MPEG-4 Visual
Format profile : [email protected]
Format settings, BVOP : Yes
Format settings, QPel : No
Format settings, GMC : No warppoints
Format settings, Matrix : Custom
Codec ID : XVID
Codec ID/Hint : XviD
Duration : 45mn 20s
Bit rate : 1 700 Kbps
Width : 720 pixels
Height : 400 pixels
Display aspect ratio : 16:9
Frame rate : 25.000 fps
Resolution : 24 bits
Colorimetry : 4:2:0
Scan type : Progressive
Bits/(Pixel*Frame) : 0.236
Stream size : 551 MiB (89%)
Writing library : XviD 1.2.1 (UTC 2008-12-04)
Audio
ID : 1
Format : MPEG Audio
Format version : Version 1
Format profile : Layer 3
Codec ID : 55
Codec ID/Hint : MP3
Duration : 45mn 20s
Bit rate mode : Constant
Bit rate : 192 Kbps
Channel(s) : 2 channels
Sampling rate : 48.0 KHz
Resolution : 16 bits
Stream size : 62.3 MiB (10%)
Alignment : Aligned on interleaves
Interleave, duration : 40 ms (1.00 video frame)
Interleave, preload duration : 504 ms
Writing library : LAME3.99
Encoding settings : -m s -V 4 -q 2 -lowpass 18.6 -b 192
Download / Скачать

Хотите скачать бесплатно? Зарегистрируйтесь на сайте (ссылка на регистрацию). Pirat.ca - самый быстрый торрент трекер в рунете!

Как скачивать  ·   Что такое торрент  ·   Рейтинг и ограничения

goxakrauter

4539

Пост 09-Янв-2012 20:51 (спустя 6 минут)

[Q] 

Спасибо ay
[Профиль]  [ЛС] 
Показать сообщения:    
Ответить на тему

Текущее время: Сегодня 03:46

Часовой пояс: GMT + 4



Вы не можете начинать темы
Вы не можете отвечать на сообщения
Вы не можете редактировать свои сообщения
Вы не можете удалять свои сообщения
Вы не можете голосовать в опросах
Вы не можете прикреплять файлы к сообщениям
Вы не можете скачивать файлы

▼ Вниз