ML
     
  Уважаемый Гость!
Вы можете поддержать проект и зарегистрироваться у наших партнеров - онлайн-стратегия MyLands. При регистрации в игре Вы получите код, который сможете активировать после регистрации на pirat.ca и получить 1000 дублонов.

Ваш код:
74c28610d77aaac24ba694c4128f3b9b46b04220
 
     

Путешествие металлиста 2: Глобальный метал / Global metal (Сэм Данн / Sam Dunn, Скот МакФадьен / Scot McFadyen) [2008 г., Документальный, DVDRip]

Ответить на тему
 
Автор
Сообщение

Пост 27-Окт-2011 22:03

[Q] 

Призрак

Корсар

Путешествие металлиста 2: Глобальный метал / Global metal
Год выпуска: 2008
Страна: США
Жанр: Документальный
Продолжительность: 01:35:00
Перевод: Профессиональный (одноголосый)
Режиссер: Сэм Данн / Sam Dunn, Скот МакФадьен / Scot McFadyen
Описание: Весной 2008 года вышла вторая часть, ставшего уже культовым, документального фильма Путешествие металлиста (Metal: A Headbanger's Journey) от режиссёра-металлиста-путешественника Samа Dunnа, получившая названия Global Metal.
В Global Metal режиссеры Scot McFadyen и Sam Dunn пытаются определить, какое влияние наиболее агрессивный жанр западной музыки оказал на мировые культуры за пределами Северной Америки и Европы. На протяжении фильма вы путешествуете вместе с фаном и антропологом Sam Dunn по Азии, Южной Америке и Ближнему Востоку, где он исследует наиболее радикальные формы тяжелого металла - от индонезийского death metal до китайского black metal и иранского trash metal.
Global Metal открывает глобальное сообщество металлистов, которые уже не просто заимствуют у Запада, а трансформируют музыку под свои национальные и прочие традиции, создают новые формы культурного выражения в обществах, подверженных конфликтам, коррупции и тоталитаризму.
IMDb
Кинопоиск
Качество: DVDRip
Формат: AVI
Видео кодек: XviD
Аудио кодек: MP3
Видео: XviD 856 Kbps, 23.976 fps, разрешение 640*352 (16:9)
Аудио: MPEG Audio Layer 3 44100Hz stereo 192Kbps
Общее
Формат : AVI
Формат/Информация : Audio Video Interleave
Размер файла : 709 Мбайт
Продолжительность : 1 ч. 35 м.
Общий поток : 1041 Кбит/сек
Программа кодирования : VirtualDubMod 1.5.10.2 (build 2540/release)
Библиотека кодирования : VirtualDubMod build 2540/release
Видео
Идентификатор : 0
Формат : MPEG-4 Visual
Профиль формата : [email protected]
Параметр BVOP формата : Нет
Параметр QPel формата : Нет
Параметр GMC формата : Без точки перехода
Параметр матрицы формата : Default (H.263)
Идентификатор кодека : XVID
Идентификатор кодека/Подсказка : XviD
Продолжительность : 1 ч. 35 м.
Битрейт : 847 Кбит/сек
Ширина : 640 пикселей
Высота : 352 пикселя
Соотношение сторон : 16:9
Частота кадров : 23,976 кадра/сек
Цветовое пространство : YUV
Субдискретизация насыщенности : 4:2:0
Битовая глубина : 8 бит
Тип развёртки : Прогрессивная
Метод сжатия : С потерями
Бит/(Пиксели*Кадры) : 0.157
Размер потока : 577 Мбайт (81%)
Библиотека кодирования : XviD 1.0.3 (UTC 2004-12-20)
Аудио
Идентификатор : 1
Формат : MPEG Audio
Версия формата : Version 1
Профиль формата : Layer 3
Режим : Joint stereo
Расширение режима : MS Stereo
Идентификатор кодека : 55
Идентификатор кодека/Подсказка : MP3
Продолжительность : 1 ч. 31 м.
Вид битрейта : Постоянный
Битрейт : 192 Кбит/сек
Каналы : 2 канала
Частота : 44,1 КГц
Метод сжатия : С потерями
Задержка видео : 700 мс.
Размер потока : 125 Мбайт (18%)
Выравнивание : Разделение по промежуткам
Продолжительность промежутка : 43 мс. (1,04 видеокадр)
Время предзагрузки промежутка : 500 мс.
Библиотека кодирования : LAME3.98
Настройки программы : -m j -V 4 -q 3 -lowpass 18.6 -b 192
Download / Скачать

Хотите скачать бесплатно? Зарегистрируйтесь на сайте (ссылка на регистрацию). Pirat.ca - самый быстрый торрент трекер в рунете!

Как скачивать  ·   Что такое торрент  ·   Рейтинг и ограничения



Последний раз редактировалось: Призрак (2011-10-30 15:10), всего редактировалось 2 раз(а)

Степаныч

864

Пост 27-Окт-2011 22:17 (спустя 14 минут)

[Q] 

спасибо что начал создавать раздачи.
востонавливать раздел документального кино

_________________
орфография как кунг-фу, истинный мастер не использует без надобности
[Профиль]  [ЛС] 

rusl000001

Морской Волк

91

Пост 10-Мар-2012 21:11 (спустя 4 месяца 13 дней)

[Q] 

[Профиль]  [ЛС] 

_dragula_

Лоцман

Пост 18-Мар-2012 22:36 (спустя 8 дней)

[Q] 

[Профиль]  [ЛС] 

Twilight Angel

1470

Пост 02-Июн-2012 18:24 (спустя 2 месяца 14 дней)

[Q] 


_________________
[Профиль]  [ЛС] 

FreshMeat

Морской Волк

Пост 06-Июн-2012 09:19 (спустя 3 дня)

[Q] 


_________________
[Профиль]  [ЛС] 

ZLURov

Штурман

Пост 13-Сен-2012 14:40 (спустя 3 месяца 7 дней)

[Q] 

Круто!
Первая часть понравилась, надеюсь и эта не хуже.
[Профиль]  [ЛС] 

[email protected] Ducky

Морской Волк

398

Пост 15-Дек-2012 16:07 (спустя 3 месяца 2 дня)

[Q] 


_________________
[Профиль]  [ЛС] 

zludna

Морской Волк

Пост 23-Янв-2013 19:17 (спустя 1 месяц 8 дней)

[Q] 

[Профиль]  [ЛС] 
Показать сообщения:    
Ответить на тему

Текущее время: Сегодня 09:54

Часовой пояс: GMT + 4



Вы не можете начинать темы
Вы не можете отвечать на сообщения
Вы не можете редактировать свои сообщения
Вы не можете удалять свои сообщения
Вы не можете голосовать в опросах
Вы не можете прикреплять файлы к сообщениям
Вы не можете скачивать файлы

▼ Вниз