ML
     
  Уважаемый Гость!
Вы можете поддержать проект и зарегистрироваться у наших партнеров - онлайн-стратегия MyLands. При регистрации в игре Вы получите код, который сможете активировать после регистрации на pirat.ca и получить 1000 дублонов.

Ваш код:
2fd4e750dd89cae3a36ea360f2b345ccfeb562d3
 
     

Юрий Андропов. "Истина, страшней которой нету" / (Екатерина Кругликова) [2014 г., документальный, HDTVRip]

Ответить на тему
 
Автор
Сообщение

Пост 23-Июн-2014 15:55

[Q] 

okorm

-Юрий Андропов. "Истина, страшней которой нету"-- Производство: Россия
Жанр: документальный
Год выпуска: 2014 г.
Продолжительность: 00:49:03
Перевод: Не требуется
Оригинальный аудиопоток: русский
Режиссер: Екатерина Кругликова-Описание: При жизни о Юрии Андропове за пределами Кремля было известно не много. А то, что открывается сегодня, только прибавляет загадок. О своем отношении к знаменитому деду в фильме расскажут внуки Генсека – те, кто провел с ним всю жизнь. После многолетнего молчания о тайнах кремлевской медицины решился рассказать академик Евгений Чазов. Каким образом удавалось 18 лет поддерживать работоспособность Андропова и где для него добывались секретные лекарства? Почему первый инфаркт оказался ложным? Кто стремился отправить на пенсию по инвалидности высокопоставленного пациента? Преобразования в стране при Андропове начинаются с облав на прогульщиков. Как это было связано с трагедией его старшего дважды судимого сына? Почему перед смертью первая жена сожгла все письма бывшего мужа детям? И как изменилась жизнь непризнанной семьи Андропова после его избрания на высшую государственную должность?-Качество видео: HDTVRip
Контейнер: AVI
Видео кодек: XviD
Аудио кодек: MP3
Видео: XviD, 1499 Кбит/с, 720x400, 25,000 fps
Аудио: MP3, 2 ch, 128 Кбит/с, 48,0 КГц
Cубтитры: отсутствуют
Формат : AVI
Формат/Информация : Audio Video Interleave
Размер файла : 575 Мбайт
Продолжительность : 49 м.
Общий поток : 1638 Кбит/сек
Программа кодирования : VirtualDubMod 1.5.10.3 | www.virtualdub-fr.org || (build 2550/release)
Библиотека кодирования : VirtualDubMod build 2550/release
Видео
Идентификатор : 0
Формат : MPEG-4 Visual
Профиль формата : Advanced [email protected]
Параметр BVOP формата : 2
Параметр QPel формата : Нет
Параметр GMC формата : Без точки перехода
Параметр матрицы формата : Default (H.263)
Идентификатор кодека : XVID
Идентификатор кодека/Подсказка : XviD
Продолжительность : 49 м.
Битрейт : 1500 Кбит/сек
Ширина : 720 пикселей
Высота : 400 пикселей
Соотношение сторон : 16:9
Частота кадров : 25,000 кадров/сек
Цветовое пространство : YUV
Субдискретизация насыщенности : 4:2:0
Битовая глубина : 8 бит
Тип развёртки : Прогрессивная
Метод сжатия : С потерями
Бит/(Пиксели*Кадры) : 0.208
Размер потока : 526 Мбайт (92%)
Библиотека кодирования : XviD 1.2.1 (UTC 2008-12-04)
Аудио
Идентификатор : 1
Формат : MPEG Audio
Версия формата : Version 1
Профиль формата : Layer 3
Режим : Joint stereo
Расширение режима : MS Stereo
Идентификатор кодека : 55
Идентификатор кодека/Подсказка : MP3
Продолжительность : 49 м.
Вид битрейта : Постоянный
Битрейт : 128 Кбит/сек
Каналы : 2 канала
Частота : 48,0 КГц
Метод сжатия : С потерями
Размер потока : 44,9 Мбайт (8%)
Выравнивание : Соединение по промежуткам
Продолжительность промежутка : 40 мс. (1,00 видеокадр)
Время предзагрузки промежутка : 504 мс.
Библиотека кодирования : LAME3.99r
Настройки программы : -m j -V 4 -q 9 -lowpass 17 -b 128
Download / Скачать

Хотите скачать бесплатно? Зарегистрируйтесь на сайте (ссылка на регистрацию). Pirat.ca - самый быстрый торрент трекер в рунете!

Как скачивать  ·   Что такое торрент  ·   Рейтинг и ограничения

Показать сообщения:    
Ответить на тему

Текущее время: Сегодня 14:15

Часовой пояс: GMT + 4



Вы не можете начинать темы
Вы не можете отвечать на сообщения
Вы не можете редактировать свои сообщения
Вы не можете удалять свои сообщения
Вы не можете голосовать в опросах
Вы не можете прикреплять файлы к сообщениям
Вы не можете скачивать файлы

▼ Вниз