ML
     
  Уважаемый Гость!
Вы можете поддержать проект и зарегистрироваться у наших партнеров - онлайн-стратегия MyLands. При регистрации в игре Вы получите код, который сможете активировать после регистрации на pirat.ca и получить 1000 дублонов.

Ваш код:
ec3b26eefbcdc72e08e9fd33c6846bb2ca10f8b1
 
     

Николай Вавилов. Накормивший человечество / (Елена Лосева) [2014 г., документальный, DVB]

Ответить на тему
 
Автор
Сообщение

Пост 23-Июн-2014 18:59

[Q] 

okorm

-Николай Вавилов. Накормивший человечество-- Производство: Россия
Жанр: документальный
Год выпуска: 2014 г.
Продолжительность: 00:52:00
Перевод: Не требуется
Оригинальный аудиопоток: русский
Режиссер: Елена Лосева-Описание: 1941 год. В блокадном Ленинграде умирают от голода сотрудники Всесоюзного института растениеводства. Они предпочли мучительную смерть возможности выжить за счет научной коллекции. Эту коллекцию собрал их учитель – академик Николай Вавилов. Великий ученый и выдающийся организатор науки стал жертвой сталинских репрессий.
Не заслонила ли трагическая судьба человека счастливую судьбу ученого, оставившего России и всему миру невероятное наследство? В чем на самом деле гениальность Вавилова, и как он заслужил мировую известность? Почему ленинградские ученые готовы были заплатить жизнью за сохранение коллекции семян, и что лежало в основе их подвига?-Качество видео: DVB
Контейнер: TS/M2TS
Видео кодек: AVC
Аудио кодек: MP3
Видео: AVC, аноморф. 720х576, 4:3, 1215 Кбит/сек, 25 fps
Аудио: MPEG Audio, 160 Кбит/сек, 48 КГц, 2 канала
Cубтитры: отсутствуют
Формат : MPEG-TS
Размер файла : 540 Мбайт
Продолжительность : 52 м.
Режим общего битрейта : Переменный
Общий поток : 1448 Кбит/сек
Видео
Идентификатор : 1403 (0x57B)
Идентификатор меню : 403 (0x193)
Формат : AVC
Формат/Информация : Advanced Video Codec
Профиль формата : [email protected]
Параметр CABAC формата : Да
Параметр ReFrames формата : 3 кадра
Идентификатор кодека : 27
Продолжительность : 52 м.
Битрейт : 1215 Кбит/сек
Ширина : 720 пикселей
Высота : 576 пикселей
Соотношение сторон : 4:3
Частота кадров : 25,000 кадров/сек
Стандарт вещания : PAL
Цветовое пространство : YUV
Субдискретизация насыщенности : 4:2:0
Битовая глубина : 8 бит
Тип развёртки : Чересстрочная
Порядок развёртки : Верхнее поле первое
Бит/(Пиксели*Кадры) : 0.117
Размер потока : 453 Мбайт (84%)
Основные цвета : BT.601 PAL
Характеристики трансфера : BT.470 System B, BT.470 System G
Коэффициенты матрицы : BT.601
Аудио
Идентификатор : 2403 (0x963)
Идентификатор меню : 403 (0x193)
Формат : MPEG Audio
Версия формата : Version 1
Профиль формата : Layer 2
Идентификатор кодека : 4
Продолжительность : 52 м.
Вид битрейта : Постоянный
Битрейт : 160 Кбит/сек
Каналы : 2 канала
Частота : 48,0 КГц
Метод сжатия : С потерями
Задержка видео : 103 мс.
Размер потока : 59,6 Мбайт (11%)
Язык : std
Язык, дополнительно : Clean effects
Download / Скачать

Хотите скачать бесплатно? Зарегистрируйтесь на сайте (ссылка на регистрацию). Pirat.ca - самый быстрый торрент трекер в рунете!

Как скачивать  ·   Что такое торрент  ·   Рейтинг и ограничения

Показать сообщения:    
Ответить на тему

Текущее время: Сегодня 03:52

Часовой пояс: GMT + 4



Вы не можете начинать темы
Вы не можете отвечать на сообщения
Вы не можете редактировать свои сообщения
Вы не можете удалять свои сообщения
Вы не можете голосовать в опросах
Вы не можете прикреплять файлы к сообщениям
Вы не можете скачивать файлы

▼ Вниз