ML
     
  Уважаемый Гость!
Вы можете поддержать проект и зарегистрироваться у наших партнеров - онлайн-стратегия MyLands. При регистрации в игре Вы получите код, который сможете активировать после регистрации на pirat.ca и получить 1000 дублонов.

Ваш код:
ec3b26eefbcdc72e08e9fd33c6846bb2ca10f8b1
 
     

Срок / The Term (Павел Костомаров, Алексей Пивоваров, Александр Расторгуев) [2014 г., документальный, биография, история, WEB-DLRip] Original (Rus)

Ответить на тему
 
Автор
Сообщение

Пост 11-Июл-2014 13:36

[Q] 

Anonim.ca

-Срок / The Term- Год выпуска: 2014 г.
Производство: Россия , Авиатор Продакшн
Жанр: документальный, биография, история
Продолжительность: 01:22:59
Российская премьера: 26 июня 2014
Перевод: Не требуется
Оригинальный аудиопоток: русский
Режиссёры: Павел Костомаров, Алексей Пивоваров, Александр Расторгуев-В ролях: Ксения Собчак, Алексей Навальный, Илья Яшин, Pussy Riot, Максим Виторган, Алексей Венедиктов, Борис Немцов и другие...-Описание: С 21 мая 2012 года фрагменты будущего фильма публикуются как онлайн-проект на странице в ЖЖ и видеохостинге YouTube.
С 21 января 2013г. онлайн-проект выходит под названием Lenta.doc (Лента.Док) на сайте интернет-издания Lenta.ru («Лента.Ру»).
Изначально было заявлено, что фильм рассказывает о лидерах протестов, которые происходили в России после выборов президента в марте 2012 года. Авторы фильма утверждают, что их работа не является летописью протестов и посвящена только фиксации мыслей и эмоций лидеров оппозиции с целью понять, «куда нас ведут те, кто ради своих убеждений готов идти на срок». В своем микроблоге Алексей Пивоваров заявил, что «Срок» не предназначен для телеэфира и является кинопроектом. По мнению кинообозревателя «Московского комсомольца» Никиты Карцева, «Срок» похож на «большой американский сериал» — он «задаёт ритм и интригу первым же эпизодом», поражает разнообразием героев, сюжетных линий, жанровых схем и непредсказуемостью финала; а уникальность проекта не в теме, а в прямом взаимодействии с действительностью. Последовательность, в которой эпизоды выкладываются в Интернет, выстраивается, по словам Карцева, в «черновой монтаж» будущего фильма. В работе над картиной также принял участие швейцарский документалист Антуан Каттин. В июле 2012 года вместе с Пивоваровым он представил готовящийся проект международной аудитории на Кинофестивале в Карловых Варах. В октябре 2013 года создатели «Срока» собрали «черновой монтаж» полнометражной картины и объявили о планах предложить её европейским телеканалам и кинофестивалям.
Мировая премьера «Срока» состоится в начале июля 2014 года на 49-м Карловарском кинофестивале — фильм принимает участие в документальном конкурсе.
- *7.8 *7.463Качество видео: WEB-DLRip
Контейнер: AVI
Видео кодек: XviD
Аудио кодек: AC3
Видео: 720x400, 1450 kbps, 25 fps, 0.201 bit/pixel
Аудио: 192 kbps, 2 ch, 48.0 kHz
Cубтитры: отсутствуют
Общее
Полное имя : Срок_ The Term.2014.[WEB-DLRip].avi
Формат : AVI
Формат/Информация : Audio Video Interleave
Размер файла : 980 Мбайт
Продолжительность : 1 ч. 22 м.
Общий поток : 1651 Кбит/сек
Программа кодирования : VirtualDubMod 1.5.10.3 | (build 2550/release)
Библиотека кодирования : VirtualDubMod build 2550/release
Видео
Идентификатор : 0
Формат : MPEG-4 Visual
Профиль формата : Advanced [email protected]
Параметр BVOP формата : 1
Параметр QPel формата : Нет
Параметр GMC формата : Без точки перехода
Параметр матрицы формата : Default (H.263)
Идентификатор кодека : XVID
Идентификатор кодека/Подсказка : XviD
Продолжительность : 1 ч. 22 м.
Битрейт : 1450 Кбит/сек
Ширина : 720 пикселей
Высота : 400 пикселей
Соотношение сторон : 16:9
Частота кадров : 25,000 кадров/сек
Цветовое пространство : YUV
Субдискретизация насыщенности : 4:2:0
Битовая глубина : 8 бит
Тип развёртки : Прогрессивная
Метод сжатия : С потерями
Бит/(Пиксели*Кадры) : 0.201
Размер потока : 860 Мбайт (88%)
Библиотека кодирования : XviD 73
Аудио
Идентификатор : 1
Формат : AC-3
Формат/Информация : Audio Coding 3
Расширение режима : CM (complete main)
Параметр Endianness формата : Big
Идентификатор кодека : 2000
Продолжительность : 1 ч. 22 м.
Вид битрейта : Постоянный
Битрейт : 192 Кбит/сек
Каналы : 2 канала
Расположение каналов : Front: L R
Частота : 48,0 КГц
Битовая глубина : 16 бит
Метод сжатия : С потерями
Размер потока : 114 Мбайт (12%)
Выравнивание : Разделение по промежуткам
Продолжительность промежутка : 40 мс. (1,00 видеокадр)
Время предзагрузки промежутка : 500 мс.
Download / Скачать

Хотите скачать бесплатно? Зарегистрируйтесь на сайте (ссылка на регистрацию). Pirat.ca - самый быстрый торрент трекер в рунете!

Как скачивать  ·   Что такое торрент  ·   Рейтинг и ограничения

Показать сообщения:    
Ответить на тему

Текущее время: Сегодня 03:45

Часовой пояс: GMT + 4



Вы не можете начинать темы
Вы не можете отвечать на сообщения
Вы не можете редактировать свои сообщения
Вы не можете удалять свои сообщения
Вы не можете голосовать в опросах
Вы не можете прикреплять файлы к сообщениям
Вы не можете скачивать файлы

▼ Вниз