ML
     
  Уважаемый Гость!
Вы можете поддержать проект и зарегистрироваться у наших партнеров - онлайн-стратегия MyLands. При регистрации в игре Вы получите код, который сможете активировать после регистрации на pirat.ca и получить 1000 дублонов.

Ваш код:
2a3da67fd641d69eeebb7cb965232435a70eaa24
 
     

Сучья война / "Черкас" - Законодатель воров (Герман Могилевский) [2011 г., Документальный, SATRip]

Ответить на тему
 
Автор
Сообщение

Пост 16-Янв-2012 22:15

[Q] 

Степаныч

Сучья война / "Черкас" - Законодатель воров
Год выпуска: 2011
Производство: Россия
Жанр: Документальный
Продолжительность серии: 00:45:31
Перевод: Не требуется
Субтитры: отсутствуют
Режиссер: Герман Могилевский
Описание: На войне совершали подвиги не только герои-комсомольцы и студенты-отличники, но и уголовники. История этого таинственного человека похожа на многотомный роман. Именно его называют главным законодателем воровского мира и именно ему приписывают появлению в нашем преступном мире такого явления как рэкет. Анатолий Павлович Черкасов - человек прошедший войну, кавалер двух Орденов Славы, он же вор в законе Черкас - беспощадный и страшный преступник развязавший другую войну, которая вошла в другую историю, бесславную и преступную, под названием "сучья война" ...
Источник/Качество: SATRip
Формат: AVI
Видео кодек: XviD
Аудио кодек: MP3
Видео: MPEG4, XviD, 704x400 (16/9), 25.000 fps, 1 863 Kbps (0.265 bit/pixel)
Аудио: MP3, 48.0 KHz, 1 ch, 128 Kbps, CBR
Полное имя : E:\релиз1.4\suchya.voyna.avi
Формат : AVI
Формат/Информация : Audio Video Interleave
Размер файла : 652 Мбайт
Продолжительность : 45 м.
Общий поток : 2001 Кбит/сек
Программа кодирования : VirtualDubMod 1.5.10.2 (build 2542/release)
Библиотека кодирования : VirtualDubMod build 2542/release
Видео
Идентификатор : 0
Формат : MPEG-4 Visual
Профиль формата : Advanced [email protected]
Параметр BVOP формата : 2
Параметр QPel формата : Нет
Параметр GMC формата : Без точки перехода
Параметр матрицы формата : Default (MPEG)
Режим смешивания : Сжатый битовый поток
Идентификатор кодека : XVID
Идентификатор кодека/Подсказка : XviD
Продолжительность : 45 м.
Битрейт : 1863 Кбит/сек
Ширина : 704 пикс.
Высота : 400 пикс.
Соотношение сторон : 16:9
Частота кадров : 25,000 кадр/сек
Цветовое пространство : YUV
Подвыборка цветности : 4:2:0
Битовая глубина : 8 бит
Тип развёртки : Прогрессивная
Метод сжатия : С потерями
Бит/(Пиксели*Кадры) : 0.265
Размер потока : 607 Мбайт (93%)
Библиотека кодирования : XviD 1.2.1 (UTC 2008-12-04)
Аудио
Идентификатор : 1
Формат : MPEG Audio
Версия формата : Version 1
Профиль формата : Layer 3
Идентификатор кодека : 55
Идентификатор кодека/Подсказка : MP3
Продолжительность : 45 м.
Вид битрейта : Постоянный
Битрейт : 128 Кбит/сек
Канал(ы) : 1 канал
Частота : 48,0 КГц
Метод сжатия : С потерями
Размер потока : 41,7 Мбайт (6%)
Выравнивание : Соединение по промежуткам
Продолжительность промежутка : 40 мс. (1,00 видеокадр)
Время предзагрузки промежутка : 504 ms
Download / Скачать

Хотите скачать бесплатно? Зарегистрируйтесь на сайте (ссылка на регистрацию). Pirat.ca - самый быстрый торрент трекер в рунете!

Как скачивать  ·   Что такое торрент  ·   Рейтинг и ограничения

Алёха

Флибустьер

Пост 04-Фев-2012 20:10 (спустя 18 дней)

[Q] 

Очень поучительно! Много я не знал.
[Профиль]  [ЛС] 

Ферзь

Корсар

Пост 16-Апр-2012 19:42 (спустя 2 месяца 11 дней)

[Q] 


_________________
[Профиль]  [ЛС] 

sergeev_igor1977

Морской Волк

Пост 24-Апр-2012 13:45 (спустя 7 дней)

[Q] 

кто смотрел как фильм???
[Профиль]  [ЛС] 

Юр.И.К.

43

Пост 19-Окт-2014 13:43 (спустя 2 года 5 месяцев)

[Q] 

Эй, вернитесь на раздачу...
[Профиль]  [ЛС] 
Показать сообщения:    
Ответить на тему

Текущее время: Сегодня 01:17

Часовой пояс: GMT + 4



Вы не можете начинать темы
Вы не можете отвечать на сообщения
Вы не можете редактировать свои сообщения
Вы не можете удалять свои сообщения
Вы не можете голосовать в опросах
Вы не можете прикреплять файлы к сообщениям
Вы не можете скачивать файлы

▼ Вниз