ML
     
  Уважаемый Гость!
Вы можете поддержать проект и зарегистрироваться у наших партнеров - онлайн-стратегия MyLands. При регистрации в игре Вы получите код, который сможете активировать после регистрации на pirat.ca и получить 1000 дублонов.

Ваш код:
062e2babcc491faeb40d496cf9a498ac3df6cdd0
 
     

Ходорковский / Khodorkovsky (Сирилл Туши / Cyril Tuschi) [2011 г., документальный, драма, биография, DVDRip] MVO [Лицензия]

Ответить на тему
 
Автор
Сообщение

Пост 18-Янв-2012 11:14

[Q] 

zyyx

--Ходорковский / Khodorkovsky-- Год выпуска: 2011
Мировая премьера: 14 февраля 2011
Российская премьера: 1 декабря 2011, «KinoClub»
Производство: Германия
Жанр: документальный, драма, биография
Продолжительность серии: 01:51:56
Перевод: Профессиональный (одноголосый, закадровый) [Лицензия]
Субтитры: Русские (неотключаемые)
Режиссер: Сирилл Туши / Cyril Tuschi
В ролях: Михаил Ходорковский, Павел Ходорковский, Марина Ходорковская, Елена Ходорковская, Антон Дрель, Йошка Фишер, Владимир Путин, Джордж У. Буш, Анатолий Чубайс, Григорий Явлинский
Описание: Документальный фильм о жизни нефтяного магната Михаила Ходорковского, прошедшего путь от комсомольского лидера до капиталиста и ставшего впоследствии самым известным узником России.
Источник/Качество: DVDRip | Сэмпл
Формат: AVI
Видео кодек: XviD
Аудио кодек: AC3
Видео: 720x336 (2.14:1), 25 fps, XviD build 47, 1545 kbps avg, 0.26 bit/pixel
Аудио: 48 kHz, AC3 Dolby Digital, 2/0 (L,R) ch, 192 kbps
General
Complete name : F:\Новая папка\Hodorkovskij.2011.O.DVDRip.avi
Format : AVI
Format/Info : Audio Video Interleave
File size : 1.37 GiB
Duration : 1h 51mn
Overall bit rate : 1 748 Kbps
Movie name : Hodorkovskij.2011.O.DVDRip
Writing application : VirtualDubMod 1.5.10.2 (build 2540/release)
Video
ID : 0
Format : MPEG-4 Visual
Format profile : [email protected]
Format settings, BVOP : Yes
Format settings, QPel : No
Format settings, GMC : No warppoints
Format settings, Matrix : Custom
Codec ID : XVID
Codec ID/Hint : XviD
Duration : 1h 51mn
Bit rate : 1 546 Kbps
Width : 720 pixels
Height : 336 pixels
Display aspect ratio : 2.2:1
Frame rate : 25.000 fps
Resolution : 24 bits
Colorimetry : 4:2:0
Scan type : Progressive
Bits/(Pixel*Frame) : 0.256
Stream size : 1.21 GiB (88%)
Writing library : XviD 1.2.0.dev47 (UTC 2006-11-01)
Audio
ID : 1
Format : AC-3
Format/Info : Audio Coding 3
Codec ID : 2000
Duration : 1h 51mn
Bit rate mode : Constant
Bit rate : 192 Kbps
Channel(s) : 2 channels
Channel positions : L R
Sampling rate : 48.0 KHz
Stream size : 154 MiB (11%)
Alignment : Split accross interleaves
Interleave, duration : 40 ms (1.00 video frame)
Interleave, preload duration : 500 ms
Download / Скачать

Хотите скачать бесплатно? Зарегистрируйтесь на сайте (ссылка на регистрацию). Pirat.ca - самый быстрый торрент трекер в рунете!

Как скачивать  ·   Что такое торрент  ·   Рейтинг и ограничения

Показать сообщения:    
Ответить на тему

Текущее время: Сегодня 17:41

Часовой пояс: GMT + 4



Вы не можете начинать темы
Вы не можете отвечать на сообщения
Вы не можете редактировать свои сообщения
Вы не можете удалять свои сообщения
Вы не можете голосовать в опросах
Вы не можете прикреплять файлы к сообщениям
Вы не можете скачивать файлы

▼ Вниз