ML
     
  Уважаемый Гость!
Вы можете поддержать проект и зарегистрироваться у наших партнеров - онлайн-стратегия MyLands. При регистрации в игре Вы получите код, который сможете активировать после регистрации на pirat.ca и получить 1000 дублонов.

Ваш код:
ec3b26eefbcdc72e08e9fd33c6846bb2ca10f8b1
 
     

Джеки Чан: Мои трюки / Jackie Chan: My Stunts [1999, Документальный, DVDRip]

Ответить на тему
 
Автор
Сообщение

Пост 17-Мар-2012 18:26

[Q] 

ribi

Джеки Чан: Мои трюки / Jackie Chan: My Stunts- Режиссер: Джеки Чан
Производство: Гонконг, The Jackie Chan Group, Media Asia Films
Год выпуска: 1999
Жанр: Документальный
Продолжительность: 01:33:21
Перевод: Двухголосый закадровый, профессиональный
Описание:
Успех таких хитов, как «Разборки в Бронксе», «Первый удар» и «Час пик» утвердил Джеки Чана как одного из самых популярных в мире актёров. Стиль исполнения им самим поставленных на экране трюков сделал его имя известным на всей планете. Теперь Джеки берёт Вас за кулисы, чтобы показать, как он совершенствует своё опасное ремесло. Впервые имеется возможность взглянуть изнутри на то, как Джеки и его команда ставят драки, падения, перестрелки, взрывы и авиакатастрофы и их последствия.

Участники: Джеки Чан, Кен Ло, Брэдли Джеймс Аллан, Энтони Карпио, Марс, Чунг Чи Ли, Роки Чунг, Энди Чэн, Даниэль Чау
Качество видео: DVDRip
Видеокодек: DivX 5
Видео: 720x544 (1.32:1), 29.970 fps, DivX Codec 6.8.2 ~1703 kbps avg, 0.14 bit/pixel
Аудио: 48 kHz, AC3 Dolby Digital, 3/2 (L,C,R,l,r) + LFE ch, ~384 kbps
Общее
Полное имя : D:Moi truki.avi
Формат : AVI
Формат/Информация : Audio Video Interleave
Размер файла : 1,37 Гбайт
Продолжительность : 1 ч. 33 м.
Общий поток : 2095 Кбит/сек
Программа кодирования : VirtualDubMod 1.5.4.1 (build 2178/release)
Библиотека кодирования : VirtualDubMod build 2178/release
Видео
Идентификатор : 0
Формат : MPEG-4 Visual
Параметр BVOP формата : 1
Параметр QPel формата : Нет
Параметр GMC формата : Без точки перехода
Параметр матрицы формата : Default (H.263)
Режим смешивания : Сжатый битовый поток
Идентификатор кодека : DX50
Идентификатор кодека/Подсказка : DivX 5
Продолжительность : 1 ч. 33 м.
Битрейт : 1703 Кбит/сек
Ширина : 720 пикселей
Высота : 544 пикселя
Соотношение сторон : 4:3
Частота кадров : 29,970 кадров/сек
Цветовое пространство : YUV
Субдискретизация насыщенности : 4:2:0
Битовая глубина : 8 бит
Тип развёртки : Прогрессивная
Метод сжатия : С потерями
Бит/(Пиксели*Кадры) : 0.145
Размер потока : 1,11 Гбайт (81%)
Библиотека кодирования : DivX 6.8.2 (UTC 2008-05-17)
Аудио
Идентификатор : 1
Формат : AC-3
Формат/Информация : Audio Coding 3
Расширение режима : CM (complete main)
Идентификатор кодека : 2000
Продолжительность : 1 ч. 33 м.
Вид битрейта : Постоянный
Битрейт : 384 Кбит/сек
Каналы : 6 каналов
Расположение каналов : Front: L C R, Side: L R, LFE
Частота : 48,0 КГц
Битовая глубина : 16 бит
Метод сжатия : С потерями
Размер потока : 256 Мбайт (18%)
Выравнивание : Разделение по промежуткам
Продолжительность промежутка : 96 мс. (2,88 видеокадра)
Время предзагрузки промежутка : 96 мс.
Язык : Russian
Download / Скачать

Хотите скачать бесплатно? Зарегистрируйтесь на сайте (ссылка на регистрацию). Pirat.ca - самый быстрый торрент трекер в рунете!

Как скачивать  ·   Что такое торрент  ·   Рейтинг и ограничения

Показать сообщения:    
Ответить на тему

Текущее время: Сегодня 03:49

Часовой пояс: GMT + 4



Вы не можете начинать темы
Вы не можете отвечать на сообщения
Вы не можете редактировать свои сообщения
Вы не можете удалять свои сообщения
Вы не можете голосовать в опросах
Вы не можете прикреплять файлы к сообщениям
Вы не можете скачивать файлы

▼ Вниз