ML
     
  Уважаемый Гость!
Вы можете поддержать проект и зарегистрироваться у наших партнеров - онлайн-стратегия MyLands. При регистрации в игре Вы получите код, который сможете активировать после регистрации на pirat.ca и получить 1000 дублонов.

Ваш код:
bb0cb47ee786a33f751af5a500dd264c9487bfac
 
     

Нострадамус - шарлатан или пророк? / Decoding Nostradamus (Брин Хигинс / Bryn Higgins, Кайл Джулиан / Kyle Julian) [2007 г., Документальный, SATRip] (VO)

Ответить на тему
 
Автор
Сообщение

Пост 01-Ноя-2011 18:45

[Q] 

Степаныч

Нострадамус - шарлатан или пророк?
Decoding Nostradamus
Год выпуска: 2007
Мировая премьера: 01.01.2007
Производство: США Discovery
Жанр: Документальный
Продолжительность: 01:26:00
Перевод: Профессиональный (одноголосый)
Режиссер: Брин Хигинс /Bryn Higgins, Кайл Джулиан /Kyle Julian
Описание: Он утверждал, что способность видеть будущее у него в крови. Он говорил, что в его семье у многих были видения, подобные тем, которые посещали его. Точность этих видений восхищала его адептов. Мишель де Нотрдам, известный как Нострадамус. Как этому человеку удалось стать знаменитейшим из провидцев? Какой была его эпоха? И почему его катрены до сих пор интригуют миллионы людей?
Источник/Качество: SATRip
Формат: AVI
Видео кодек: DivX
Аудио кодек: MPEG Audio
Видео: MPEG4, DivX 5, 720x576 (5/4), 25.000 fps, 780 Kbps (0.075 bit/pixel)
Аудио: PCM, 48.0 KHz, 2 ch, 1 536 Kbps, CBR
Формат : AVI
Формат/Информация : Audio Video Interleave
Размер файла : 1,41 Гбайт
Продолжительность : 1 ч. 26 м.
Общий поток : 2326 Кбит/сек
Библиотека кодирования : VirtualDub build 32842/release
Видео
Идентификатор : 0
Формат : MPEG-4 Visual
Параметр BVOP формата : 1
Параметр QPel формата : Нет
Параметр GMC формата : Без точки перехода
Параметр матрицы формата : Default (H.263)
Режим смешивания : Сжатый битовый поток
Идентификатор кодека : DX50
Идентификатор кодека/Подсказка : DivX 5
Продолжительность : 1 ч. 26 м.
Битрейт : 780 Кбит/сек
Ширина : 720 пикс.
Высота : 576 пикс.
Соотношение сторон : 5:4
Частота кадров : 25,000 кадр/сек
Стандарт вещания : PAL
Цветовое пространство : YUV
Подвыборка цветности : 4:2:0
Битовая глубина : 8 бит
Тип развёртки : Прогрессивная
Метод сжатия : С потерями
Бит/(Пиксели*Кадры) : 0.075
Размер потока : 484 Мбайт (34%)
Библиотека кодирования : DivX 6.8.5 (UTC 2009-08-20)
Аудио
Идентификатор : 1
Формат : PCM
Параметр Endianness формата : Little
Параметр Sign формата : Signed
Идентификатор кодека : 1
Идентификатор кодека/Подсказка : Microsoft
Продолжительность : 1 ч. 26 м.
Вид битрейта : Постоянный
Битрейт : 1536 Кбит/сек
Канал(ы) : 2 канала(ов)
Частота : 48,0 КГц
Битовая глубина : 16 бит
Размер потока : 952 Мбайт (66%)
Продолжительность промежутка : 40 мс. (1,00 видеокадр)
Время предзагрузки промежутка : 500 ms



Download / Скачать

Хотите скачать бесплатно? Зарегистрируйтесь на сайте (ссылка на регистрацию). Pirat.ca - самый быстрый торрент трекер в рунете!

Как скачивать  ·   Что такое торрент  ·   Рейтинг и ограничения



Последний раз редактировалось: Степаныч (2011-11-07 09:56), всего редактировалось 1 раз
Показать сообщения:    
Ответить на тему

Текущее время: Сегодня 02:18

Часовой пояс: GMT + 4



Вы не можете начинать темы
Вы не можете отвечать на сообщения
Вы не можете редактировать свои сообщения
Вы не можете удалять свои сообщения
Вы не можете голосовать в опросах
Вы не можете прикреплять файлы к сообщениям
Вы не можете скачивать файлы

▼ Вниз