ML
     
  Уважаемый Гость!
Вы можете поддержать проект и зарегистрироваться у наших партнеров - онлайн-стратегия MyLands. При регистрации в игре Вы получите код, который сможете активировать после регистрации на pirat.ca и получить 1000 дублонов.

Ваш код:
156f85568ae63e45e07ac461c96a83ba1a876b0a
 
     

Врач из Освенцима (Автор и ведуший Леонид Млечин) [2008 г., Документальный, TVRip]

Ответить на тему
 
Автор
Сообщение

Пост 02-Ноя-2011 19:22

[Q] 

Степаныч

Врач из Освенцима
Год выпуска: 2008
Производство: Россия
Жанр: Документальный
Продолжительность: 00:38:55
Автор и ведущий: Леонид Млечин
Текст читают: Любовь Германова и Александр Клюквин
Описание: Подлинная история одного из главных нацистских преступников - доктора Йозефа Менгеле.
За 21 месяц своей работы в Освенциме он заработал репутацию одного из самых опасных нацистов, получил кличку доктор Ужас. Он лично встречал поезда узников, приезжавших в лагерь, сам решал, кому из них предстоит работать в лагере, кто пойдёт на его опыты, а кто отправится в газовую камеру.
Особый интерес доктора вызывали близнецы. Из 3 тысяч близнецов выжили только 300. Опыты Менгеле противоречили медицинской этике и человеческой морали. Среди них были попытки изменить цвет глаз ребёнка впрыскиванием различных химикатов в глаза, ампутации органов, попытки сшить вместе близнецов и другие бесчеловечные операции. Люди, оставшиеся в живых после этих опытов, умерщвлялись.
Почти 35 лет Менгеле скрывался от преследований, несколько раз "охотники за нацистами" и израильские спецслужбы были очень близки к его обнаружению. Его могила была найдена только в 1985 году, и лишь в 1992 году было окончательно доказано, что в ней лежат именно его останки.
В США выставлен на аукцион дневник "ангела смерти", главного врача концлагеря Освенцим Йозефа Менгеле, который использовал заключенных для опытов и, по некоторым данным, причастен к смерти 400 тысяч человек.Дневник относится к 60-м годам XX века, когда бежавший из Германии Менгеле уже проживал в Аргентине. Для записей Менгеле, который неоднократно ставил опыты над детьми, в том числе сшивал близнецов, использовал детскую тетрадку.В большинстве своем дневниковые записи бытовые и рутинные, в них нет ничего ярко выраженного, что, однако придает им еще более мрачный характер, учитывая преступления, которые совершил автор дневника.Менгеле, в частности, сообщает, что охотно читает "Доктора Живаго" Бориса Пастернака и как было интересно наблюдать за обезьянами в лесу. В другом месте он составляет рейтинг стран, отмечая, что Германия превосходит другие государства своей "лиричностью".Тем не менее, ряд записей свидетельствуют о том, что Менгеле не отказался от своих взглядов. Так, он замечает, что женщины с плохим генотипом должны быть стерилизованы, а "недоразвитые" люди уничтожены, пишет Lenta
Источник/Качество: TVRip
Формат: AVI
Видео кодек: XviD
Аудио кодек: MP3
Видео: MPEG4, XviD, 720x552 (4/3), 25.000 fps, 1 999 Kbps (0.201 bit/pixel)
Аудио: MP3, 48.0 KHz, 2 ch, 128 Kbps, CBR
Формат : AVI
Формат/Информация : Audio Video Interleave
Размер файла : 595 Мбайт
Продолжительность : 38 м.
Общий поток : 2136 Кбит/сек
Программа кодирования : VirtualDubMod 1.5.10.2 (build 2540/release)
Библиотека кодирования : VirtualDubMod build 2540/release
Видео
Идентификатор : 0
Формат : MPEG-4 Visual
Профиль формата : Advanced [email protected]
Параметр BVOP формата : 1
Параметр QPel формата : Нет
Параметр GMC формата : Без точки перехода
Параметр матрицы формата : Default (H.263)
Режим смешивания : Сжатый битовый поток
Идентификатор кодека : XVID
Идентификатор кодека/Подсказка : XviD
Продолжительность : 38 м.
Битрейт : 1999 Кбит/сек
Ширина : 720 пикс.
Высота : 552 пикс.
Соотношение сторон : 4:3
Частота кадров : 25,000 кадр/сек
Цветовое пространство : YUV
Подвыборка цветности : 4:2:0
Битовая глубина : 8 бит
Тип развёртки : Прогрессивная
Метод сжатия : С потерями
Бит/(Пиксели*Кадры) : 0.201
Размер потока : 556 Мбайт (94%)
Библиотека кодирования : XviD 1.2.0.dev47 (UTC 2006-11-01)
Аудио
Идентификатор : 1
Формат : MPEG Audio
Версия формата : Version 1
Профиль формата : Layer 3
Идентификатор кодека : 55
Идентификатор кодека/Подсказка : MP3
Продолжительность : 38 м.
Вид битрейта : Постоянный
Битрейт : 128 Кбит/сек
Канал(ы) : 2 канала(ов)
Частота : 48,0 КГц
Метод сжатия : С потерями
Размер потока : 35,6 Мбайт (6%)
Выравнивание : Соединение по промежуткам
Продолжительность промежутка : 40 мс. (1,00 видеокадр)
Время предзагрузки промежутка : 504 ms
Библиотека кодирования : LAME3.97
Настройки программы : -m s -V 4 -q 2 -lowpass 17 -b 128



Download / Скачать

Хотите скачать бесплатно? Зарегистрируйтесь на сайте (ссылка на регистрацию). Pirat.ca - самый быстрый торрент трекер в рунете!

Как скачивать  ·   Что такое торрент  ·   Рейтинг и ограничения



Последний раз редактировалось: Степаныч (2011-11-07 09:53), всего редактировалось 1 раз
Показать сообщения:    
Ответить на тему

Текущее время: Сегодня 22:02

Часовой пояс: GMT + 4



Вы не можете начинать темы
Вы не можете отвечать на сообщения
Вы не можете редактировать свои сообщения
Вы не можете удалять свои сообщения
Вы не можете голосовать в опросах
Вы не можете прикреплять файлы к сообщениям
Вы не можете скачивать файлы

▼ Вниз