ML
     
  Уважаемый Гость!
Вы можете поддержать проект и зарегистрироваться у наших партнеров - онлайн-стратегия MyLands. При регистрации в игре Вы получите код, который сможете активировать после регистрации на pirat.ca и получить 1000 дублонов.

Ваш код:
bc31d8aef74c92e19ad67e34a8fa63c3b9b812fb
 
     

Кличко / Klitschko (Себастьян Денхардт / Sebastian Dehnhardt) [2011 г., документальный, биография, спорт, HDRip] (MVO)

Ответить на тему
 
Автор
Сообщение

Пост 19-Ноя-2011 13:35

[Q] 

zyyx

--Кличко / Klitschko
«Fighters. Champions. Brothers.»
-- Год выпуска: 2011
Мировая премьера: 16 июня 2011
Производство: Германия
Жанр: документальный, биография, спорт
Продолжительность: 01:57:00
Перевод: Профессиональный (многоголосый, закадровый) [Лицензия]
Режиссер: Себастьян Денхардт / Sebastian Dehnhardt
В ролях: Виталий Кличко, Владимир Кличко, Fritz Sdunek, Эмануэл Стюарт, Lamon Brewster, Крис Бёрд, Bernd Bönte, Др. Перлман Хикс, Дон Кинг, Nadeshda Uljanowna Klitschko
Описание: Это подробная и глубокая картина о жизни украинских боксеров, материалы для которой собирались в течение двух лет. По словам самих спортсменов, это «материалы из разных уголков планеты, тех мест, которые очень важны для нас». География съемок, которые начались еще в 2008 году, большая — от Украины и Казахстана в США. В фильм вошли интервью с братьями, их родными и друзьями, коллегами и единомышленниками, уникальные кадры из домашнего архива.-IMDB | КиноПоиск-Источник/Качество: HDRip
Формат: AVI
Видео кодек: XviD
Аудио кодек: AC3
Видео: 720x400 (1.80:1), 25 fps, XviD build 50 ~1233 kbps avg, 0.17 bit/pixel
Аудио: AC3 Dolby Digital, 3/2 (L,C,R,l,r) + LFE ch, ~448 kbps
Общее
Полное имя : F:\pirat.ca\Klitschko.2011.XviD.HDRip.1400MB.avi
Формат : AVI
Формат/Информация : Audio Video Interleave
Размер файла : 1,38 Гбайт
Продолжительность : 1 ч. 57 м.
Общий поток : 1683 Кбит/сек
Программа кодирования : VirtualDubMod 1.5.10.3 | www.virtualdub-fr.org || (build 2550/release)
Библиотека кодирования : VirtualDubMod build 2550/release
Видео
Идентификатор : 0
Формат : MPEG-4 Visual
Профиль формата : Advanced [email protected]
Параметр BVOP формата : 1
Параметр QPel формата : Нет
Параметр GMC формата : Без точки перехода
Параметр матрицы формата : Default (H.263)
Идентификатор кодека : XVID
Идентификатор кодека/Подсказка : XviD
Продолжительность : 1 ч. 57 м.
Битрейт : 1234 Кбит/сек
Ширина : 720 пикселей
Высота : 400 пикселей
Соотношение сторон : 16:9
Частота кадров : 25,000 кадров/сек
Цветовое пространство : YUV
Субдискретизация насыщенности : 4:2:0
Битовая глубина : 8 бит
Тип развёртки : Прогрессивная
Метод сжатия : С потерями
Бит/(Пиксели*Кадры) : 0.171
Размер потока : 1,01 Гбайт (73%)
Библиотека кодирования : XviD 1.2.1 (UTC 2008-12-04)
Аудио
Идентификатор : 1
Формат : AC-3
Формат/Информация : Audio Coding 3
Расширение режима : CM (complete main)
Идентификатор кодека : 2000
Продолжительность : 1 ч. 54 м.
Вид битрейта : Постоянный
Битрейт : 448 Кбит/сек
Каналы : 6 каналов
Расположение каналов : Front: L C R, Side: L R, LFE
Частота : 48,0 КГц
Битовая глубина : 16 бит
Метод сжатия : С потерями
Размер потока : 368 Мбайт (26%)
Выравнивание : Разделение по промежуткам
Продолжительность промежутка : 41 мс. (1,02 видеокадр)
Время предзагрузки промежутка : 500 мс.


Download / Скачать

Хотите скачать бесплатно? Зарегистрируйтесь на сайте (ссылка на регистрацию). Pirat.ca - самый быстрый торрент трекер в рунете!

Как скачивать  ·   Что такое торрент  ·   Рейтинг и ограничения

Хока34

Морской Волк

Пост 19-Ноя-2011 15:49 (спустя 2 часа 14 минут)

[Q] 

СПАСИБИЩЕ!!! РАЗДАЮЩЕМУ РЕСПЕКТ!!!
[Профиль]  [ЛС] 

Djsneg

Лоцман

Пост 25-Дек-2011 23:20 (спустя 1 месяц 6 дней)

[Q] 

Спасибо большое
[Профиль]  [ЛС] 

sklyaruk79

Штурман

Пост 17-Янв-2012 12:24 (спустя 22 дня)

[Q] 

спасибо за скорость db
[Профиль]  [ЛС] 
Показать сообщения:    
Ответить на тему

Текущее время: Сегодня 12:01

Часовой пояс: GMT + 4



Вы не можете начинать темы
Вы не можете отвечать на сообщения
Вы не можете редактировать свои сообщения
Вы не можете удалять свои сообщения
Вы не можете голосовать в опросах
Вы не можете прикреплять файлы к сообщениям
Вы не можете скачивать файлы

▼ Вниз