ML
     
  Уважаемый Гость!
Вы можете поддержать проект и зарегистрироваться у наших партнеров - онлайн-стратегия MyLands. При регистрации в игре Вы получите код, который сможете активировать после регистрации на pirat.ca и получить 1000 дублонов.

Ваш код:
ec3b26eefbcdc72e08e9fd33c6846bb2ca10f8b1
 
     

Михаил Задорнов - Без цензуры (Даутком ТВ) [2010 г.] (Передача) [TVRip] (полная версия)

Ответить на тему
 
Автор
Сообщение

Пост 21-Ноя-2011 08:41

[Q] 

dsfas

Корсар

Михаил Задорнов - Без цензуры - полная версия
Год выпуска: 2010
Производство: Даутком ТВ
Жанр: Передача
Продолжительность: 1 ч. 48 м.
Оригинальный аудиопоток: Русский
Описание: Михаил Задорнов 1-й раз в передаче "Без цензуры" с Андреем Мамыкиным на канале "Даутком ТВ" (Латвия) 30-го января 2010 года.
Источник/Качество: TVRip
Формат: MP4
Видео кодек: AVC1
Аудио кодек: AAC
Видео: 320х240, 843 Кбит/сек(макс), 25 fps, 4:3.
Аудио: Russian, 96.0 Кбит/сек, Stereo(LR), 44,1 КГц.
Общее
Формат : MPEG-4
Профиль формата : Base Media / Version 2
Идентификатор кодека : mp42
Размер файла : 258 Мбайт
Продолжительность : 1 ч. 48 м.
Режим общего битрейта : Переменный
Общий поток : 334 Кбит/сек
Видео
Идентификатор : 1
Формат : AVC
Формат/Информация : Advanced Video Codec
Профиль формата : [email protected]
Параметр CABAC формата : Нет
Параметр ReFrames формата : 1 кадр
Идентификатор кодека : avc1
Идентификатор кодека/Информация : Advanced Video Coding
Продолжительность : 1 ч. 48 м.
Битрейт : 234 Кбит/сек
Максимальный битрейт : 843 Кбит/сек
Ширина : 320 пикселей
Высота : 240 пикселей
Соотношение сторон : 4:3
Режим частоты кадров : Постоянный
Частота кадров : 25,000 кадров/сек
Цветовое пространство : YUV
Субдискретизация насыщенности : 4:2:0
Битовая глубина : 8 бит
Тип развёртки : Прогрессивная
Бит/(Пиксели*Кадры) : 0.122
Размер потока : 181 Мбайт (70%)
Аудио
Идентификатор : 2
Формат : AAC
Формат/Информация : Advanced Audio Codec
Профиль формата : LC
Идентификатор кодека : 40
Продолжительность : 1 ч. 48 м.
Вид битрейта : Переменный
Битрейт : 96,0 Кбит/сек
Максимальный битрейт : 161 Кбит/сек
Каналы : 2 канала
Расположение каналов : Front: L R
Частота : 44,1 КГц
Метод сжатия : С потерями
Размер потока : 74,2 Мбайт (29%)




Download / Скачать

Хотите скачать бесплатно? Зарегистрируйтесь на сайте (ссылка на регистрацию). Pirat.ca - самый быстрый торрент трекер в рунете!

Как скачивать  ·   Что такое торрент  ·   Рейтинг и ограничения



Последний раз редактировалось: dsfas (2011-11-22 07:25), всего редактировалось 1 раз

dsfas ®

Корсар

313

Пост 21-Ноя-2011 18:11 (спустя 9 часов)

[Q] 

Кто посмотрел? Отпишитесь!

_________________
[Профиль]  [ЛС] 

stick777

Лоцман

Пост 20-Дек-2011 08:26 (спустя 28 дней)

[Q] 

раздайте кто может
[Профиль]  [ЛС] 

dsfas ®

Корсар

313

Пост 22-Дек-2011 10:55 (спустя 2 дня 2 часа)

[Q] 

До дому дойду - встану на раздачу.

_________________
[Профиль]  [ЛС] 

астролог

Морской Волк

Пост 19-Янв-2012 02:52 (спустя 27 дней)

[Q] 

круто
[Профиль]  [ЛС] 

dsfas ®

Корсар

313

Пост 27-Янв-2012 17:09 (спустя 8 дней)

[Q] 

uc4o 6bI )

_________________
[Профиль]  [ЛС] 

luka444

Корсар

Пост 26-Фев-2013 18:36 (спустя 1 год)

[Q] 

[Профиль]  [ЛС] 
Показать сообщения:    
Ответить на тему

Текущее время: Сегодня 03:50

Часовой пояс: GMT + 4



Вы не можете начинать темы
Вы не можете отвечать на сообщения
Вы не можете редактировать свои сообщения
Вы не можете удалять свои сообщения
Вы не можете голосовать в опросах
Вы не можете прикреплять файлы к сообщениям
Вы не можете скачивать файлы

▼ Вниз