ML
     
  Уважаемый Гость!
Вы можете поддержать проект и зарегистрироваться у наших партнеров - онлайн-стратегия MyLands. При регистрации в игре Вы получите код, который сможете активировать после регистрации на pirat.ca и получить 1000 дублонов.

Ваш код:
062e2babcc491faeb40d496cf9a498ac3df6cdd0
 
     

Ходорковский / Khodorkovsky (Кирилл Туши) [2011 г., Документальный, драма, биография, DVDRip-AVC] (Original)

Ответить на тему
 
Автор
Сообщение

Пост 29-Ноя-2011 14:26

[Q] 

tolkabusiness

Морской Волк

Ходорковский / Khodorkovsky
Год выпуска: 2011
Мировая премьера: 2011
Российская премьера: 1 декабря 2011
Производство: Германия
Жанр: Документальный, драма, биография
Продолжительность: 01:52:01
Перевод: Original
Оригинальный аудиопоток: Английский
Режиссер: Кирилл Туши
Описание: Уникальный релиз, который включает в себя биографические моменты известного нефтяного магната Михаила Ходорковского. На Берлинском кинофестивале фильм произвел настоящий фурор! Фильм рассказывает о жизни от рождения в семье инженера до заключения под стражу уже, будучи олигархом.
Премьера в России намечена на 1 декабря.
Источник/Качество: DVDRip-AVC
Видео кодек: H.26x
Аудио кодек: AAC
Видео: MPEG-4 AVC/H.264, 640 х 356, ~440 Kbps, 25.000 fps
Аудио: AAC, 128 Kbps, 44.1 KHz, 2 ch
Видео
Идентификатор : 1
Формат : AVC
Формат/Информация : Advanced Video Codec
Профиль формата : [email protected]
Параметр CABAC формата : Нет
Параметр ReFrames формата : 1 кадр
Идентификатор кодека : avc1
Идентификатор кодека/Информация : Advanced Video Coding
Продолжительность : 1 ч. 52 м.
Вид битрейта : Переменный
Битрейт : 440 Кбит/сек
Ширина : 640 пикселей
Высота : 356 пикселей
Соотношение сторон : 16:9
Режим частоты кадров : Переменный
Частота кадров : 24,967 кадров/сек
Частота кадров в оригинале : 25,000 кадров/сек
Минимальная частота кадров : 12,500 кадров/сек
Максимальная частота кадров : 25,000 кадров/сек
Цветовое пространство : YUV
Субдискретизация насыщенности : 4:2:0
Битовая глубина : 8 бит
Тип развёртки : Прогрессивная
Бит/(Пиксели*Кадры) : 0.077
Размер потока : 348 Мбайт (77%)
Библиотека кодирования : x264 core 79
Настройки программы : cabac=0 / ref=1 / deblock=1:0:0 / analyse=0x1:0x131 / me=tesa / subme=9 / psy=1 / psy_rd=1.0:0.0 / mixed_ref=0 / me_range=24 / chroma_me=1 / trellis=0 / 8x8dct=0 / cqm=0 / deadzone=21,11 / chroma_qp_offset=-2 / threads=24 / nr=0 / decimate=1 / mbaff=0 / constrained_intra=0 / bframes=0 / wpredp=0 / keyint=250 / keyint_min=25 / scenecut=40 / rc_lookahead=40 / rc=cbr / mbtree=1 / bitrate=440 / ratetol=9.1 / qcomp=0.60 / qpmin=10 / qpmax=51 / qpstep=4 / vbv_maxrate=10000 / vbv_bufsize=10000 / ip_ratio=1.41 / aq=1:1.00
Аудио
Идентификатор : 2
Формат : AAC
Формат/Информация : Advanced Audio Codec
Профиль формата : LC
Идентификатор кодека : 40
Продолжительность : 1 ч. 52 м.
Вид битрейта : Переменный
Битрейт : 128 Кбит/сек
Каналы : 2 канала
Расположение каналов : Front: L R
Частота : 44,1 КГц
Метод сжатия : С потерями
Размер потока : 102 Мбайт (23%)
Download / Скачать

Хотите скачать бесплатно? Зарегистрируйтесь на сайте (ссылка на регистрацию). Pirat.ca - самый быстрый торрент трекер в рунете!

Как скачивать  ·   Что такое торрент  ·   Рейтинг и ограничения



Последний раз редактировалось: tolkabusiness (2011-12-01 10:45), всего редактировалось 2 раз(а)

black phantom

Штурман

Пост 29-Ноя-2011 20:12 (спустя 5 часов)

[Q] 

Автор красава, я ждал этот фильм, спасибо тебе дружище :)
[Профиль]  [ЛС] 

saturn77777444

Лоцман

Пост 06-Дек-2011 23:31 (спустя 7 дней)

[Q] 

Спасибо.Респект.
[Профиль]  [ЛС] 

Nieme

Лоцман

Пост 07-Дек-2011 20:40 (спустя 21 час)

[Q] 

Спасибо огромное! Но нельзя ли в раздачу добавить перевод? Очень хочется посмотреть. Даже в кинотеатр в Москве очень сложно попасть - все билеты раскупаются мгновенно...
[Профиль]  [ЛС] 

Spartak10

Лоцман

Пост 08-Дек-2011 18:38 (спустя 21 час)

[Q] 

Спасибо огромное! Очень ждал!
[Профиль]  [ЛС] 
Показать сообщения:    
Ответить на тему

Текущее время: Сегодня 17:44

Часовой пояс: GMT + 4



Вы не можете начинать темы
Вы не можете отвечать на сообщения
Вы не можете редактировать свои сообщения
Вы не можете удалять свои сообщения
Вы не можете голосовать в опросах
Вы не можете прикреплять файлы к сообщениям
Вы не можете скачивать файлы

▼ Вниз