ML
     
  Уважаемый Гость!
Вы можете поддержать проект и зарегистрироваться у наших партнеров - онлайн-стратегия MyLands. При регистрации в игре Вы получите код, который сможете активировать после регистрации на pirat.ca и получить 1000 дублонов.

Ваш код:
1a5b0a965618b2c406d4279ec9924ee6282c60cf
 
     

Никита Хрущев. Голос из прошлого (Фильм 1-ый-4-ый)(Телекомпания: Первый канал) [2012 г., Документальный, SATRip]AVO

Ответить на тему
 
Автор
Сообщение

Пост 19-Май-2012 06:17

[Q] 

pavel1

Штурман

Никита Хрущев. Голос из прошлого (1-4 серии)
Год выпуска: 2012
Производство: Россия
Жанр: Документальный
Продолжительность серии: 4х00:47:57
Перевод: Авторский (одноголосый, закадровый)
Субтитры: русские
Режиссер: Телекомпания: Первый канал
Никита Хрущев.Путь к власти.( Фильм 1-ый)
Описание: Первый фильм охватывает примерно полувековой период жизни страны.
Сам Хрущев расскажет зрителю о своей жизни с рождения до ставшего переломным события - смерти Иосифа Сталина. Никита Сергеевич расскажет о своeм детстве и юности, мечтах стать инженером, восхищении Сталиным и о том поворотном моменте, благодаря которому, он окажется на самой вершине власти. Хрущев объяснит свою роль во время репрессий 1930-х, расскажет о малоизвестных эпизодах Отечественной войны и о последних годах жизни Сталина.
Страницы истории, пропущенные через личностную оценку бывшего лидера СССР, приобретают совершенно новую трактовку, дают возможность по-новому переосмыслить ключевые моменты развития страны.
Никита Хрущев.Холодная война Никиты Хрущева ( Фильм 2-ой)
Описание:Одним из самых тяжелых и страшных своей непредсказуемостью периодов новейшей истории является эпоха "холодной войны".
Не раз политические и военные игры лидеров наиболее сильных стран приводили весь мир на грань Третьей мировой войны.
Во втором фильме четырехсерийного проекта "Никита Хрущев. Голос из прошлого", сам Хрущев расскажет зрителям Первого канала об англо-американских планах атомного удара по СССР, Суэцком кризис 1956 года, о своeм путешествии в Америку в 1959 году, проблемах с "братским" Китаем, инциденте с американским самолeтом-разведчиком У-2 в 1960 году и о "Берлинском" и "Карибском" кризисах.
Трактовка всех этих событий периода "холодной войны" впервые будет дана голосом того человека, от решений которого зависели судьбы миллионов людей нашей планеты.
Никита Хрущев.Большие надежды. ( Фильм 3-ий)
Описание:В третьем фильме - "Большие надежды" - Никита Сергеевич Хрущев расскажет о смерти Сталина, свержении Берии, о том, как и почему именно он (Хрущев) пришел к власти. Бывший лидер страны расскажет и объяснит подоплеку многих знаковых решений и реформ периода его правления. Речь пойдет о сельском хозяйстве (в том числе "поднятии целины" и массовых посевов кукурузы), о строительстве панельных домов (вошедших в историю как "хрущевки"), о реформах в армии, восстании в Венгрии, попытке государственного переворота в СССР в 1957 году. Впервые непосредственно из первых уст можно будет услышать, почему Никита Сергеевич Хрущев принял решение выступить на ХХ съезде партии с рассказом о преступлениях Сталина и осуждением его культа личности.
( Фильм 4-ый)
Описание: Бывший лидер страны расскажет и объяснит подоплеку многих знаковых решений и реформ периода его правления.
Заговор преданных соратников в 1964 году приведет к отставке Хрущева и полному забвению его имени и роли в истории страны
В заключительном фильме четырехсерийного проекта "Никита Хрущев. Голос из прошлого" речь пойдет о реформах и политических действиях, которые, в конце концов, и привели к отставке Хрущева.
Никита Сергеевич расскажет о периоде, который у нас называют "оттепель", о тех проблемах, которые сложились в стране на исходе десятилетия правления Хрущева, о необходимости реформ (задуманных, но так и не осуществленных Хрущевым) в политической, экономической, социальных сферах.
Заговор преданных соратников в 1964 году приведет к отставке Хрущева и полному забвению его имени и роли в истории страны. Но чудом сохранившиеся магнитофонные записи и любительские съемки из семейного архива, позволяют узнать зрителям, как прошли последние, пенсионные годы жизни Никиты Сергеевича Хрущева – одного из самых ярких и неоднозначных лидеров страны, которого так и не удалось вычеркнуть из истории…
Источник/Качество: SATRip
Формат: AVI
Видео кодек: XviD
Аудио кодек: MP3
Видео: 720x400 (1.80:1), 25 fps, XviD MPEG-4 ~1494 kbps avg, 0.21 bit/pixel
Аудио: 48 kHz, MPEG Layer 3, 2 ch, ~128.00 kbps avg
Общее
Полное имя : E:\Film\Nikita.Hruwev.Golos.iz.proshlogo.(1).SATRip_[pirat.ca].avi\Nikita.Hruwev.Golos.iz.proshlogo.(1).SATRip.avi
Формат : AVI
Формат/Информация : Audio Video Interleave
Размер файла : 560 Мбайт
Продолжительность : 47 м.
Общий поток : 1633 Кбит/сек
Библиотека кодирования : VirtualDub build 32842/release
Видео
Идентификатор : 0
Формат : MPEG-4 Visual
Профиль формата : Advanced [email protected]
Параметр BVOP формата : 2
Параметр QPel формата : Нет
Параметр GMC формата : Без точки перехода
Параметр матрицы формата : Default (H.263)
Режим смешивания : Сжатый битовый поток
Идентификатор кодека : XVID
Идентификатор кодека/Подсказка : XviD
Продолжительность : 47 м.
Битрейт : 1495 Кбит/сек
Ширина : 720 пикселей
Высота : 400 пикселей
Соотношение сторон : 16:9
Частота кадров : 25,000 кадров/сек
Цветовое пространство : YUV
Субдискретизация насыщенности : 4:2:0
Битовая глубина : 8 бит
Тип развёртки : Прогрессивная
Метод сжатия : С потерями
Бит/(Пиксели*Кадры) : 0.208
Размер потока : 513 Мбайт (92%)
Библиотека кодирования : XviD 1.2.1 (UTC 2008-12-04)
Аудио
Идентификатор : 1
Формат : MPEG Audio
Версия формата : Version 1
Профиль формата : Layer 3
Режим : Joint stereo
Расширение режима : MS Stereo
Идентификатор кодека : 55
Идентификатор кодека/Подсказка : MP3
Продолжительность : 47 м.
Вид битрейта : Постоянный
Битрейт : 128 Кбит/сек
Каналы : 2 канала
Частота : 48,0 КГц
Метод сжатия : С потерями
Размер потока : 43,9 Мбайт (8%)
Выравнивание : Разделение по промежуткам
Продолжительность промежутка : 40 мс. (1,00 видеокадр)
Время предзагрузки промежутка : 500 мс.
Общее
Полное имя : E:\Film\Nikita.Hruwev.Golos.iz.proshlogo.(1).SATRip_[pirat.ca].avi\Nikita.Hruwev.Golos.iz.proshlogo.(2).SATRip.avi
Формат : AVI
Формат/Информация : Audio Video Interleave
Размер файла : 563 Мбайт
Продолжительность : 48 м.
Общий поток : 1633 Кбит/сек
Библиотека кодирования : VirtualDub build 32842/release
Видео
Идентификатор : 0
Формат : MPEG-4 Visual
Профиль формата : Advanced [email protected]
Параметр BVOP формата : 2
Параметр QPel формата : Нет
Параметр GMC формата : Без точки перехода
Параметр матрицы формата : Default (H.263)
Режим смешивания : Сжатый битовый поток
Идентификатор кодека : XVID
Идентификатор кодека/Подсказка : XviD
Продолжительность : 48 м.
Битрейт : 1495 Кбит/сек
Ширина : 720 пикселей
Высота : 400 пикселей
Соотношение сторон : 16:9
Частота кадров : 25,000 кадров/сек
Цветовое пространство : YUV
Субдискретизация насыщенности : 4:2:0
Битовая глубина : 8 бит
Тип развёртки : Прогрессивная
Метод сжатия : С потерями
Бит/(Пиксели*Кадры) : 0.208
Размер потока : 516 Мбайт (92%)
Библиотека кодирования : XviD 1.2.1 (UTC 2008-12-04)
Аудио
Идентификатор : 1
Формат : MPEG Audio
Версия формата : Version 1
Профиль формата : Layer 3
Режим : Joint stereo
Расширение режима : MS Stereo
Идентификатор кодека : 55
Идентификатор кодека/Подсказка : MP3
Продолжительность : 48 м.
Вид битрейта : Постоянный
Битрейт : 128 Кбит/сек
Каналы : 2 канала
Частота : 48,0 КГц
Метод сжатия : С потерями
Размер потока : 44,2 Мбайт (8%)
Выравнивание : Разделение по промежуткам
Продолжительность промежутка : 40 мс. (1,00 видеокадр)
Время предзагрузки промежутка : 500 мс.
Общее
Полное имя : E:\Film\Nikita.Hruwev.Golos.iz.proshlogo.(1).SATRip_[pirat.ca].avi\Nikita.Hruwev.Golos.iz.proshlogo.(3).SATRip.avi
Формат : AVI
Формат/Информация : Audio Video Interleave
Размер файла : 539 Мбайт
Продолжительность : 46 м.
Общий поток : 1633 Кбит/сек
Библиотека кодирования : VirtualDub build 32842/release
Видео
Идентификатор : 0
Формат : MPEG-4 Visual
Профиль формата : Advanced [email protected]
Параметр BVOP формата : 2
Параметр QPel формата : Нет
Параметр GMC формата : Без точки перехода
Параметр матрицы формата : Default (H.263)
Режим смешивания : Сжатый битовый поток
Идентификатор кодека : XVID
Идентификатор кодека/Подсказка : XviD
Продолжительность : 46 м.
Битрейт : 1495 Кбит/сек
Ширина : 720 пикселей
Высота : 400 пикселей
Соотношение сторон : 16:9
Частота кадров : 25,000 кадров/сек
Цветовое пространство : YUV
Субдискретизация насыщенности : 4:2:0
Битовая глубина : 8 бит
Тип развёртки : Прогрессивная
Метод сжатия : С потерями
Бит/(Пиксели*Кадры) : 0.208
Размер потока : 494 Мбайт (92%)
Библиотека кодирования : XviD 1.2.1 (UTC 2008-12-04)
Аудио
Идентификатор : 1
Формат : MPEG Audio
Версия формата : Version 1
Профиль формата : Layer 3
Режим : Joint stereo
Расширение режима : MS Stereo
Идентификатор кодека : 55
Идентификатор кодека/Подсказка : MP3
Продолжительность : 46 м.
Вид битрейта : Постоянный
Битрейт : 128 Кбит/сек
Каналы : 2 канала
Частота : 48,0 КГц
Метод сжатия : С потерями
Размер потока : 42,3 Мбайт (8%)
Выравнивание : Разделение по промежуткам
Продолжительность промежутка : 40 мс. (1,00 видеокадр)
Время предзагрузки промежутка : 500 мс.
Общее
Полное имя : E:\Film\Nikita.Hruwev.Golos.iz.proshlogo.(1).SATRip_[pirat.ca].avi\Nikita.Hruwev.Golos.iz.proshlogo.(4).SATRip.avi
Формат : AVI
Формат/Информация : Audio Video Interleave
Размер файла : 562 Мбайт
Продолжительность : 48 м.
Общий поток : 1633 Кбит/сек
Библиотека кодирования : VirtualDub build 32842/release
Видео
Идентификатор : 0
Формат : MPEG-4 Visual
Профиль формата : Advanced [email protected]
Параметр BVOP формата : 2
Параметр QPel формата : Нет
Параметр GMC формата : Без точки перехода
Параметр матрицы формата : Default (H.263)
Режим смешивания : Сжатый битовый поток
Идентификатор кодека : XVID
Идентификатор кодека/Подсказка : XviD
Продолжительность : 48 м.
Битрейт : 1495 Кбит/сек
Ширина : 720 пикселей
Высота : 400 пикселей
Соотношение сторон : 16:9
Частота кадров : 25,000 кадров/сек
Цветовое пространство : YUV
Субдискретизация насыщенности : 4:2:0
Битовая глубина : 8 бит
Тип развёртки : Прогрессивная
Метод сжатия : С потерями
Бит/(Пиксели*Кадры) : 0.208
Размер потока : 514 Мбайт (92%)
Библиотека кодирования : XviD 1.2.1 (UTC 2008-12-04)
Аудио
Идентификатор : 1
Формат : MPEG Audio
Версия формата : Version 1
Профиль формата : Layer 3
Режим : Joint stereo
Расширение режима : MS Stereo
Идентификатор кодека : 55
Идентификатор кодека/Подсказка : MP3
Продолжительность : 48 м.
Вид битрейта : Постоянный
Битрейт : 128 Кбит/сек
Каналы : 2 канала
Частота : 48,0 КГц
Метод сжатия : С потерями
Размер потока : 44,0 Мбайт (8%)
Выравнивание : Разделение по промежуткам
Продолжительность промежутка : 40 мс. (1,00 видеокадр)
Время предзагрузки промежутка : 500 мс.
7.06.12. Добавлен фильм 4-ый, перекачайте торрент файл.
Download / Скачать

Хотите скачать бесплатно? Зарегистрируйтесь на сайте (ссылка на регистрацию). Pirat.ca - самый быстрый торрент трекер в рунете!

Как скачивать  ·   Что такое торрент  ·   Рейтинг и ограничения



Последний раз редактировалось: pavel1 (2012-06-07 12:57), всего редактировалось 12 раз(а)

Симон Боливар

Шкипер

Пост 19-Май-2012 07:51 (спустя 1 час 34 минуты)

[Q] 

глянем
[Профиль]  [ЛС] 

pavel1 ®

Штурман

315

Пост 26-Май-2012 19:37 (спустя 7 дней)

[Q] 

Уажаемые. Я с раздачи не ухажу, но почему не раздается я не знаю.
[Профиль]  [ЛС] 

egor126

Гроза морей

Пост 07-Июн-2012 15:45 (спустя 11 дней)

[Q] 

[Профиль]  [ЛС] 

Алёха

Флибустьер

Пост 07-Июн-2012 18:29 (спустя 2 часа 44 минуты)

[Q] 

[Профиль]  [ЛС] 

Алёха

Флибустьер

Пост 07-Июн-2012 18:30 (спустя 34 секунды)

[Q] 

поддай газу!!!!
[Профиль]  [ЛС] 

pavel1 ®

Штурман

315

Пост 07-Июн-2012 19:29 (спустя 58 минут)

[Q] 

Уважаемые , я бы рад добавить скорости, но провайдер больше одного мегабита на отдачу не дает.Уж простите.
[Профиль]  [ЛС] 

Oksika

Флибустьер

Пост 06-Дек-2012 17:29 (спустя 5 месяцев 28 дней)

[Q] 

за раздачу спасибо. Но каждый кулик хвалит своё болото и себя в нём.
[Профиль]  [ЛС] 

ElSkorpio

16

Пост 12-Май-2014 20:23 (спустя 1 год 5 месяцев)

[Q] 

На любителя

_________________
[Профиль]  [ЛС] 
Показать сообщения:    
Ответить на тему

Текущее время: Сегодня 23:53

Часовой пояс: GMT + 4



Вы не можете начинать темы
Вы не можете отвечать на сообщения
Вы не можете редактировать свои сообщения
Вы не можете удалять свои сообщения
Вы не можете голосовать в опросах
Вы не можете прикреплять файлы к сообщениям
Вы не можете скачивать файлы

▼ Вниз