ML
     
  Уважаемый Гость!
Вы можете поддержать проект и зарегистрироваться у наших партнеров - онлайн-стратегия MyLands. При регистрации в игре Вы получите код, который сможете активировать после регистрации на pirat.ca и получить 1000 дублонов.

Ваш код:
bc31d8aef74c92e19ad67e34a8fa63c3b9b812fb
 
     

Людмила Нильская. Танго на битом стекле (Иван Цыбин) [2012 г., документальный, SATRip]

Ответить на тему
 
Автор
Сообщение

Пост 02-Июн-2012 13:22

[Q] 

Dizell2102

Людмила Нильская. Танго на битом стекле
Год выпуска: 2012
Производство: Россия
Жанр: документальный
Продолжительность серии: 00:51:59
Перевод: Не требуется
Субтитры: отсутствуют
Режиссер: Иван Цыбин
В ролях: Дмитрий - сын Людмилы Нильской, В. Новиков - актер, В. Долинский - актер, А. Журавлев - актер, Н. Крачковская - актриса, А. Соколов - актер, И. Розанова - актриса, В. Павлов - режиссер, Б. Григорьев - режиссер, А. Пиманов - продюсер.
Описание: Впервые предельно откровенно актриса советского и российского кино Людмила Нильская рассказала о своих первых съемках и многообещающих знакомствах, о замужестве и отъезде в США, о крушении иллюзий, безуспешных поисках работы, унижении, хамстве "ветеранов эмиграции" и об опасности профессиональной деградации; о предательстве мужа и возвращении на Родину. В 1998 году, когда Нильская уже жила в Америке, в психиатрической больнице №2 им. О.В. Кебрикова скончалась Галина Брежнева - дочь Генерального секретаря ЦК КПСС. Столь далекие друг от друга, они с Нильской оказались очень близкими по своему женскому мироощущению. Даже внешнее сходство было поразительным. Возвратившись в страну после 9 лет отсутствия, актриса вернется в профессию именно ролью Галины - в сериале "Красная площадь", а затем и в "Галине". В последнем она будет отмечена премией "Золотой орел" за лучшую женскую роль. Недостатка в мужском внимании Нильская не испытывала со студенческих времен. Одним из ее воздыхателей был ныне покойный педагог Щукинского училища Альберт Буров. Когда Люда вопреки запретам начала сниматься, именно благодаря его протекции ее не отчислили. А на съемках фильма "Государственная граница" у нее случился непродолжительный роман с актером Владимиром Новиковым, который на момент их знакомства уже был женат. Замуж Людмила вышла за своего поклонника по имени Георгий. С ним она решилась на эмиграцию. Скоро она назовет Соединенные Штаты "концлагерем с усиленным питанием". Сняться в кино или сыграть в театре - недоступная роскошь. Кроме таланта и образования, нужны знакомства, связи, деньги. Однажды старая эмигрантка зло прошипит: "Это в Москве ты была звездой, а тут ты - прислуга!" Что, в общем-то, было правдой! И любовь закончилась банально - муж оказался "никаким бизнесменом", деньги от продажи московской квартиры были уже потрачены. В довершение он, бывший поклонник, зачастивший в Москву по делам фирмы, объявил, что там у него есть молоденькая женщина. "Мой единственный муж. Отец моего сына. И подлец". Нильская вернулась в Россию с 300 долларами в сумочке. И это, по ее словам, можно было считать счастливым исходом. Впереди ее ждала новая волна зрительской любви и успеха. Многие события в жизни Нильской тесно переплетаются с ее ролями. Как и ее героиня из фильма "Кузнечик", Нильская приехала из провинции поступать в столичный ВУЗ и покорила Москву. Лидии Чебоксаровой, первой красавице и знатной невесте, которую Нильская играет в "Бешеных деньгах", от безденежья приходится пойти в экономки. Та же участь после долгих лет популярности на родине постигла актрису в Америке. А в фильме "Никто не заменит тебя" героиня Нильской мучительно переживает развод с мужем, от которого больше всего страдает ее маленький сын. И в жизни расставание Нильской с супругом Георгием очень болезненно отразилось на их сыне. О своих и маминых переживаниях он рассказывает в этом фильме.

Источник/Качество: SATRip
Формат: AVI
Видео кодек: XviD
Аудио кодек: MP3
Видео: 720x400 (1.80:1), 25 fps, XviD MPEG-4 ~1499 kbps avg, 0.21 bit/pixel
Аудио: 48 kHz, MPEG Layer 3, 2 ch, ~192.00 kbps avg
Общее
Формат : AVI
Формат/Информация : Audio Video Interleave
Размер файла : 634 Мбайт
Продолжительность : 51 м.
Общий поток : 1705 Кбит/сек
Программа кодирования : XviD4PSP 6.0 / 53.31.100
Видео
Идентификатор : 0
Формат : MPEG-4 Visual
Профиль формата : Advanced [email protected]
Параметр BVOP формата : 2
Параметр QPel формата : Нет
Параметр GMC формата : 3 точки перехода
Параметр матрицы формата : Default (MPEG)
Режим смешивания : Сжатый битовый поток
Идентификатор кодека : XVID
Идентификатор кодека/Подсказка : XviD
Продолжительность : 51 м.
Битрейт : 1501 Кбит/сек
Ширина : 720 пикселей
Высота : 400 пикселей
Соотношение сторон : 16:9
Частота кадров : 25,000 кадров/сек
Цветовое пространство : YUV
Субдискретизация насыщенности : 4:2:0
Битовая глубина : 8 бит
Тип развёртки : Прогрессивная
Метод сжатия : С потерями
Бит/(Пиксели*Кадры) : 0.208
Размер потока : 558 Мбайт (88%)
Библиотека кодирования : XviD 64
Аудио
Идентификатор : 1
Формат : MPEG Audio
Версия формата : Version 1
Профиль формата : Layer 3
Режим : Joint stereo
Расширение режима : MS Stereo
Идентификатор кодека : 55
Идентификатор кодека/Подсказка : MP3
Продолжительность : 51 м.
Вид битрейта : Постоянный
Битрейт : 192 Кбит/сек
Каналы : 2 канала
Частота : 48,0 КГц
Метод сжатия : С потерями
Размер потока : 71,4 Мбайт (11%)
Выравнивание : Соединение по промежуткам
Продолжительность промежутка : 24 мс. (0,60 видеокадр)
Download / Скачать

Хотите скачать бесплатно? Зарегистрируйтесь на сайте (ссылка на регистрацию). Pirat.ca - самый быстрый торрент трекер в рунете!

Как скачивать  ·   Что такое торрент  ·   Рейтинг и ограничения

Показать сообщения:    
Ответить на тему

Текущее время: Сегодня 12:03

Часовой пояс: GMT + 4



Вы не можете начинать темы
Вы не можете отвечать на сообщения
Вы не можете редактировать свои сообщения
Вы не можете удалять свои сообщения
Вы не можете голосовать в опросах
Вы не можете прикреплять файлы к сообщениям
Вы не можете скачивать файлы

▼ Вниз