Уважаемый Гость!
Вы можете поддержать проект и зарегистрироваться у наших партнеров - онлайн-стратегия MyLands. При регистрации в игре Вы получите код, который сможете активировать после регистрации на pirat.ca и получить 1000 дублонов.

Ваш код:
a573f8e87940149b313a01c1976449cc92aefe50
 
     

Mass Effect Trilogy (Drew Karpyshyn) / Масс Эффект Трилогия (Дрю Карпишин) [Геннадий Коршунов, (ЛИ), 2011-2012 г., M4B]

Ответить на тему
 
Автор
Сообщение

Пост 11-Апр-2012 11:32

[Q] 

racom

Mass Effect Trilogy (Drew Karpyshyn) / Масс Эффект Трилогия (Дрю Карпишин) by Korshunov- -
Дрю Карпишин. Масс Эффект: Открытие / Drew Karpyshyn. Mass Effect: Revelation.
Год выпуска: 2011
Автор: Дрю Карпишин
Время звучания: 9:43:03
Исполнитель: Геннадий Коршунов, (ЛИ)
Жанр: Боевая фантастика, Космическая фантастика
Издательство: Аудиокнига своими руками
Описание
Приквел к серии компьютерных игр "Mass Effect"
Все развитые общества Галактики в той или иной степени обязаны своей развитостью наследию протеанцев — древней расы, исчезнувшей пятьдесят тысяч лет назад. После того как в 2148 году на Марсе был найден бункер, хранивший некоторые технологии протеанцев, человечество стремительно завоевывает свое место в космическом обществе.
А на самом краю освоенного космического пространства герой войны и командир корабля Альянса Дэвид Андерсон проводит расследование по поводу гибели сверхсекретной научной базы, подвергшейся террористической атаке. Его окружают дымящиеся руины, тела погибших и бесконечные вопросы. Кто атаковал этот объект и с какой целью? И где находится Кали Сандерс, молодая сотрудница, таинственным образом исчезнувшая с базы за несколько часов до нападения?
Все улики указывают на Сандерс как на главную подозреваемую, но встреча с ней ставит перед Андерсоном еще больше вопросов и не дает никаких ответов. Лейтенант исполняет свой долг перед человечеством в паре с партнером, которому он не может доверять, преследуемый наемным убийцей, от которого невозможно скрыться, в тени зловещей тайны неведомого мира, о которой он не сможет никому рассказать… По крайней мере, так считает его противник.
Тип: аудиокнига
Аудио кодек: M4B
Битрейт аудио: 128 kbps
Вшитая обложка: есть
Разбитие на главы: есть
General
Complete name : D:\audio_books\Mass Effect m4b\1-01 Mass Effect_ Открытие.m4b
Format : MPEG-4
Format profile : Apple audio with iTunes position
Codec ID : M4B
File size : 462 MiB
Duration : 9h 43mn
Overall bit rate mode : Variable
Overall bit rate : 111 Kbps
Album : Mass Effect: Открытие
Album/Performer : Карпишин Дрю
Part/Position : 1
Part/Total : 0
Track name : Mass Effect: Открытие
Track name/Position : 1
Track name/Total : 1
Grouping : Mass Effect
Performer : Карпишин Дрю
Composer : Геннадий Коршунов, (ЛИ)
Genre : Фантастика
Recorded date : 2011
Encoded date : UTC 2012-03-14 11:48:54
Tagged date : UTC 2012-03-14 16:32:59
Cover : Yes
©art : Карпишин Дрю
desc : Audiobook created by MarkAble
©lyr : Приквел к серии компьютерных игр "Mass Effect" / Все развитые общества Галактики в той или иной степени обязаны своей развитостью наследию протеанцев — древней расы, исчезнувшей пятьдесят тысяч лет назад. После того как в 2148 году на Марсе был найден бункер, хранивший некоторые технологии протеанцев, человечество стремительно завоевывает свое место в космическом обществе. / А на самом краю освоенного космического пространства герой войны и командир корабля Альянса Дэвид Андерсон проводит расследование по поводу гибели сверхсекретной научной базы, подвергшейся террористической атаке. Его окружают дымящиеся руины, тела погибших и бесконечные вопросы. Кто атаковал этот объект и с какой целью? И где находится Кали Сандерс, молодая сотрудница, таинственным образом исчезнувшая с базы за несколько часов до нападения? / Все улики указывают на Сандерс как на главную подозреваемую, но встреча с ней ставит перед Андерсоном еще больше вопросов и не дает никаких ответов. Лейтенант исполняет свой долг перед человечеством в паре с партнером, которому он не может доверять, преследуемый наемным убийцей, от которого невозможно скрыться, в тени зловещей тайны неведомого мира, о которой он не сможет никому рассказать… По крайней мере, так считает его противник.
Audio
ID : 1
Format : AAC
Format/Info : Advanced Audio Codec
Format profile : LC
Codec ID : 40
Duration : 9h 43mn
Bit rate mode : Variable
Bit rate : 109 Kbps
Nominal bit rate : 128 Kbps
Maximum bit rate : 169 Kbps
Channel(s) : 2 channels
Channel positions : Front: L R
Sampling rate : 44.1 KHz
Compression mode : Lossy
Stream size : 456 MiB (99%)
Encoded date : UTC 2012-03-14 11:48:54
Tagged date : UTC 2012-03-14 16:32:59
Text
ID : 2
Format : Apple text
Codec ID : text
Duration : 9h 43mn
Bit rate mode : Variable
Bit rate : 0
Stream size : 637 Bytes (0%)
Language : English
Encoded date : UTC 2012-03-14 12:06:57
Tagged date : UTC 2012-03-14 12:06:57
-Дрю Карпишин. Масс Эффект: Восхождение / Drew Karpyshyn. Mass Effect: Ascension.
Год выпуска: 2012
Автор: Дрю Карпишин
Время звучания: 09:37:12
Исполнитель: Геннадий Коршунов, (ЛИ)
Жанр: Боевая фантастика, Космическая фантастика
Издательство: Аудиокнига своими руками
Описание
Вторая книга вселенной "Mass Effect" к серии одноименных компьютерных игр
Доктор Кали Сандерс оставила службу в Альянсе ради проекта "Восхождение" - программы, призванной помочь детям, обладающим даром "биотики", развить свои невероятные способности. Самые большие надежды связывались с двенадцатилетней девочкой по имени Джиллиан Грейсон, страдающей аутизмом. Но одаренный ребенок оказался пешкой в руках группировки "Цербер", проводящей над учениками незаконные эксперименты.
Тип: аудиокнига
Аудио кодек: M4B
Битрейт аудио: 128 kbps
Вшитая обложка: есть
Разбитие на главы: есть
General
Complete name : D:\audio_books\Mass Effect m4b\2-01 Mass Effect 2_ Восхождение.m4b
Format : MPEG-4
Format profile : Apple audio with iTunes position
Codec ID : M4B
File size : 450 MiB
Duration : 9h 37mn
Overall bit rate mode : Variable
Overall bit rate : 109 Kbps
Album : Mass Effect 2: Восхождение
Album/Performer : Карпишин Дрю
Part/Position : 2
Part/Total : 0
Track name : Mass Effect 2: Восхождение
Track name/Position : 1
Track name/Total : 1
Grouping : Mass Effect
Performer : Карпишин Дрю
Composer : Геннадий Коршунов, (ЛИ)
Genre : Фантастика
Recorded date : 2012
Encoded date : UTC 2012-03-14 15:38:36
Tagged date : UTC 2012-03-14 16:47:23
Cover : Yes
©art : Карпишин Дрю
desc : Audiobook created by MarkAble
©lyr : Вторая книга вселенной "Mass Effect" к серии одноименных компьютерных игр / Доктор Кали Сандерс оставила службу в Альянсе ради проекта "Восхождение" - программы, призванной помочь детям, обладающим даром "биотики", развить свои невероятные способности. Самые большие надежды связывались с двенадцатилетней девочкой по имени Джиллиан Грейсон, страдающей аутизмом. Но одаренный ребенок оказался пешкой в руках группировки "Цербер", проводящей над учениками незаконные эксперименты.
Audio
ID : 1
Format : AAC
Format/Info : Advanced Audio Codec
Format profile : LC
Codec ID : 40
Duration : 9h 37mn
Bit rate mode : Variable
Nominal bit rate : 128 Kbps
Maximum bit rate : 164 Kbps
Channel(s) : 2 channels
Channel positions : Front: L R
Sampling rate : 44.1 KHz
Compression mode : Lossy
Encoded date : UTC 2012-03-14 15:38:36
Tagged date : UTC 2012-03-14 16:47:23
Material_Duration : 33359086
Material_StreamSize : 466279798
Text
ID : 2
Format : Apple text
Codec ID : text
Duration : 9h 37mn
Bit rate mode : Variable
Bit rate : 0
Stream size : 665 Bytes (0%)
Language : English
Encoded date : UTC 2012-03-14 16:06:08
Tagged date : UTC 2012-03-14 16:06:08
Material_Duration : 33359086
Material_StreamSize : 665
-Дрю Карпишин. Масс Эффект: Возмездие / Drew Karpyshyn. Mass Effect: Retribution.
Год выпуска: 2012
Автор: Дрю Карпишин
Время звучания: 07:55:29
Исполнитель: Геннадий Коршунов, (ЛИ)
Жанр: Боевая фантастика, Космическая фантастика
Издательство: Аудиокнига своими руками
Описание
Третья книга вселенной "Mass Effect" к серии одноименных компьютерных игр
Таинственный Призрак - человек, лидер про-человеческой радикальной группы Цербер, намерен открыть секреты технологий Жнецов. Идеальный план Призрака заключается в имплантировании человеку технологии Жнецов, в целях изучения противника.
Его подопытным становится Пол Грейсон, бывший оперативник Цербера. Призрак наслаждается возмездием, ведь Призрак всегда получает что хочет...
Тип: аудиокнига
Аудио кодек: M4B
Битрейт аудио: 128 kbps
Вшитая обложка: есть
Разбитие на главы: есть
General
Complete name : D:\audio_books\Mass Effect m4b\3-01 Mass Effect 3_ Возмездие.m4b
Format : MPEG-4
Format profile : Apple audio with iTunes position
Codec ID : M4B
File size : 386 MiB
Duration : 7h 55mn
Overall bit rate mode : Variable
Overall bit rate : 113 Kbps
Album : Mass Effect 3: Возмездие
Album/Performer : Карпишин Дрю
Part/Position : 3
Part/Total : 0
Track name : Mass Effect 3: Возмездие
Track name/Position : 1
Track name/Total : 1
Grouping : Mass Effect
Performer : Карпишин Дрю
Composer : Геннадий Коршунов, (ЛИ)
Genre : Фантастика
Recorded date : 2012
Encoded date : UTC 2012-03-14 17:17:44
Tagged date : UTC 2012-03-14 18:33:18
Cover : Yes
©art : Карпишин Дрю
desc : Audiobook created by MarkAble
©lyr : Третья книга вселенной "Mass Effect" к серии одноименных компьютерных игр / Таинственный Призрак - человек, лидер про-человеческой радикальной группы Цербер, намерен открыть секреты технологий Жнецов. Идеальный план Призрака заключается в имплантировании человеку технологии Жнецов, в целях изучения противника. / Его подопытным становится Пол Грейсон, бывший оперативник Цербера. Призрак наслаждается возмездием, ведь Призрак всегда получает что хочет...
Audio
ID : 1
Format : AAC
Format/Info : Advanced Audio Codec
Format profile : LC
Codec ID : 40
Duration : 7h 55mn
Bit rate mode : Variable
Bit rate : 112 Kbps
Nominal bit rate : 128 Kbps
Maximum bit rate : 170 Kbps
Channel(s) : 2 channels
Channel positions : Front: L R
Sampling rate : 44.1 KHz
Compression mode : Lossy
Stream size : 381 MiB (99%)
Encoded date : UTC 2012-03-14 17:17:44
Tagged date : UTC 2012-03-14 18:33:18
Text
ID : 2
Format : Apple text
Codec ID : text
Duration : 7h 55mn
Bit rate mode : Variable
Bit rate : 0
Stream size : 799 Bytes (0%)
Language : English
Encoded date : UTC 2012-03-14 17:33:29
Tagged date : UTC 2012-03-14 17:33:29
"MP3 можно скачать тут"
Download / Скачать

Хотите скачать бесплатно? Зарегистрируйтесь на сайте (ссылка на регистрацию). Pirat.ca - самый быстрый торрент трекер в рунете!

Как скачивать  ·   Что такое торрент  ·   Рейтинг и ограничения



Последний раз редактировалось: racom (2012-04-12 11:38), всего редактировалось 1 раз

Пост 12-Апр-2012 23:45 (спустя 1 день 12 часов)

Топик был перенесен из форума iOS (Аудиокниги) в форум iTunes Аудиокниги

goxakrauter
 

kennymcc

Шкипер

Пост 19-Апр-2012 17:10 (спустя 8 дней)

[Q] 


_________________
[Профиль]  [ЛС] 

KINOhronik

Флибустьер

3268

Пост 09-Июн-2012 21:10 (спустя 1 месяц 20 дней)

[Q] 


_________________
[Профиль]  [ЛС] 

ribi

10018

Пост 02-Мар-2013 21:36 (спустя 8 месяцев 23 дня)

[Q] 

Полного источника не было: 2 месяца 14 дней

_________________
[Профиль]  [ЛС] 

Пост 02-Мар-2013 21:36 (спустя 20 секунд)

Топик был перенесен из форума iTunes Аудиокниги в форум Архив (iPhone, iPod, iPod Touch)

ribi
 
Показать сообщения:    
Ответить на тему

Текущее время: Сегодня 05:35

Часовой пояс: GMT + 4



Вы не можете начинать темы
Вы не можете отвечать на сообщения
Вы не можете редактировать свои сообщения
Вы не можете удалять свои сообщения
Вы не можете голосовать в опросах
Вы не можете прикреплять файлы к сообщениям
Вы не можете скачивать файлы

▼ Вниз