Уважаемый Гость!
Вы можете поддержать проект и зарегистрироваться у наших партнеров - онлайн-стратегия MyLands. При регистрации в игре Вы получите код, который сможете активировать после регистрации на pirat.ca и получить 1000 дублонов.

Ваш код:
3bc14af8213a4505af8570c7bdcd59303a238355
 
     

Неприкасаемые / The Untouchables (Брайан Де Пальма / Brian De Palma) [1987 г.] (триллер, драма, криминал, история) [BDRip] (MVO) [Jolly Roger]

Ответить на тему
 
Автор
Сообщение

Пост 04-Май-2012 18:29

[Q] 

Roger

-Неприкасаемые / The Untouchables-- Год выпуска: 1987
Производство: США
Жанр: триллер, драма, криминал, история
Продолжительность: 01:59:27
Перевод: Профессиональный (многоголосый)
Оригинальный аудиопоток: Английский
Режиссер: Брайан Де Пальма / Brian De Palma
В ролях: Кевин Костнер, Шон Коннери, Чарльз Мартин Смит, Энди Гарсиа, Роберт Де Ниро, Ричард Брэдфорд, Джек Кехо, Брэд Салливан, Билли Драго, Патриция Кларксон, Вито Д`Амброзио, Стивен Голдштейн...
Описание: В основе сюжета - борьба полиции с королем преступного мира, знаменитым гангстером Аль Капоне, которого, как известно, удалось засадить за решетку лишь как лицо, уклоняющееся от уплаты налогов.

Источник/Качество: BDRip | IMDB | КиноПоиск
Формат: MP4
Видео кодек: H.26x
Аудио кодек: AAC
Видео: 1199 kbps, 1024x432, 23.976 fps
Аудио: 192 kbps (2 ch) 48 KHz--
General
Complete name : D:\Temp\The.Untouchables.1987.x264.iOS.BDRip.JRG.mp4
Format : MPEG-4
Format profile : Base Media
Codec ID : isom
File size : 1.16 GiB
Duration : 1h 59mn
Overall bit rate mode : Variable
Overall bit rate : 1 395 Kbps
Encoded date : UTC 2012-05-04 14:15:01
Tagged date : UTC 2012-05-04 14:15:01
Video
ID : 1
Format : AVC
Format/Info : Advanced Video Codec
Format profile : [email protected]
Format settings, CABAC : Yes
Format settings, ReFrames : 4 frames
Codec ID : avc1
Codec ID/Info : Advanced Video Coding
Duration : 1h 59mn
Bit rate : 1 199 Kbps
Maximum bit rate : 6 773 Kbps
Width : 1 024 pixels
Height : 432 pixels
Display aspect ratio : 2.35:1
Frame rate mode : Constant
Frame rate : 23.976 fps
Color space : YUV
Chroma subsampling : 4:2:0
Bit depth : 8 bits
Scan type : Progressive
Bits/(Pixel*Frame) : 0.113
Stream size : 1.00 GiB (86%)
Writing library : x264 core 119 r2106 07efeb4
Encoding settings : cabac=1 / ref=2 / deblock=1:0:0 / analyse=0x3:0x131 / me=umh / subme=6 / psy=1 / psy_rd=1.00:0.00 / mixed_ref=1 / me_range=16 / chroma_me=1 / trellis=1 / 8x8dct=1 / cqm=0 / deadzone=21,11 / fast_pskip=1 / chroma_qp_offset=-2 / threads=12 / sliced_threads=0 / nr=0 / decimate=1 / interlaced=0 / bluray_compat=0 / constrained_intra=0 / bframes=3 / b_pyramid=2 / b_adapt=1 / b_bias=0 / direct=1 / weightb=1 / open_gop=0 / weightp=2 / keyint=250 / keyint_min=23 / scenecut=40 / intra_refresh=0 / rc_lookahead=40 / rc=crf / mbtree=1 / crf=21.0 / qcomp=0.60 / qpmin=0 / qpmax=69 / qpstep=4 / ip_ratio=1.40 / aq=1:1.00
Encoded date : UTC 2012-05-04 14:15:01
Tagged date : UTC 2012-05-04 14:15:11
Audio
ID : 2
Format : AAC
Format/Info : Advanced Audio Codec
Format profile : LC
Codec ID : 40
Duration : 1h 59mn
Bit rate mode : Variable
Bit rate : 192 Kbps
Maximum bit rate : 246 Kbps
Channel(s) : 2 channels
Channel positions : Front: L R
Sampling rate : 48.0 KHz
Compression mode : Lossy
Delay relative to video : -3s 337ms
Stream size : 164 MiB (14%)
Encoded date : UTC 2012-05-04 14:15:09
Tagged date : UTC 2012-05-04 14:15:11
-
Download / Скачать

Хотите скачать бесплатно? Зарегистрируйтесь на сайте (ссылка на регистрацию). Pirat.ca - самый быстрый торрент трекер в рунете!

Как скачивать  ·   Что такое торрент  ·   Рейтинг и ограничения



Последний раз редактировалось: Roger (2012-08-09 11:42), всего редактировалось 1 раз

Paullo

Пост 06-Май-2012 22:29 (спустя 2 дня 4 часа)

[Q] 


_________________
Someone who isn’t me.
[Профиль]  [ЛС] 

ribi

10018

Пост 07-Окт-2012 20:07 (спустя 5 месяцев)

[Q] 

Полного источника не было: 1 месяц 12 дней

_________________
[Профиль]  [ЛС] 

Пост 07-Окт-2012 20:08 (спустя 23 секунды)

Топик был перенесен из форума Video (iPad, Apple TV) в форум Архив (iPhone, iPod, iPod Touch)

ribi
 
Показать сообщения:    
Ответить на тему

Текущее время: Сегодня 22:31

Часовой пояс: GMT + 4



Вы не можете начинать темы
Вы не можете отвечать на сообщения
Вы не можете редактировать свои сообщения
Вы не можете удалять свои сообщения
Вы не можете голосовать в опросах
Вы не можете прикреплять файлы к сообщениям
Вы не можете скачивать файлы

▼ Вниз