Гриффины / Family Guy / Сезон: 10 / Серии: 1-23 из 23 (Сет Макфарлейн / Seth MacFarlane) [2011, мультфильм, комедия, WEB-DL] MVO [Filiza Studio] + Original (Eng)

Ответить на тему
 
Автор
Сообщение

Пост 27-Фев-2014 12:25

[Q] 

LPPI

Гроза морей

- -Гриффины / Family Guy / Сезон: 10- Производство: США
Режиссер: Сет Макфарлейн / Seth MacFarlane
Жанр: мультфильм, комедия
Год выпуска: 2011 г.
Продолжительность: ~00:22:00
Перевод: Профессиональный (многоголосый, закадровый) [Filiza Studio]
Роли озвучивали: Сет Макфарлейн, Алекс Борштейн, Сет Грин, Мила Кунис, Майк Генри-Описание:-"Гриффины" (Family Guy) - анимационное ТВ-Шоу, созданное Сетом МакФерлайном (Seth MacFarlane) для телеканала FOX. Как нетрудно догадаться, главными героями шоу является семейка Гриффинов: тупой, но полный сумашедших идей, составляющих львиную долю шуток сериала, отец семейства Питер; его любящя и терпеливая жена Лойс, всеми силами пытающаяся превратить Гриффинов в нормальную семью; их интеллектуально развитый не по годам, вынашивающий идею мирового господства младший сын Стьюи; дочь-ботаник, обречённая из-за этого на одиночество и непонимание как в школе так и дома, Мэг; и 13-ти летний отсталый в развитии лет на 10, сын Крис. Также полноценным членом семьи является пёс Брайн - склонный к меланхолии эстет, спокойно наблюдающий с бокалом вина в лапе над приключениями Питера и остальных членов семьи (и это при всём притом, что остальные собаки в сериале не являются очеловеченными).- -Качество видео: WEB-DL
Контейнер: MKV
Видео кодек: AVC
Аудио кодек: AC3
Видео: MKV, AVC, 720 X 400, ~900 kbp/s, 0.12 bit/px, 23.976 fps
Аудио: AC3, 384 kbps, 6 ch, 48KHz [RUS, Filiza Studio]
Аудио #2: AC3, 384 kbps, 6 ch, 48KHz [ENG, Оригинал]
Cубтитры: отсутствуют
01. Lottery Fever
02. Seahorse Seashell Party
03. Screams of Silence The Story of Brenda
04. Stewie Goes for a Drive
05. Back to Pilot
06. Thanksgiving
07. Amish Guy
08. Cool Hand Peter
09. Grumpy Old Man
10. Quagmire and Meg
11. The Blind Side
12. Livin' on a Prayer
13. Tom Tucker: The Man and His Dream
14. Be Careful What you Fish
15. Burning Down the Bayit
16. Killer Queen
17. Forget-Me-Not
18. You Can't Do That on Television, Peter
19. Mr. & Mrs. Stewie
20. Leggo My Meg-O
21. Tea Peter
22. Family Guy Viewer Mail #2
23. Internal Affairs
General
Unique ID : 175098860451846446912075399055098242947 (0x83BAD058F28774C6943477127C87E783)
Complete name : C:\Users\Admin\Desktop\Family Guy - Season 10 WEB-DLRip-AVC\1001 - Lottery Fever.mkv
Format : Matroska
Format version : Version 2
File size : 249 MiB
Duration : 21mn 36s
Overall bit rate : 1 614 Kbps
Movie name : Релиз - D2T/"Криволапый ювелир"
Encoded date : UTC 2011-11-01 23:02:04
Writing application : mkvmerge v4.0.0 ('The Stars were mine') сборка от Jun 6 2010 16:18:42
Writing library : libebml v1.0.0 + libmatroska v1.0.0
Video
ID : 1
Format : AVC
Format/Info : Advanced Video Codec
Format profile : High@L3.0
Format settings, CABAC : Yes
Format settings, ReFrames : 4 frames
Codec ID : V_MPEG4/ISO/AVC
Duration : 21mn 36s
Bit rate : 814 Kbps
Width : 720 pixels
Height : 400 pixels
Display aspect ratio : 16:9
Frame rate mode : Constant
Frame rate : 23.976 fps
Color space : YUV
Chroma subsampling : 4:2:0
Bit depth : 8 bits
Scan type : Progressive
Bits/(Pixel*Frame) : 0.118
Stream size : 126 MiB (50%)
Writing library : x264 core 116 r2074 2641b9e
Encoding settings : cabac=1 / ref=4 / deblock=1:0:0 / analyse=0x3:0x112 / me=tesa / subme=9 / psy=1 / psy_rd=1.00:0.00 / mixed_ref=1 / me_range=16 / chroma_me=1 / trellis=2 / 8x8dct=1 / cqm=0 / deadzone=21,11 / fast_pskip=1 / chroma_qp_offset=-2 / threads=6 / sliced_threads=0 / nr=0 / decimate=1 / interlaced=0 / bluray_compat=0 / constrained_intra=0 / bframes=4 / b_pyramid=2 / b_adapt=2 / b_bias=0 / direct=3 / weightb=0 / open_gop=0 / weightp=2 / keyint=150 / keyint_min=1 / scenecut=33 / intra_refresh=0 / rc=cqp / mbtree=0 / qp=14 / ip_ratio=1.40 / pb_ratio=1.30 / aq=0
Language : English
Default : No
Forced : No
Audio #1
ID : 2
Format : AC-3
Format/Info : Audio Coding 3
Mode extension : CM (complete main)
Format settings, Endianness : Big
Codec ID : A_AC3
Duration : 21mn 36s
Bit rate mode : Constant
Bit rate : 384 Kbps
Channel(s) : 6 channels
Channel positions : Front: L C R, Side: L R, LFE
Sampling rate : 48.0 KHz
Bit depth : 16 bits
Compression mode : Lossy
Stream size : 59.3 MiB (24%)
Title : Filiza Studio
Language : Russian
Default : No
Forced : No
Audio #2
ID : 3
Format : AC-3
Format/Info : Audio Coding 3
Mode extension : CM (complete main)
Format settings, Endianness : Big
Codec ID : A_AC3
Duration : 21mn 36s
Bit rate mode : Constant
Bit rate : 384 Kbps
Channel(s) : 6 channels
Channel positions : Front: L C R, Side: L R, LFE
Sampling rate : 48.0 KHz
Bit depth : 16 bits
Compression mode : Lossy
Stream size : 59.3 MiB (24%)
Language : English
Default : No
Forced : No
- -
Download / Скачать

Хотите скачать бесплатно? Зарегистрируйтесь на сайте (ссылка на регистрацию). Pirat.ca - самый быстрый торрент трекер в рунете!

Как скачивать  ·   Что такое торрент  ·   Рейтинг и ограничения

zvyagin_da

Пост 04-Апр-2014 09:13 (спустя 1 месяц 4 дня)

[Q] 

Помогу с раздачей
[Профиль]  [ЛС] 
Показать сообщения:    
Ответить на тему

Текущее время: Сегодня 04:02

Часовой пояс: GMT + 4



Вы не можете начинать темы
Вы не можете отвечать на сообщения
Вы не можете редактировать свои сообщения
Вы не можете удалять свои сообщения
Вы не можете голосовать в опросах
Вы не можете прикреплять файлы к сообщениям
Вы не можете скачивать файлы

Майнать ▼