Гриффины / Family Guy / Сезон: 9 / Серии: 1-17 из 17 (Сет Макфарлейн / Seth MacFarlane) [2010, мультфильм, комедия, WEB-DL] MVO [FiLiZa Studio] + Original (Eng)

Ответить на тему
 
Автор
Сообщение

Пост 28-Фев-2014 11:33

[Q] 

LPPI

Гроза морей

- -Гриффины / Family Guy / Сезон: 9- Производство: США
Режиссер: Сет Макфарлейн / Seth MacFarlane
Жанр: мультфильм, комедия
Год выпуска: 2010 г.
Продолжительность: ~00:22:00
Перевод: Профессиональный (многоголосый, закадровый) [FiLiZa Studio]
Роли озвучивали: Сет МакФарлейн, Алекс Борштейн, Сет Грин, Мила Кунис, Майк Генри-Описание:-"Гриффины" (Family Guy) - анимационное ТВ-Шоу, созданное Сетом МакФерлайном (Seth MacFarlane) для телеканала FOX. Как нетрудно догадаться, главными героями шоу является семейка Гриффинов: тупой, но полный сумашедших идей, составляющих львиную долю шуток сериала, отец семейства Питер; его любящя и терпеливая жена Лойс, всеми силами пытающаяся превратить Гриффинов в нормальную семью; их интеллектуально развитый не по годам, вынашивающий идею мирового господства младший сын Стьюи; дочь-ботаник, обречённая из-за этого на одиночество и непонимание как в школе так и дома, Мэг; и 13-ти летний отсталый в развитии лет на 10, сын Крис. Также полноценным членом семьи является пёс Брайн - склонный к меланхолии эстет, спокойно наблюдающий с бокалом вина в лапе над приключениями Питера и остальных членов семьи (и это при всём притом, что остальные собаки в сериале не являются очеловеченными).- -Качество видео: WEB-DL
Контейнер: AVI
Видео кодек: XviD
Аудио кодек: MP3
Видео: AVI, XviD, 720 X 400, ~1340 kbps avg, 0.194 bit/pixel, 23.976 fps
Аудио: MP3, ~128 kbps avg, 2 ch, 48KHz [RUS, Filiza Studio]
Аудио #2: MP3, ~128 kbps avg, 2 ch, 48KHz [ENG, Оригинал]
Cубтитры: отсутствуют
01. And Then There Were Fewer (И после их было меньше)
02. Excellence in Broadcasting (Совершенство в трансляции)
03. Welcome Back Carter (С возвращением Картер)
04. Halloween on Spooner Street (Хеллоуин на Ложечной улице)
05. Baby, You Knock Me Out (Детка, ты бьёшь меня)
06. Brian Writes a Bestseller (Брайан пишет бестцеллер)
07. Road to the North Pole (Дорога на северный полюс)
08. New Kidney in Town (Новая почка в городе)
09. And I'm Joyce Kinney (И я - Джуси Кинней)
10. Friends of Peter G. (Друзья Питера Г.)
11. German Guy (Германская семья)
12. The Hand That Rocks the Wheelchair (Рука этого крутого в инвалидном кресле)
13. Trading Places (Торги мест)
14. Tiegs for You (Тиегс для тебя)
15. Brothers & Sisters (Братья и сёстры)
16. The Big Bang Theory (Теория большого взрыва)
17. Foreign Affairs (Международные дела)
General
Complete name : C:\Users\Admin\Desktop\Family Guy - Season 9 (Filiza)\Family.Guy.s09e01.WEB-DLRip.XviD.MP3.-SVM.avi
Format : AVI
Format/Info : Audio Video Interleave
File size : 502 MiB
Duration : 49mn 7s
Overall bit rate : 1 428 Kbps
Writing application : VirtualDubMod 1.5.10.2 (build 2540/release)
Writing library : VirtualDubMod build 2540/release
Video
ID : 0
Format : MPEG-4 Visual
Format profile : Advanced [email protected]
Format settings, BVOP : 2
Format settings, QPel : No
Format settings, GMC : No warppoints
Format settings, Matrix : Default (MPEG)
Muxing mode : Packed bitstream
Codec ID : XVID
Codec ID/Hint : XviD
Duration : 49mn 7s
Bit rate : 1 158 Kbps
Width : 720 pixels
Height : 400 pixels
Display aspect ratio : 16:9
Frame rate : 23.976 fps
Color space : YUV
Chroma subsampling : 4:2:0
Bit depth : 8 bits
Scan type : Progressive
Compression mode : Lossy
Bits/(Pixel*Frame) : 0.168
Stream size : 407 MiB (81%)
Writing library : XviD 1.2.1 (UTC 2008-12-04)
Audio #1
ID : 1
Format : MPEG Audio
Format version : Version 1
Format profile : Layer 3
Codec ID : 55
Codec ID/Hint : MP3
Duration : 49mn 7s
Bit rate mode : Constant
Bit rate : 128 Kbps
Channel(s) : 2 channels
Sampling rate : 48.0 KHz
Compression mode : Lossy
Stream size : 45.0 MiB (9%)
Alignment : Aligned on interleaves
Interleave, duration : 42 ms (1.00 video frame)
Interleave, preload duration : 504 ms
Writing library : LAME3.98r
Encoding settings : -m s -V 4 -q 2 -lowpass 17 -b 128
Audio #2
ID : 2
Format : MPEG Audio
Format version : Version 1
Format profile : Layer 3
Codec ID : 55
Codec ID/Hint : MP3
Duration : 49mn 7s
Bit rate mode : Constant
Bit rate : 128 Kbps
Channel(s) : 2 channels
Sampling rate : 48.0 KHz
Compression mode : Lossy
Stream size : 45.0 MiB (9%)
Alignment : Aligned on interleaves
Interleave, duration : 42 ms (1.00 video frame)
Interleave, preload duration : 504 ms
Writing library : LAME3.98r
Encoding settings : -m s -V 4 -q 2 -lowpass 17 -b 128
- -
Download / Скачать

Хотите скачать бесплатно? Зарегистрируйтесь на сайте (ссылка на регистрацию). Pirat.ca - самый быстрый торрент трекер в рунете!

Как скачивать  ·   Что такое торрент  ·   Рейтинг и ограничения

Пост 28-Фев-2014 19:08 (спустя 7 часов)

Топик был перенесен из форума Мультсериалы (Трюм) в форум Гриффины / Family Guy
erchine
 

zvyagin_da

Пост 04-Апр-2014 09:13 (спустя 1 месяц 3 дня)

[Q] 

Хорошо Посмотрим
[Профиль]  [ЛС] 

Krocodil2012

Лоцман

Пост 01-Апр-2015 23:13 (спустя 11 месяцев 27 дней)

[Q] 

лучший мультфильм!
[Профиль]  [ЛС] 
Показать сообщения:    
Ответить на тему

Текущее время: Сегодня 17:52

Часовой пояс: GMT + 4



Вы не можете начинать темы
Вы не можете отвечать на сообщения
Вы не можете редактировать свои сообщения
Вы не можете удалять свои сообщения
Вы не можете голосовать в опросах
Вы не можете прикреплять файлы к сообщениям
Вы не можете скачивать файлы

Майнать ▼