ML
     
  Уважаемый Гость!
Вы можете поддержать проект и зарегистрироваться у наших партнеров - онлайн-стратегия MyLands. При регистрации в игре Вы получите код, который сможете активировать после регистрации на pirat.ca и получить 1000 дублонов.

Ваш код:
2fd4e750dd89cae3a36ea360f2b345ccfeb562d3
 
     

UltraHD на PiratCa

Ответить на тему

Нужен ли контент UltraHD?

Да, если не сейчас, то скоро.   62%  62%  [ 5 ]
Нет, устраивает и HD.   37%  37%  [ 3 ]

Всего проголосовало : 8

 
Автор
Сообщение

Пост 11-Окт-2015 23:45

[Q] 

TERMOS

Легенда

Доброго времени суток!
Друзья! Вот и наступает эра 4К! Скоро, буквально в декабре начнут выходить фильмы в размере 4К и более. Для мягкого перехода на новый уровень уже появляются промежуточные форматы. Кто-то смотрит без проблем, но у большинства "тормозит". И дело не только в ПК. Мониторы и телевизоры формата 4К пока дорогие.
Уже появился контент. Выкладывать тут?
P.S. Есть контент 2160р. Не один. Размеры большие...

kugesan

56620

Пост 12-Окт-2015 00:03 (спустя 17 минут)

[Q] 

Уверен что 4к, в ближайшее время, получит широкое распространение ... Так что я за!

_________________

В мире две бесконечности: вселенная и человеческая глупость - Альберт Эйнштен
«Можно вытащить человека из грязи, но нельзя вытащить грязь из человека»!
[Профиль]  [ЛС] 

TERMOS ®

Легенда

11994

Пост 12-Окт-2015 18:45 (спустя 18 часов)

[Q] 

Ближайшие планы на реализацию:
Код:
General
Unique ID                   : 188614752619779180699068003406626568251 (0x8DE5E147D5B6B95D8586589D690A383B)
Complete name               : Y:\Downloads\Chappie.2015.2160p.WEB-DL.4xRus.Ukr.Eng.mkv
Format                      : Matroska
Format version              : Version 4 / Version 2
File size                   : 56.9 GiB
Duration                    : 2h 0mn
Overall bit rate mode       : Variable
Overall bit rate            : 67.7 Mbps
Movie name                  : Chappie (2015)
Encoded date                : UTC 2015-10-11 00:25:23
Writing application         : mkvmerge v8.3.0 ('Over the Horizon') 64bit
Writing library             : libebml v1.3.1 + libmatroska v1.4.2
DURATION                    : 01:52:14.819000000
NUMBER_OF_FRAMES            : 1608
NUMBER_OF_BYTES             : 50364
_STATISTICS_WRITING_APP     : mkvmerge v8.3.0 ('Over the Horizon') 64bit
_STATISTICS_WRITING_DATE_UT : 2015-10-11 00:25:23
_STATISTICS_TAGS            : BPS DURATION NUMBER_OF_FRAMES NUMBER_OF_BYTES
Video
ID                          : 1
Format                      : HEVC
Format/Info                 : High Efficiency Video Coding
Format profile              : Main [email protected]
Codec ID                    : V_MPEGH/ISO/HEVC
Duration                    : 2h 0mn
Width                       : 3 840 pixels
Height                      : 1 602 pixels
Display aspect ratio        : 2.40:1
Frame rate mode             : Constant
Frame rate                  : 23.976 fps
Color space                 : YUV
Chroma subsampling          : 4:2:0
Bit depth                   : 10 bits
Title                       : Chappie (2015)
Writing library             : x265 1.7+474-e1adac00dce8e564:[Windows][GCC 5.2.0][64 bit] 10bit: KG7x [x265.ru]
Encoding settings           : wpp / ctu=64 / min-cu-size=8 / max-tu-size=32 / tu-intra-depth=1 / tu-inter-depth=1 / me=1 / subme=2 / merange=57 / no-rect / no-amp / max-merge=2 / temporal-mvp / no-early-skip / rdpenalty=0 / no-tskip / no-tskip-fast / strong-intra-smoothing / no-lossless / no-cu-lossless / no-constrained-intra / no-fast-intra / open-gop / no-temporal-layers / interlace=0 / keyint=250 / min-keyint=23 / scenecut=40 / rc-lookahead=20 / lookahead-slices=0 / bframes=4 / bframe-bias=0 / b-adapt=2 / ref=3 / limit-refs=0 / weightp / no-weightb / aq-mode=1 / qg-size=16 / aq-strength=1.00 / cbqpoffs=0 / crqpoffs=0 / rd=3 / psy-rd=0.70 / rdoq-level=1 / psy-rdoq=5.00 / signhide / deblock=-2:-2 / no-sao / no-sao-non-deblock / b-pyramid / cutree / rc=crf / crf=17.0 / qcomp=0.80 / qpmin=0 / qpmax=51 / qpstep=4 / ipratio=1.40 / pbratio=1.30
Language                    : English
Default                     : Yes
Forced                      : No
Audio #1
ID                          : 2
Format                      : DTS
Format/Info                 : Digital Theater Systems
Format profile              : MA / Core
Mode                        : 16
Format settings, Endianness : Big
Codec ID                    : A_DTS
Duration                    : 2h 0mn
Bit rate mode               : Variable
Bit rate                    : Unknown / 1 509 Kbps
Channel(s)                  : 8 channels / 6 channels
Channel positions           : Front: L C R, Side: L R, Back: L R, LFE / Front: L C R, Side: L R, LFE
Sampling rate               : 48.0 KHz
Bit depth                   : 16 bits
Compression mode            : Lossless / Lossy
Delay relative to video     : 1s 276ms
Title                       : DTS-HD MA 7.1 - Blu-ray CEE
Language                    : English
Default                     : Yes
Forced                      : No
Audio #2
ID                          : 3
Format                      : AC-3
Format/Info                 : Audio Coding 3
Mode extension              : CM (complete main)
Format settings, Endianness : Big
Codec ID                    : A_AC3
Duration                    : 2h 0mn
Bit rate mode               : Constant
Bit rate                    : 640 Kbps
Channel(s)                  : 6 channels
Channel positions           : Front: L C R, Side: L R, LFE
Sampling rate               : 48.0 KHz
Bit depth                   : 16 bits
Compression mode            : Lossy
Delay relative to video     : 1s 300ms
Stream size                 : 551 MiB (1%)
Title                       : AC3 5.1 @ 640 kbps - DUB, Blu-ray CEE
Language                    : Russian
Default                     : No
Forced                      : No
Audio #3
ID                          : 4
Format                      : DTS
Format/Info                 : Digital Theater Systems
Format profile              : MA / Core
Mode                        : 16
Format settings, Endianness : Big
Codec ID                    : A_DTS
Duration                    : 2h 0mn
Bit rate mode               : Variable
Bit rate                    : Unknown / 1 509 Kbps
Channel(s)                  : 8 channels / 6 channels
Channel positions           : Front: L C R, Side: L R, Back: L R, LFE / Front: L C R, Side: L R, LFE
Sampling rate               : 48.0 KHz
Bit depth                   : 16 bits
Compression mode            : Lossless / Lossy
Delay relative to video     : 1s 300ms
Title                       : DTS-HD MA 7.1 - AVO, D.Esarev (cens)
Language                    : Russian
Default                     : No
Forced                      : No
Audio #4
ID                          : 5
Format                      : DTS
Format/Info                 : Digital Theater Systems
Format profile              : MA / Core
Mode                        : 16
Format settings, Endianness : Big
Codec ID                    : A_DTS
Duration                    : 2h 0mn
Bit rate mode               : Variable
Bit rate                    : Unknown / 1 509 Kbps
Channel(s)                  : 8 channels / 6 channels
Channel positions           : Front: L C R, Side: L R, Back: L R, LFE / Front: L C R, Side: L R, LFE
Sampling rate               : 48.0 KHz
Bit depth                   : 16 bits
Compression mode            : Lossless / Lossy
Delay relative to video     : 1s 300ms
Title                       : DTS-HD MA 7.1 - AVO, D.Esarev (uncens)
Language                    : Russian
Default                     : No
Forced                      : No
Audio #5
ID                          : 6
Format                      : DTS
Format/Info                 : Digital Theater Systems
Format profile              : MA / Core
Mode                        : 16
Format settings, Endianness : Big
Codec ID                    : A_DTS
Duration                    : 2h 0mn
Bit rate mode               : Variable
Bit rate                    : Unknown / 1 509 Kbps
Channel(s)                  : 8 channels / 6 channels
Channel positions           : Front: L C R, Side: L R, Back: L R, LFE / Front: L C R, Side: L R, LFE
Sampling rate               : 48.0 KHz
Bit depth                   : 16 bits
Compression mode            : Lossless / Lossy
Delay relative to video     : 1s 300ms
Title                       : DTS-HD MA 7.1 - AVO, M.Yarotskiy
Language                    : Russian
Default                     : No
Forced                      : No
Audio #6
ID                          : 7
Format                      : AC-3
Format/Info                 : Audio Coding 3
Mode extension              : CM (complete main)
Format settings, Endianness : Big
Codec ID                    : A_AC3
Duration                    : 2h 0mn
Bit rate mode               : Constant
Bit rate                    : 640 Kbps
Channel(s)                  : 6 channels
Channel positions           : Front: L C R, Side: L R, LFE
Sampling rate               : 48.0 KHz
Bit depth                   : 16 bits
Compression mode            : Lossy
Delay relative to video     : 1s 300ms
Stream size                 : 551 MiB (1%)
Title                       : AC3 5.1 @ 640 kbps - DUB, Blu-ray CEE
Language                    : Ukrainian
Default                     : No
Forced                      : No
Text #1
ID                          : 8
Format                      : UTF-8
Codec ID                    : S_TEXT/UTF8
Codec ID/Info               : UTF-8 Plain Text
Title                       : Forced, iTunes
Language                    : Russian
Default                     : No
Forced                      : No
Text #2
ID                          : 9
Format                      : UTF-8
Codec ID                    : S_TEXT/UTF8
Codec ID/Info               : UTF-8 Plain Text
Title                       : iTunes
Language                    : Russian
Default                     : No
Forced                      : No
Text #3
ID                          : 10
Format                      : UTF-8
Codec ID                    : S_TEXT/UTF8
Codec ID/Info               : UTF-8 Plain Text
Title                       : iTunes
Language                    : Ukrainian
Default                     : No
Forced                      : No
Text #4
ID                          : 11
Format                      : UTF-8
Codec ID                    : S_TEXT/UTF8
Codec ID/Info               : UTF-8 Plain Text
Title                       : iTunes
Language                    : English
Default                     : No
Forced                      : No
Menu
00:00:00.000                : en:1
00:03:37.000                : en:2
00:09:55.000                : en:3
00:13:50.000                : en:4
00:21:53.000                : en:5
00:31:16.000                : en:6
00:37:18.000                : en:7
00:46:56.000                : en:8
00:54:34.000                : en:9
01:06:09.000                : en:10
01:09:54.000                : en:11
01:16:44.000                : en:12
01:24:55.000                : en:13
01:31:30.000                : en:14
01:42:31.000                : en:15
01:49:58.000                : en:16
4K WEB-DL                                                Blu-ray



Код:
General
Unique ID                   : 212940422551583849864666730099488211766 (0xA032D567DFFFAD6194958568F62E4336)
Complete name               : D:\Downloads\Better.Call.Saul.S01.2160p.WEB-DL.3xRus.Eng\Better.Call.Saul.S01E01.2160p.WEB-DL.3xRus.Eng.mkv
Format                      : Matroska
Format version              : Version 4 / Version 2
File size                   : 20.0 GiB
Duration                    : 53mn 6s
Overall bit rate            : 54.0 Mbps
Movie name                  : Better Call Saul - Season 1, Episode 1: Uno (2015)
Encoded date                : UTC 2015-10-04 13:50:10
Writing application         : mkvmerge v8.3.0 ('Over the Horizon') 64bit
Writing library             : libebml v1.3.1 + libmatroska v1.4.2
Attachements                : DOMCASL.TTF / Tahoma Bold.ttf / Tahoma.ttf / Verdana.ttf
DURATION                    : 00:49:28.110000000
NUMBER_OF_FRAMES            : 647
NUMBER_OF_BYTES             : 57431
_STATISTICS_WRITING_APP     : mkvmerge v8.3.0 ('Over the Horizon') 64bit
_STATISTICS_WRITING_DATE_UT : 2015-10-04 13:50:10
_STATISTICS_TAGS            : BPS DURATION NUMBER_OF_FRAMES NUMBER_OF_BYTES
Video
ID                          : 1
Format                      : HEVC
Format/Info                 : High Efficiency Video Coding
Codec ID                    : V_MPEGH/ISO/HEVC
Duration                    : 53mn 6s
Width                       : 3 840 pixels
Height                      : 2 160 pixels
Display aspect ratio        : 16:9
Frame rate mode             : Constant
Frame rate                  : 23.976 fps
Title                       : Better Call Saul - Season 1, Episode 1: Uno (2015)
Language                    : English
Default                     : Yes
Forced                      : No
Audio #1
ID                          : 2
Format                      : DTS
Format/Info                 : Digital Theater Systems
Mode                        : 16
Format settings, Endianness : Big
Codec ID                    : A_DTS
Duration                    : 53mn 6s
Bit rate mode               : Constant
Bit rate                    : 1 509 Kbps
Channel(s)                  : 6 channels
Channel positions           : Front: L C R, Side: L R, LFE
Sampling rate               : 48.0 KHz
Bit depth                   : 24 bits
Compression mode            : Lossy
Delay relative to video     : 8ms
Stream size                 : 573 MiB (3%)
Title                       : DTS 5.1 @ 1536 kbps - Blu-ray
Language                    : English
Default                     : Yes
Forced                      : Yes
Audio #2
ID                          : 3
Format                      : AC-3
Format/Info                 : Audio Coding 3
Mode extension              : CM (complete main)
Format settings, Endianness : Big
Codec ID                    : A_AC3
Duration                    : 53mn 6s
Bit rate mode               : Constant
Bit rate                    : 640 Kbps
Channel(s)                  : 6 channels
Channel positions           : Front: L C R, Side: L R, LFE
Sampling rate               : 48.0 KHz
Bit depth                   : 16 bits
Compression mode            : Lossy
Delay relative to video     : 24ms
Stream size                 : 243 MiB (1%)
Title                       : AC3 5.1 @ 640 kbps - MVO, LostFilmTV
Language                    : Russian
Default                     : No
Forced                      : No
Audio #3
ID                          : 4
Format                      : AC-3
Format/Info                 : Audio Coding 3
Mode extension              : CM (complete main)
Format settings, Endianness : Big
Codec ID                    : A_AC3
Duration                    : 53mn 6s
Bit rate mode               : Constant
Bit rate                    : 640 Kbps
Channel(s)                  : 6 channels
Channel positions           : Front: L C R, Side: L R, LFE
Sampling rate               : 48.0 KHz
Bit depth                   : 16 bits
Compression mode            : Lossy
Delay relative to video     : 24ms
Stream size                 : 243 MiB (1%)
Title                       : AC3 5.1 @ 640 kbps - DVO, Kubik V Kube
Language                    : Russian
Default                     : No
Forced                      : No
Audio #4
ID                          : 5
Format                      : AC-3
Format/Info                 : Audio Coding 3
Codec ID                    : A_AC3
Duration                    : 53mn 6s
Channel(s)                  : 6 channels
Sampling rate               : 48.0 KHz
Compression mode            : Lossy
Title                       : AC3 5.1 @ 640 kbps - MVO, NewStudioTV
Language                    : Russian
Text #1
ID                          : 7
Format                      : UTF-8
Codec ID                    : S_TEXT/UTF8
Codec ID/Info               : UTF-8 Plain Text
Language                    : English
Default                     : No
Forced                      : No
Text #2
ID                          : 8
Format                      : UTF-8
Codec ID                    : S_TEXT/UTF8
Codec ID/Info               : UTF-8 Plain Text
Title                       : SDH
Language                    : English
Default                     : No
Forced                      : No
Text #3
ID                          : 5
Delay relative to video     : 24ms
Title                       : Forced, ASS
Language                    : Russian
Default                     : Yes
Forced                      : Yes
Text #4
ID                          : 6
Format                      : ASS
Codec ID                    : S_TEXT/ASS
Codec ID/Info               : Advanced Sub Station Alpha
Compression mode            : Lossless
Title                       : notabenoid, ASS
Language                    : Russian
Default                     : No
Forced                      : No
Menu
00:00:00.000                : en:00:00:00.000
00:06:17.210                : en:00:06:17.210
00:23:38.500                : en:00:23:38.500
00:30:35.584                : en:00:30:35.584
00:39:22.777                : en:00:39:22.777
00:45:31.938                : en:00:45:31.938
00:52:20.346                : en:00:52:20.346
4K WEB-DL                                                Blu-ray




_________________
[Профиль]  [ЛС] 

myhnet

Морской Волк

1

Пост 15-Ноя-2015 10:08 (спустя 1 месяц 2 дня)

[Q] 

Ну вообще начать то можно и сейчас. У кого есть оборудование и возможности пусть смотрят 4к
[Профиль]  [ЛС] 
Показать сообщения:    
Ответить на тему

Текущее время: Сегодня 14:15

Часовой пояс: GMT + 4



Вы не можете начинать темы
Вы не можете отвечать на сообщения
Вы не можете редактировать свои сообщения
Вы не можете удалять свои сообщения
Вы не можете голосовать в опросах
Вы не можете прикреплять файлы к сообщениям
Вы не можете скачивать файлы

▼ Вниз