Уважаемый Гость!
Вы можете поддержать проект и зарегистрироваться у наших партнеров - онлайн-стратегия MyLands. При регистрации в игре Вы получите код, который сможете активировать после регистрации на pirat.ca и получить 1000 дублонов.

Ваш код:
5482a7ad194f2534e2ea418a91fb409e57269e3b
 
     

(Trance) Emma Hewitt - Burn the Sky Down (Armada Music (ARMA329)) - 2012, FLAC (tracks+.cue), lossless

Ответить на тему
 
Автор
Сообщение

Пост 25-Июн-2012 16:18

[Q] 

-B1ack-



Emma Hewitt - Burn The Sky Down


Год выпуска: 2012
Жанр: Trance
Лейбл издания: Armada Music
Страна-производитель диска: Netherlands
Тип альбома: tracks+.cue
Номер по каталогу: ARMA329
Продолжительность: I 01:04:03 + II 01:07:51
02:11:54
Источник (релизер): рип оригинального диска(ов)
Страна: Australia
Формат:

Битрейт аудио: lossless
Тип рипа: tracks+.cue



I
01. Burn the Sky Down
02. Colours
03. Miss You Paradise
04. These Days Are Ours
05. Foolish Boy
06. Rewind
07.Still Remember You (Stay Forever)
08. Can't Turn Around Now
09. Crucify
10. This Picture
11. State That I'm In
12. Circles (with 16 Bit Lolitas)
13. These Days Are Ours (Zetandel Chill Out Mix)
14. State That I'm In (16 Bit Lolitas Remix)
15. Circles (Blumpy Remix)
16. Miss You Paradise (Strings & Acoustic Version)
17. Colours (Strings & Vocals Mix)


II
01. Colours (Armin van Buuren Remix)
02. Miss You Paradise (Shogun Remix)
03. Foolish Boy (Ivan Gough & Luke Chable Remix)
04. These Days Are Ours (Antillas & Dankann Remix)
05. Crucify (Arnej Remix)
06. This Picture (MaRLo Remix)
07. Rewind (Dabruck & Klein Remix)
08. Miss You Paradise (Morgan Page Remix)
09. Foolish Boy (John O'Callaghan Remix)
10. Rewind (KATFYR Remix)
11. Colours (Cosmic Gate Remix)
12. Circles (Pedro del Mar & DoubleV Remix) (with 16 Bit Lolitas)
13. Crucify (MaRLo Remix)
14. Colours (Jerome Isma-Ae Remix)
15. Rewind (tyDi Remix)
16. Foolish Boy (KATFYR Remix)
17. Miss You Paradise (Venom One Remix)

X Lossless Decoder version 20130407 (143.0)
XLD extraction logfile from 2013-05-06 19:03:08 +0400
Emma Hewitt / Burn the Sky Down
Used drive : OPTIARC DVD RW AD-5630A (revision 1CHQ)
Media type : Pressed CD
Ripper mode : XLD Secure Ripper
Disable audio cache : OK for the drive with a cache less than 1375KiB
Make use of C2 pointers : NO
Read offset correction : 48
Max retry count : 20
Gap status : Analyzed, Appended
TOC of the extracted CD
Track | Start | Length | Start sector | End sector
---------------------------------------------------------
1 | 00:00:00 | 01:43:63 | 0 | 7787
2 | 01:43:63 | 04:01:01 | 7788 | 25863
3 | 05:44:64 | 03:31:11 | 25864 | 41699
4 | 09:16:00 | 03:46:19 | 41700 | 58668
5 | 13:02:19 | 04:15:01 | 58669 | 77794
6 | 17:17:20 | 03:20:14 | 77795 | 92808
7 | 20:37:34 | 04:23:61 | 92809 | 112594
8 | 25:01:20 | 01:51:52 | 112595 | 120971
9 | 26:52:72 | 03:49:52 | 120972 | 138198
10 | 30:42:49 | 03:29:27 | 138199 | 153900
11 | 34:12:01 | 02:19:63 | 153901 | 164388
12 | 36:31:64 | 05:55:72 | 164389 | 191085
13 | 42:27:61 | 05:15:26 | 191086 | 214736
14 | 47:43:12 | 05:20:68 | 214737 | 238804
15 | 53:04:05 | 03:35:06 | 238805 | 254935
16 | 56:39:11 | 03:33:35 | 254936 | 270945
17 | 60:12:46 | 03:50:43 | 270946 | 288238
AccurateRip Summary
Disc not found in AccurateRip DB.
All Tracks
Album gain : -7.84 dB
Peak : 0.964935
Statistics
Read error : 0
Jitter error (maybe fixed) : 0
Retry sector count : 0
Damaged sector count : 0
Track 01
Filename : /Users/user/Downloads/Emma Hewitt - Burn the Sky Down (ARMA329)/01-01.Burn the Sky Down.flac
Pre-gap length : 00:02:00
Track gain : -5.81 dB
Peak : 0.961060
CRC32 hash (test run) : DE46D85E
CRC32 hash : DE46D85E
CRC32 hash (skip zero) : F15AD077
AccurateRip v1 signature : F2BEA5B3
AccurateRip v2 signature : 64C07A5F
->Track not present in AccurateRip database.
Statistics
Read error : 0
Jitter error (maybe fixed) : 0
Retry sector count : 0
Damaged sector count : 0
Track 02
Filename : /Users/user/Downloads/Emma Hewitt - Burn the Sky Down (ARMA329)/01-02.Colours.flac
Track gain : -8.19 dB
Peak : 0.964752
CRC32 hash (test run) : EEEF6F9D
CRC32 hash : EEEF6F9D
CRC32 hash (skip zero) : 3386B17B
AccurateRip v1 signature : AEFE04EC
AccurateRip v2 signature : F1FF14C3
->Track not present in AccurateRip database.
Statistics
Read error : 0
Jitter error (maybe fixed) : 0
Retry sector count : 0
Damaged sector count : 0
Track 03
Filename : /Users/user/Downloads/Emma Hewitt - Burn the Sky Down (ARMA329)/01-03.Miss You Paradise.flac
Track gain : -7.52 dB
Peak : 0.964722
CRC32 hash (test run) : 9499EB94
CRC32 hash : 9499EB94
CRC32 hash (skip zero) : 9A8761DD
AccurateRip v1 signature : C36BB199
AccurateRip v2 signature : 2C663764
->Track not present in AccurateRip database.
Statistics
Read error : 0
Jitter error (maybe fixed) : 0
Retry sector count : 0
Damaged sector count : 0
Track 04
Filename : /Users/user/Downloads/Emma Hewitt - Burn the Sky Down (ARMA329)/01-04.These Days Are Ours.flac
Track gain : -8.87 dB
Peak : 0.964905
CRC32 hash (test run) : 08EC392B
CRC32 hash : 08EC392B
CRC32 hash (skip zero) : A67C83F5
AccurateRip v1 signature : D729AA12
AccurateRip v2 signature : E71DA66E
->Track not present in AccurateRip database.
Statistics
Read error : 0
Jitter error (maybe fixed) : 0
Retry sector count : 0
Damaged sector count : 0
Track 05
Filename : /Users/user/Downloads/Emma Hewitt - Burn the Sky Down (ARMA329)/01-05.Foolish Boy.flac
Track gain : -7.86 dB
Peak : 0.964905
CRC32 hash (test run) : 755329B7
CRC32 hash : 755329B7
CRC32 hash (skip zero) : 36739A19
AccurateRip v1 signature : 2466C7ED
AccurateRip v2 signature : 9102E5EB
->Track not present in AccurateRip database.
Statistics
Read error : 0
Jitter error (maybe fixed) : 0
Retry sector count : 0
Damaged sector count : 0
Track 06
Filename : /Users/user/Downloads/Emma Hewitt - Burn the Sky Down (ARMA329)/01-06.Rewind.flac
Track gain : -8.16 dB
Peak : 0.964935
CRC32 hash (test run) : 067557D3
CRC32 hash : 067557D3
CRC32 hash (skip zero) : 28B53460
AccurateRip v1 signature : C3836AE5
AccurateRip v2 signature : 76E34DB6
->Track not present in AccurateRip database.
Statistics
Read error : 0
Jitter error (maybe fixed) : 0
Retry sector count : 0
Damaged sector count : 0
Track 07
Filename : /Users/user/Downloads/Emma Hewitt - Burn the Sky Down (ARMA329)/01-07.Still Remember You (Stay Forever).flac
Track gain : -7.69 dB
Peak : 0.964905
CRC32 hash (test run) : EA149559
CRC32 hash : EA149559
CRC32 hash (skip zero) : 1ABEAF4C
AccurateRip v1 signature : A10F03CE
AccurateRip v2 signature : 4214BB0D
->Track not present in AccurateRip database.
Statistics
Read error : 0
Jitter error (maybe fixed) : 0
Retry sector count : 0
Damaged sector count : 0
Track 08
Filename : /Users/user/Downloads/Emma Hewitt - Burn the Sky Down (ARMA329)/01-08.Can’t Turn Around Now.flac
Track gain : -6.19 dB
Peak : 0.964844
CRC32 hash (test run) : CD5F7C55
CRC32 hash : CD5F7C55
CRC32 hash (skip zero) : 913CF154
AccurateRip v1 signature : D243E1D9
AccurateRip v2 signature : EB2631FC
->Track not present in AccurateRip database.
Statistics
Read error : 0
Jitter error (maybe fixed) : 0
Retry sector count : 0
Damaged sector count : 0
Track 09
Filename : /Users/user/Downloads/Emma Hewitt - Burn the Sky Down (ARMA329)/01-09.Crucify.flac
Track gain : -8.14 dB
Peak : 0.964935
CRC32 hash (test run) : 425F98AE
CRC32 hash : 425F98AE
CRC32 hash (skip zero) : 0E9A8709
AccurateRip v1 signature : 870189A4
AccurateRip v2 signature : 657C062A
->Track not present in AccurateRip database.
Statistics
Read error : 0
Jitter error (maybe fixed) : 0
Retry sector count : 0
Damaged sector count : 0
Track 10
Filename : /Users/user/Downloads/Emma Hewitt - Burn the Sky Down (ARMA329)/01-10.This Picture.flac
Track gain : -8.20 dB
Peak : 0.964935
CRC32 hash (test run) : AA348C0B
CRC32 hash : AA348C0B
CRC32 hash (skip zero) : 05552ECE
AccurateRip v1 signature : A4040DF0
AccurateRip v2 signature : D1DE92D5
->Track not present in AccurateRip database.
Statistics
Read error : 0
Jitter error (maybe fixed) : 0
Retry sector count : 0
Damaged sector count : 0
Track 11
Filename : /Users/user/Downloads/Emma Hewitt - Burn the Sky Down (ARMA329)/01-11.State That I’m In.flac
Track gain : -7.61 dB
Peak : 0.964874
CRC32 hash (test run) : A1925B20
CRC32 hash : A1925B20
CRC32 hash (skip zero) : AC570F76
AccurateRip v1 signature : C95A91DF
AccurateRip v2 signature : BD3891A3
->Track not present in AccurateRip database.
Statistics
Read error : 0
Jitter error (maybe fixed) : 0
Retry sector count : 0
Damaged sector count : 0
Track 12
Filename : /Users/user/Downloads/Emma Hewitt - Burn the Sky Down (ARMA329)/01-12.Circles (with 16 Bit Lolitas).flac
Track gain : -6.66 dB
Peak : 0.964844
CRC32 hash (test run) : DA210A9F
CRC32 hash : DA210A9F
CRC32 hash (skip zero) : 77A48259
AccurateRip v1 signature : 6D693067
AccurateRip v2 signature : 67B7E394
->Track not present in AccurateRip database.
Statistics
Read error : 0
Jitter error (maybe fixed) : 0
Retry sector count : 0
Damaged sector count : 0
Track 13
Filename : /Users/user/Downloads/Emma Hewitt - Burn the Sky Down (ARMA329)/01-13.These Days Are Ours (Zetandel Chill Out Mix).flac
Track gain : -6.15 dB
Peak : 0.964935
CRC32 hash (test run) : A45DC84A
CRC32 hash : A45DC84A
CRC32 hash (skip zero) : 41833ED6
AccurateRip v1 signature : 1BC0E427
AccurateRip v2 signature : 5C2557FD
->Track not present in AccurateRip database.
Statistics
Read error : 0
Jitter error (maybe fixed) : 0
Retry sector count : 0
Damaged sector count : 0
Track 14
Filename : /Users/user/Downloads/Emma Hewitt - Burn the Sky Down (ARMA329)/01-14.State That I’m In (16 Bit Lolitas Remix).flac
Track gain : -7.61 dB
Peak : 0.964844
CRC32 hash (test run) : 90C60C5B
CRC32 hash : 90C60C5B
CRC32 hash (skip zero) : 0E6D4754
AccurateRip v1 signature : EEFBA28C
AccurateRip v2 signature : CA4B6550
->Track not present in AccurateRip database.
Statistics
Read error : 0
Jitter error (maybe fixed) : 0
Retry sector count : 0
Damaged sector count : 0
Track 15
Filename : /Users/user/Downloads/Emma Hewitt - Burn the Sky Down (ARMA329)/01-15.Circles (Blumpy Remix).flac
Track gain : -9.10 dB
Peak : 0.964874
CRC32 hash (test run) : D25E34BA
CRC32 hash : D25E34BA
CRC32 hash (skip zero) : D20DF081
AccurateRip v1 signature : 753809CC
AccurateRip v2 signature : FC45C757
->Track not present in AccurateRip database.
Statistics
Read error : 0
Jitter error (maybe fixed) : 0
Retry sector count : 0
Damaged sector count : 0
Track 16
Filename : /Users/user/Downloads/Emma Hewitt - Burn the Sky Down (ARMA329)/01-16.Miss You Paradise (Strings & Acoustic Version).flac
Track gain : -7.44 dB
Peak : 0.916504
CRC32 hash (test run) : 1A04AE73
CRC32 hash : 1A04AE73
CRC32 hash (skip zero) : C30165F0
AccurateRip v1 signature : E5CF0B3E
AccurateRip v2 signature : BE31C0E2
->Track not present in AccurateRip database.
Statistics
Read error : 0
Jitter error (maybe fixed) : 0
Retry sector count : 0
Damaged sector count : 0
Track 17
Filename : /Users/user/Downloads/Emma Hewitt - Burn the Sky Down (ARMA329)/01-17.Colours (Strings & Acoustic Version).flac
Track gain : -6.93 dB
Peak : 0.964722
CRC32 hash (test run) : 1E334CA7
CRC32 hash : 1E334CA7
CRC32 hash (skip zero) : D6D1E631
AccurateRip v1 signature : A97FAABB
AccurateRip v2 signature : 554B1998
->Track not present in AccurateRip database.
Statistics
Read error : 0
Jitter error (maybe fixed) : 0
Retry sector count : 0
Damaged sector count : 0
No errors occurred
End of status report
X Lossless Decoder version 20130407 (143.0)
XLD extraction logfile from 2013-05-06 19:43:14 +0400
Emma Hewitt / Burn the Sky Down
Used drive : OPTIARC DVD RW AD-5630A (revision 1CHQ)
Media type : Pressed CD
Ripper mode : XLD Secure Ripper
Disable audio cache : OK for the drive with a cache less than 1375KiB
Make use of C2 pointers : NO
Read offset correction : 48
Max retry count : 20
Gap status : Analyzed, Appended
TOC of the extracted CD
Track | Start | Length | Start sector | End sector
---------------------------------------------------------
1 | 00:00:00 | 02:39:51 | 0 | 11975
2 | 02:39:51 | 03:29:06 | 11976 | 27656
3 | 06:08:57 | 04:35:72 | 27657 | 48353
4 | 10:44:54 | 04:03:73 | 48354 | 66651
5 | 14:48:52 | 04:14:04 | 66652 | 85705
6 | 19:02:56 | 05:35:42 | 85706 | 110872
7 | 24:38:23 | 03:30:19 | 110873 | 126641
8 | 28:08:42 | 03:37:74 | 126642 | 142990
9 | 31:46:41 | 04:15:19 | 142991 | 162134
10 | 36:01:60 | 04:04:52 | 162135 | 180486
11 | 40:06:37 | 03:35:55 | 180487 | 196666
12 | 43:42:17 | 05:21:10 | 196667 | 220751
13 | 49:03:27 | 04:10:16 | 220752 | 239517
14 | 53:13:43 | 03:47:56 | 239518 | 256598
15 | 57:01:24 | 03:48:44 | 256599 | 273742
16 | 60:49:68 | 03:32:47 | 273743 | 289689
17 | 64:22:40 | 03:29:12 | 289690 | 305376
AccurateRip Summary (DiscID: 0029e5db-02170942-ec0fe711)
Track 01 : OK (v2, confidence 1/1)
Track 02 : OK (v2, confidence 1/1)
Track 03 : OK (v2, confidence 1/1)
Track 04 : OK (v2, confidence 1/1)
Track 05 : OK (v2, confidence 1/1)
Track 06 : OK (v2, confidence 1/1)
Track 07 : OK (v2, confidence 1/1)
Track 08 : OK (v2, confidence 1/1)
Track 09 : OK (v2, confidence 1/1)
Track 10 : OK (v2, confidence 1/1)
Track 11 : OK (v2, confidence 1/1)
Track 12 : OK (v2, confidence 1/1)
Track 13 : OK (v2, confidence 1/1)
Track 14 : OK (v2, confidence 1/1)
Track 15 : OK (v2, confidence 1/1)
Track 16 : OK (v2, confidence 1/1)
Track 17 : OK (v2, confidence 1/1)
->All tracks accurately ripped.
All Tracks
Album gain : -9.09 dB
Peak : 0.968536
Statistics
Read error : 0
Jitter error (maybe fixed) : 0
Retry sector count : 0
Damaged sector count : 0
Track 01
Filename : /Users/user/Downloads/Emma Hewitt - Burn the Sky Down (ARMA329)/02-01.Colours (Armin van Buuren Remix).flac
Pre-gap length : 00:02:00
Track gain : -7.17 dB
Peak : 0.961060
CRC32 hash (test run) : C37E56A4
CRC32 hash : C37E56A4
CRC32 hash (skip zero) : 83BA7985
AccurateRip v1 signature : 7A1F0C34
AccurateRip v2 signature : 7E8EE8C3
->Accurately ripped (v2, confidence 1/1)
Statistics
Read error : 0
Jitter error (maybe fixed) : 0
Retry sector count : 0
Damaged sector count : 0
Track 02
Filename : /Users/user/Downloads/Emma Hewitt - Burn the Sky Down (ARMA329)/02-02.Miss You Paradise (Shogun Remix).flac
Track gain : -9.21 dB
Peak : 0.960968
CRC32 hash (test run) : B9684B75
CRC32 hash : B9684B75
CRC32 hash (skip zero) : 41E106B3
AccurateRip v1 signature : 2FECEE22
AccurateRip v2 signature : 92B38231
->Accurately ripped (v2, confidence 1/1)
Statistics
Read error : 0
Jitter error (maybe fixed) : 0
Retry sector count : 0
Damaged sector count : 0
Track 03
Filename : /Users/user/Downloads/Emma Hewitt - Burn the Sky Down (ARMA329)/02-03.Foolish Boy (Ivan Gough & Luke Chable Remix).flac
Track gain : -10.87 dB
Peak : 0.827515
CRC32 hash (test run) : E590D015
CRC32 hash : E590D015
CRC32 hash (skip zero) : D06D58AA
AccurateRip v1 signature : 35F6A3CE
AccurateRip v2 signature : 856D3922
->Accurately ripped (v2, confidence 1/1)
Statistics
Read error : 0
Jitter error (maybe fixed) : 0
Retry sector count : 0
Damaged sector count : 0
Track 04
Filename : /Users/user/Downloads/Emma Hewitt - Burn the Sky Down (ARMA329)/02-04.These Days Are Ours (Antillas & Darkann Remix).flac
Track gain : -7.55 dB
Peak : 0.960876
CRC32 hash (test run) : 3EDE2BE3
CRC32 hash : 3EDE2BE3
CRC32 hash (skip zero) : 689FFDFC
AccurateRip v1 signature : 2D35AB0F
AccurateRip v2 signature : 17089609
->Accurately ripped (v2, confidence 1/1)
Statistics
Read error : 0
Jitter error (maybe fixed) : 0
Retry sector count : 0
Damaged sector count : 0
Track 05
Filename : /Users/user/Downloads/Emma Hewitt - Burn the Sky Down (ARMA329)/02-05.Crucify (Arnej Remix).flac
Track gain : -7.60 dB
Peak : 0.803040
CRC32 hash (test run) : D8718C3A
CRC32 hash : D8718C3A
CRC32 hash (skip zero) : 6667DD2B
AccurateRip v1 signature : 2F8225E1
AccurateRip v2 signature : 8F3EE14C
->Accurately ripped (v2, confidence 1/1)
Statistics
Read error : 0
Jitter error (maybe fixed) : 0
Retry sector count : 0
Damaged sector count : 0
Track 06
Filename : /Users/user/Downloads/Emma Hewitt - Burn the Sky Down (ARMA329)/02-06.This Picture (MaRLo Remix).flac
Track gain : -8.87 dB
Peak : 0.961060
CRC32 hash (test run) : 905919BB
CRC32 hash : 905919BB
CRC32 hash (skip zero) : F025753A
AccurateRip v1 signature : 4474EA0C
AccurateRip v2 signature : 1F818A4C
->Accurately ripped (v2, confidence 1/1)
Statistics
Read error : 0
Jitter error (maybe fixed) : 0
Retry sector count : 0
Damaged sector count : 0
Track 07
Filename : /Users/user/Downloads/Emma Hewitt - Burn the Sky Down (ARMA329)/02-07.Rewind (Dabruck & Klein Remix).flac
Track gain : -7.09 dB
Peak : 0.961029
CRC32 hash (test run) : C2E3DD7A
CRC32 hash : C2E3DD7A
CRC32 hash (skip zero) : 888D1096
AccurateRip v1 signature : A52683D9
AccurateRip v2 signature : B6F54579
->Accurately ripped (v2, confidence 1/1)
Statistics
Read error : 0
Jitter error (maybe fixed) : 0
Retry sector count : 0
Damaged sector count : 0
Track 08
Filename : /Users/user/Downloads/Emma Hewitt - Burn the Sky Down (ARMA329)/02-08.Miss You Paradise (Morgan Page Remix).flac
Track gain : -8.29 dB
Peak : 0.961060
CRC32 hash (test run) : 1BBF463A
CRC32 hash : 1BBF463A
CRC32 hash (skip zero) : 451E36DB
AccurateRip v1 signature : ED78E8DE
AccurateRip v2 signature : 2FBED988
->Accurately ripped (v2, confidence 1/1)
Statistics
Read error : 0
Jitter error (maybe fixed) : 0
Retry sector count : 0
Damaged sector count : 0
Track 09
Filename : /Users/user/Downloads/Emma Hewitt - Burn the Sky Down (ARMA329)/02-09.Foolish Boy (John O’Callaghan Remix).flac
Track gain : -7.83 dB
Peak : 0.968536
CRC32 hash (test run) : 4151DBE4
CRC32 hash : 4151DBE4
CRC32 hash (skip zero) : 20CCFE28
AccurateRip v1 signature : C2743953
AccurateRip v2 signature : D2DA6325
->Accurately ripped (v2, confidence 1/1)
Statistics
Read error : 0
Jitter error (maybe fixed) : 0
Retry sector count : 0
Damaged sector count : 0
Track 10
Filename : /Users/user/Downloads/Emma Hewitt - Burn the Sky Down (ARMA329)/02-10.Rewind (KATFYR Remix).flac
Track gain : -10.53 dB
Peak : 0.960999
CRC32 hash (test run) : 48CF7776
CRC32 hash : 48CF7776
CRC32 hash (skip zero) : 49B93BD8
AccurateRip v1 signature : 23B4C128
AccurateRip v2 signature : 3F7D7602
->Accurately ripped (v2, confidence 1/1)
Statistics
Read error : 0
Jitter error (maybe fixed) : 0
Retry sector count : 0
Damaged sector count : 0
Track 11
Filename : /Users/user/Downloads/Emma Hewitt - Burn the Sky Down (ARMA329)/02-11.Colours (Cosmic Gate Remix).flac
Track gain : -8.27 dB
Peak : 0.961060
CRC32 hash (test run) : BCA501E2
CRC32 hash : BCA501E2
CRC32 hash (skip zero) : 6A7B4CC5
AccurateRip v1 signature : D4F19DD7
AccurateRip v2 signature : 0805EAFE
->Accurately ripped (v2, confidence 1/1)
Statistics
Read error : 0
Jitter error (maybe fixed) : 0
Retry sector count : 0
Damaged sector count : 0
Track 12
Filename : /Users/user/Downloads/Emma Hewitt - Burn the Sky Down (ARMA329)/02-12.Circles (Pedro del Mar & DoubleV Remix) (with 16 Bit Lolitas).flac
Track gain : -7.84 dB
Peak : 0.961060
CRC32 hash (test run) : 80563C36
CRC32 hash : 80563C36
CRC32 hash (skip zero) : 416C520F
AccurateRip v1 signature : B394481B
AccurateRip v2 signature : A6CE168B
->Accurately ripped (v2, confidence 1/1)
Statistics
Read error : 0
Jitter error (maybe fixed) : 0
Retry sector count : 0
Damaged sector count : 0
Track 13
Filename : /Users/user/Downloads/Emma Hewitt - Burn the Sky Down (ARMA329)/02-13.Crucify (MaRLo Remix).flac
Track gain : -8.87 dB
Peak : 0.961060
CRC32 hash (test run) : EF9B1C2F
CRC32 hash : EF9B1C2F
CRC32 hash (skip zero) : D3CDA149
AccurateRip v1 signature : 1A64175D
AccurateRip v2 signature : DE556BCC
->Accurately ripped (v2, confidence 1/1)
Statistics
Read error : 0
Jitter error (maybe fixed) : 0
Retry sector count : 0
Damaged sector count : 0
Track 14
Filename : /Users/user/Downloads/Emma Hewitt - Burn the Sky Down (ARMA329)/02-14.Colours (Jerome Isma-Ae Remix).flac
Track gain : -7.40 dB
Peak : 0.961060
CRC32 hash (test run) : BB810AAC
CRC32 hash : BB810AAC
CRC32 hash (skip zero) : 6CB847A8
AccurateRip v1 signature : 0345D402
AccurateRip v2 signature : 970A36BF
->Accurately ripped (v2, confidence 1/1)
Statistics
Read error : 0
Jitter error (maybe fixed) : 0
Retry sector count : 0
Damaged sector count : 0
Track 15
Filename : /Users/user/Downloads/Emma Hewitt - Burn the Sky Down (ARMA329)/02-15.Rewind (tyDi Remix).flac
Track gain : -7.12 dB
Peak : 0.968536
CRC32 hash (test run) : AF30659C
CRC32 hash : AF30659C
CRC32 hash (skip zero) : 6FD2CE6C
AccurateRip v1 signature : B3559023
AccurateRip v2 signature : 3592811F
->Accurately ripped (v2, confidence 1/1)
Statistics
Read error : 0
Jitter error (maybe fixed) : 0
Retry sector count : 0
Damaged sector count : 0
Track 16
Filename : /Users/user/Downloads/Emma Hewitt - Burn the Sky Down (ARMA329)/02-16.Foolish Boy (KATFYR Remix).flac
Track gain : -9.07 dB
Peak : 0.961060
CRC32 hash (test run) : D3110552
CRC32 hash : D3110552
CRC32 hash (skip zero) : B0361FE5
AccurateRip v1 signature : 4DAA77ED
AccurateRip v2 signature : 43C4D9D7
->Accurately ripped (v2, confidence 1/1)
Statistics
Read error : 0
Jitter error (maybe fixed) : 0
Retry sector count : 0
Damaged sector count : 0
Track 17
Filename : /Users/user/Downloads/Emma Hewitt - Burn the Sky Down (ARMA329)/02-17.Miss You Paradise (Venom One Remix).flac
Track gain : -8.50 dB
Peak : 0.930145
CRC32 hash (test run) : D479A791
CRC32 hash : D479A791
CRC32 hash (skip zero) : 7D358E58
AccurateRip v1 signature : EC8B5B8A
AccurateRip v2 signature : 763FA7E8
->Accurately ripped (v2, confidence 1/1)
Statistics
Read error : 0
Jitter error (maybe fixed) : 0
Retry sector count : 0
Damaged sector count : 0
No errors occurred
End of status report

TITLE "Burn the Sky Down"
PERFORMER "Emma Hewitt"
CATALOG 8718522008276
REM GENRE "Trance"
REM DATE "2012"
REM DISCNUMBER 1
REM TOTALDISCS 2
REM DISCID E70F0311
REM REPLAYGAIN_ALBUM_GAIN -7.84 dB
REM REPLAYGAIN_ALBUM_PEAK 0.964935
FILE "01-01.Burn the Sky Down.flac" WAVE
TRACK 01 AUDIO
TITLE "Burn the Sky Down"
PERFORMER "Emma Hewitt"
ISRC NLF711203236
REM REPLAYGAIN_TRACK_GAIN -5.81 dB
REM REPLAYGAIN_TRACK_PEAK 0.961060
INDEX 01 00:00:00
FILE "01-02.Colours.flac" WAVE
TRACK 02 AUDIO
TITLE "Colours"
PERFORMER "Emma Hewitt"
ISRC NLF711104572
REM REPLAYGAIN_TRACK_GAIN -8.19 dB
REM REPLAYGAIN_TRACK_PEAK 0.964752
INDEX 01 00:00:00
FILE "01-03.Miss You Paradise.flac" WAVE
TRACK 03 AUDIO
TITLE "Miss You Paradise"
PERFORMER "Emma Hewitt"
ISRC NLF711203126
REM REPLAYGAIN_TRACK_GAIN -7.52 dB
REM REPLAYGAIN_TRACK_PEAK 0.964722
INDEX 01 00:00:00
FILE "01-04.These Days Are Ours.flac" WAVE
TRACK 04 AUDIO
TITLE "These Days Are Ours"
PERFORMER "Emma Hewitt"
ISRC NLF711203240
REM REPLAYGAIN_TRACK_GAIN -8.87 dB
REM REPLAYGAIN_TRACK_PEAK 0.964905
INDEX 01 00:00:00
FILE "01-05.Foolish Boy.flac" WAVE
TRACK 05 AUDIO
TITLE "Foolish Boy"
PERFORMER "Emma Hewitt"
ISRC NLF711203241
REM REPLAYGAIN_TRACK_GAIN -7.86 dB
REM REPLAYGAIN_TRACK_PEAK 0.964905
INDEX 01 00:00:00
FILE "01-06.Rewind.flac" WAVE
TRACK 06 AUDIO
TITLE "Rewind"
PERFORMER "Emma Hewitt"
ISRC NLF711203242
REM REPLAYGAIN_TRACK_GAIN -8.16 dB
REM REPLAYGAIN_TRACK_PEAK 0.964935
INDEX 01 00:00:00
FILE "01-07.Still Remember You (Stay Forever).flac" WAVE
TRACK 07 AUDIO
TITLE "Still Remember You (Stay Forever)"
PERFORMER "Emma Hewitt"
ISRC NLF711203243
REM REPLAYGAIN_TRACK_GAIN -7.69 dB
REM REPLAYGAIN_TRACK_PEAK 0.964905
INDEX 01 00:00:00
FILE "01-08.Can’t Turn Around Now.flac" WAVE
TRACK 08 AUDIO
TITLE "Can’t Turn Around Now"
PERFORMER "Emma Hewitt"
ISRC NLF711203237
REM REPLAYGAIN_TRACK_GAIN -6.19 dB
REM REPLAYGAIN_TRACK_PEAK 0.964844
INDEX 01 00:00:00
FILE "01-09.Crucify.flac" WAVE
TRACK 09 AUDIO
TITLE "Crucify"
PERFORMER "Emma Hewitt"
ISRC NLF711203238
REM REPLAYGAIN_TRACK_GAIN -8.14 dB
REM REPLAYGAIN_TRACK_PEAK 0.964935
INDEX 01 00:00:00
FILE "01-10.This Picture.flac" WAVE
TRACK 10 AUDIO
TITLE "This Picture"
PERFORMER "Emma Hewitt"
ISRC NLF711203244
REM REPLAYGAIN_TRACK_GAIN -8.20 dB
REM REPLAYGAIN_TRACK_PEAK 0.964935
INDEX 01 00:00:00
FILE "01-11.State That I’m In.flac" WAVE
TRACK 11 AUDIO
TITLE "State That I’m In"
PERFORMER "Emma Hewitt"
ISRC NLF711203239
REM REPLAYGAIN_TRACK_GAIN -7.61 dB
REM REPLAYGAIN_TRACK_PEAK 0.964874
INDEX 01 00:00:00
FILE "01-12.Circles (with 16 Bit Lolitas).flac" WAVE
TRACK 12 AUDIO
TITLE "Circles (with 16 Bit Lolitas)"
PERFORMER "Emma Hewitt"
ISRC NLF711203245
REM REPLAYGAIN_TRACK_GAIN -6.66 dB
REM REPLAYGAIN_TRACK_PEAK 0.964844
INDEX 01 00:00:00
FILE "01-13.These Days Are Ours (Zetandel Chill Out Mix).flac" WAVE
TRACK 13 AUDIO
TITLE "These Days Are Ours (Zetandel Chill Out Mix)"
PERFORMER "Emma Hewitt"
ISRC NLF711203768
REM REPLAYGAIN_TRACK_GAIN -6.15 dB
REM REPLAYGAIN_TRACK_PEAK 0.964935
INDEX 01 00:00:00
FILE "01-14.State That I’m In (16 Bit Lolitas Remix).flac" WAVE
TRACK 14 AUDIO
TITLE "State That I’m In (16 Bit Lolitas Remix)"
PERFORMER "Emma Hewitt"
ISRC NLF711204119
REM REPLAYGAIN_TRACK_GAIN -7.61 dB
REM REPLAYGAIN_TRACK_PEAK 0.964844
INDEX 01 00:00:00
FILE "01-15.Circles (Blumpy Remix).flac" WAVE
TRACK 15 AUDIO
TITLE "Circles (Blumpy Remix)"
PERFORMER "Emma Hewitt"
ISRC NLF711204120
REM REPLAYGAIN_TRACK_GAIN -9.10 dB
REM REPLAYGAIN_TRACK_PEAK 0.964874
INDEX 01 00:00:00
FILE "01-16.Miss You Paradise (Strings & Acoustic Version).flac" WAVE
TRACK 16 AUDIO
TITLE "Miss You Paradise (Strings & Acoustic Version)"
PERFORMER "Emma Hewitt"
ISRC NLF711203210
REM REPLAYGAIN_TRACK_GAIN -7.44 dB
REM REPLAYGAIN_TRACK_PEAK 0.916504
INDEX 01 00:00:00
FILE "01-17.Colours (Strings & Acoustic Version).flac" WAVE
TRACK 17 AUDIO
TITLE "Colours (Strings & Acoustic Version)"
PERFORMER "Emma Hewitt"
ISRC NLF711200078
REM REPLAYGAIN_TRACK_GAIN -6.93 dB
REM REPLAYGAIN_TRACK_PEAK 0.964722
INDEX 01 00:00:00

TITLE "Burn the Sky Down"
PERFORMER "Emma Hewitt"
CATALOG 8718522008276
REM GENRE "Trance"
REM DATE "2012"
REM DISCNUMBER 2
REM TOTALDISCS 2
REM DISCID EC0FE711
REM REPLAYGAIN_ALBUM_GAIN -9.09 dB
REM REPLAYGAIN_ALBUM_PEAK 0.968536
FILE "02-01.Colours (Armin van Buuren Remix).flac" WAVE
TRACK 01 AUDIO
TITLE "Colours (Armin van Buuren Remix)"
PERFORMER "Emma Hewitt"
ISRC NLF711200075
REM REPLAYGAIN_TRACK_GAIN -7.17 dB
REM REPLAYGAIN_TRACK_PEAK 0.961060
INDEX 01 00:00:00
FILE "02-02.Miss You Paradise (Shogun Remix).flac" WAVE
TRACK 02 AUDIO
TITLE "Miss You Paradise (Shogun Remix)"
PERFORMER "Emma Hewitt"
ISRC NLF711203128
REM REPLAYGAIN_TRACK_GAIN -9.21 dB
REM REPLAYGAIN_TRACK_PEAK 0.960968
INDEX 01 00:00:00
FILE "02-03.Foolish Boy (Ivan Gough & Luke Chable Remix).flac" WAVE
TRACK 03 AUDIO
TITLE "Foolish Boy (Ivan Gough & Luke Chable Remix)"
PERFORMER "Emma Hewitt"
ISRC NLF711204121
REM REPLAYGAIN_TRACK_GAIN -10.87 dB
REM REPLAYGAIN_TRACK_PEAK 0.827515
INDEX 01 00:00:00
FILE "02-04.These Days Are Ours (Antillas & Darkann Remix).flac" WAVE
TRACK 04 AUDIO
TITLE "These Days Are Ours (Antillas & Darkann Remix)"
PERFORMER "Emma Hewitt"
ISRC NLF711204122
REM REPLAYGAIN_TRACK_GAIN -7.55 dB
REM REPLAYGAIN_TRACK_PEAK 0.960876
INDEX 01 00:00:00
FILE "02-05.Crucify (Arnej Remix).flac" WAVE
TRACK 05 AUDIO
TITLE "Crucify (Arnej Remix)"
PERFORMER "Emma Hewitt"
ISRC NLF711204123
REM REPLAYGAIN_TRACK_GAIN -7.60 dB
REM REPLAYGAIN_TRACK_PEAK 0.803040
INDEX 01 00:00:00
FILE "02-06.This Picture (MaRLo Remix).flac" WAVE
TRACK 06 AUDIO
TITLE "This Picture (MaRLo Remix)"
PERFORMER "Emma Hewitt"
ISRC NLF711204124
REM REPLAYGAIN_TRACK_GAIN -8.87 dB
REM REPLAYGAIN_TRACK_PEAK 0.961060
INDEX 01 00:00:00
FILE "02-07.Rewind (Dabruck & Klein Remix).flac" WAVE
TRACK 07 AUDIO
TITLE "Rewind (Dabruck & Klein Remix)"
PERFORMER "Emma Hewitt"
ISRC NLF711204125
REM REPLAYGAIN_TRACK_GAIN -7.09 dB
REM REPLAYGAIN_TRACK_PEAK 0.961029
INDEX 01 00:00:00
FILE "02-08.Miss You Paradise (Morgan Page Remix).flac" WAVE
TRACK 08 AUDIO
TITLE "Miss You Paradise (Morgan Page Remix)"
PERFORMER "Emma Hewitt"
ISRC NLF711203130
REM REPLAYGAIN_TRACK_GAIN -8.29 dB
REM REPLAYGAIN_TRACK_PEAK 0.961060
INDEX 01 00:00:00
FILE "02-09.Foolish Boy (John O’Callaghan Remix).flac" WAVE
TRACK 09 AUDIO
TITLE "Foolish Boy (John O’Callaghan Remix)"
PERFORMER "Emma Hewitt"
ISRC NLF711204127
REM REPLAYGAIN_TRACK_GAIN -7.83 dB
REM REPLAYGAIN_TRACK_PEAK 0.968536
INDEX 01 00:00:00
FILE "02-10.Rewind (KATFYR Remix).flac" WAVE
TRACK 10 AUDIO
TITLE "Rewind (KATFYR Remix)"
PERFORMER "Emma Hewitt"
ISRC NLF711204128
REM REPLAYGAIN_TRACK_GAIN -10.53 dB
REM REPLAYGAIN_TRACK_PEAK 0.960999
INDEX 01 00:00:00
FILE "02-11.Colours (Cosmic Gate Remix).flac" WAVE
TRACK 11 AUDIO
TITLE "Colours (Cosmic Gate Remix)"
PERFORMER "Emma Hewitt"
ISRC NLF711202353
REM REPLAYGAIN_TRACK_GAIN -8.27 dB
REM REPLAYGAIN_TRACK_PEAK 0.961060
INDEX 01 00:00:00
FILE "02-12.Circles (Pedro del Mar & DoubleV Remix) (with 16 Bit Lolitas).flac" WAVE
TRACK 12 AUDIO
TITLE "Circles (Pedro del Mar & DoubleV Remix) (with 16 Bit Lolitas)"
PERFORMER "Emma Hewitt"
ISRC NLF711204126
REM REPLAYGAIN_TRACK_GAIN -7.84 dB
REM REPLAYGAIN_TRACK_PEAK 0.961060
INDEX 01 00:00:00
FILE "02-13.Crucify (MaRLo Remix).flac" WAVE
TRACK 13 AUDIO
TITLE "Crucify (MaRLo Remix)"
PERFORMER "Emma Hewitt"
ISRC NLF711204129
REM REPLAYGAIN_TRACK_GAIN -8.87 dB
REM REPLAYGAIN_TRACK_PEAK 0.961060
INDEX 01 00:00:00
FILE "02-14.Colours (Jerome Isma-Ae Remix).flac" WAVE
TRACK 14 AUDIO
TITLE "Colours (Jerome Isma-Ae Remix)"
PERFORMER "Emma Hewitt"
ISRC NLF711201668
REM REPLAYGAIN_TRACK_GAIN -7.40 dB
REM REPLAYGAIN_TRACK_PEAK 0.961060
INDEX 01 00:00:00
FILE "02-15.Rewind (tyDi Remix).flac" WAVE
TRACK 15 AUDIO
TITLE "Rewind (tyDi Remix)"
PERFORMER "Emma Hewitt"
ISRC NLF711203849
REM REPLAYGAIN_TRACK_GAIN -7.12 dB
REM REPLAYGAIN_TRACK_PEAK 0.968536
INDEX 01 00:00:00
FILE "02-16.Foolish Boy (KATFYR Remix).flac" WAVE
TRACK 16 AUDIO
TITLE "Foolish Boy (KATFYR Remix)"
PERFORMER "Emma Hewitt"
ISRC NLF711204130
REM REPLAYGAIN_TRACK_GAIN -9.07 dB
REM REPLAYGAIN_TRACK_PEAK 0.961060
INDEX 01 00:00:00
FILE "02-17.Miss You Paradise (Venom One Remix).flac" WAVE
TRACK 17 AUDIO
TITLE "Miss You Paradise (Venom One Remix)"
PERFORMER "Emma Hewitt"
ISRC NLF711203207
REM REPLAYGAIN_TRACK_GAIN -8.50 dB
REM REPLAYGAIN_TRACK_PEAK 0.930145
INDEX 01 00:00:00

Download / Скачать

Хотите скачать бесплатно? Зарегистрируйтесь на сайте (ссылка на регистрацию). Pirat.ca - самый быстрый торрент трекер в рунете!

Как скачивать  ·   Что такое торрент  ·   Рейтинг и ограничения



Последний раз редактировалось: -B1ack- (2013-12-06 02:57), всего редактировалось 11 раз(а)

Дядя Витя

59148

Пост 25-Июн-2012 17:24 (спустя 1 час 6 минут)

[Q] 


_________________
?
[Профиль]  [ЛС] 

Zorky

Морской Волк

Пост 12-Дек-2012 21:15 (спустя 5 месяцев 17 дней)

[Q] 

[Профиль]  [ЛС] 

-B1ack- ®

1902

Пост 06-Дек-2013 03:17 (спустя 11 месяцев 24 дня)

[Q] 

обновил релиз с WEB до рип оригинального диска(ов)
Всем качать!!!
Пиратка рулит!

_________________
[Профиль]  [ЛС] 

maki

Морской Волк

Пост 15-Окт-2014 12:58 (спустя 10 месяцев 9 дней)

[Q] 

нормалек.послушаем ))
[Профиль]  [ЛС] 
Показать сообщения:    
Ответить на тему

Текущее время: Сегодня 03:44

Часовой пояс: GMT + 4



Вы не можете начинать темы
Вы не можете отвечать на сообщения
Вы не можете редактировать свои сообщения
Вы не можете удалять свои сообщения
Вы не можете голосовать в опросах
Вы не можете прикреплять файлы к сообщениям
Вы не можете скачивать файлы

▼ Вниз