Уважаемый Гость!
Вы можете поддержать проект и зарегистрироваться у наших партнеров - онлайн-стратегия MyLands. При регистрации в игре Вы получите код, который сможете активировать после регистрации на pirat.ca и получить 1000 дублонов.

Ваш код:
34a67e52c4313499c5a64299d677682df6c1bb8d
 
     

(Drum & Bass) TC - Evolution (Special Edition) - 2007, FLAC (image+.cue) , lossless

Ответить на тему
 
Автор
Сообщение

Пост 17-Мар-2012 20:56

[Q] 

Igoryok96

Шкипер

TC - Evolution (Special Edition)
Год выпуска: 2007
Страна: England
Жанр: Drum & Bass
Лейбл издания: ??
Тип альбома: Студийный
Страна-выпуска диска: England
Продолжительность: 01:03:56
Источник (релизер): Рутрекер
Формат: FLAC
Битрейт аудио: lossless
Тип рипа: image+.cue
Наличие сканов в содержимом раздачи: нет
CD 1
1. Rockstar
2. Get That Girl
3. Deep feat. Jakes
4. Flatline
5. Borrowed Time - Feat. Sub Focus
6. Taxman
7. Where's My Money
8. Mindkiller
9. Fuck What You Heard - Feat. Scratch Perverts
10. Show Me The Way
11. King Of Africa - Feat. Hannah Collins
12. Strictly Drum & Bass
13. Drink feat. Jakes
14. Take A Minute
15. Jump
16. Raise The Roof
CD 2
1. Album Megamix
2. Bad Girl
3. My Answer
4. Robots
5. War
6. Lover Man
7. Soul Time
8. A Little Taste Of Sunshine
9. Anytime Soon
10. The Rogue
11. Game Over Vip
12. Cut Down
13. Wheres My Money Vip
14. Sid
15. Not A Real DJ
16. Snow Storm
17. Mello Vibes
18. Brazil Love
19. Push It
20. Square Waves
21. Thug Anthem
22. I Love You
23. Electronic 3
24. Aint Here To Play
25. Mish Mash
26. Killa Old School
27. Sleep In Your Eyes
28. Nothing
29. Talking Shit
30. Chill Out
31. S.O.S
32. Rainy City
33. Wanna Be Gangsters
34. Daydreaming
35. All I Have
36. Flatline
Exact Audio Copy V0.99 prebeta 4 from 23. January 2008
Отчёт EAC об извлечении, выполненном 14. июня 2008, 14:55
TC / Evolution (Special Edition) 1
Дисковод: HL-DT-STDVDRAM GSA-T20N Adapter: 0 ID: 0
Режим чтения : Достоверность
Использование точного потока : Да
Отключение кэша аудио : Нет
Использование указателей C2 : Нет
Коррекция смещения при чтении : 667
Способность читать области Lead-in и Lead-out : Нет
Заполнение пропущенных сэмплов тишиной : Да
Удаление блоков с тишиной в начале и конце : Нет
При вычислениях CRC использовались нулевые сэмплы : Да
Интерфейс : Встроенный Win32-интерфейс для Win NT/2000
Выходной формат : Внутренние WAV-операции
Формат сэмплов : 44.100 Гц; 16 бит; стерео
TOC извлечённого CD
Трек | Старт | Длительность | Начальный сектор | Конечный сектор
---------------------------------------------------------------------
1 | 0:00.00 | 4:30.34 | 0 | 20283
2 | 4:30.34 | 6:03.65 | 20284 | 47573
3 | 10:34.24 | 4:29.74 | 47574 | 67822
4 | 15:04.23 | 6:03.18 | 67823 | 95065
5 | 21:07.41 | 4:35.73 | 95066 | 115763
6 | 25:43.39 | 1:34.49 | 115764 | 122862
7 | 27:18.13 | 3:47.43 | 122863 | 139930
8 | 31:05.56 | 4:53.47 | 139931 | 161952
9 | 35:59.28 | 5:16.29 | 161953 | 185681
10 | 41:15.57 | 1:15.64 | 185682 | 191370
11 | 42:31.46 | 3:51.73 | 191371 | 208768
12 | 46:23.44 | 3:55.25 | 208769 | 226418
13 | 50:18.69 | 4:30.27 | 226419 | 246695
14 | 54:49.21 | 0:57.06 | 246696 | 250976
15 | 55:46.27 | 3:22.45 | 250977 | 266171
16 | 59:08.72 | 4:37.44 | 266172 | 286990
Характеристики диапазона извлечения и сообщения об ошибках
Выбранный диапазон
Имя файла D:\flac\TC - Evolution (Special Edition) 1.wav
Пиковый уровень 100.0 %
Качество диапазона 100.0 %
CRC копии 3CBCC619
Копирование... OK
Ошибок не произошло
Конец отчёта
------------------------------------------------------------
REM GENRE Drum'n'Bass
REM DATE 2007
REM DISCID E30EF210
REM COMMENT "ExactAudioCopy v0.99pb4"
PERFORMER "TC"
TITLE "Evolution (Special Edition)"
FILE "TC - Evolution (Special Edition) 1.wav" WAVE
TRACK 01 AUDIO
TITLE "Rockstar"
PERFORMER "TC"
INDEX 01 00:00:00
TRACK 02 AUDIO
TITLE "Get That Girl"
PERFORMER "TC"
INDEX 01 04:30:34
TRACK 03 AUDIO
TITLE "Deep feat. Jakes"
PERFORMER "TC"
INDEX 01 10:34:24
TRACK 04 AUDIO
TITLE "Flatline"
PERFORMER "TC"
INDEX 01 15:04:23
TRACK 05 AUDIO
TITLE "Borrowed Time - Feat. Sub Focus"
PERFORMER "TC"
INDEX 01 21:07:41
TRACK 06 AUDIO
TITLE "Taxman"
PERFORMER "TC"
INDEX 01 25:43:39
TRACK 07 AUDIO
TITLE "Where's My Money"
PERFORMER "TC"
INDEX 01 27:18:13
TRACK 08 AUDIO
TITLE "Mindkiller"
PERFORMER "TC"
INDEX 01 31:05:56
TRACK 09 AUDIO
TITLE "Fuck What You Heard - Feat. Scratch Perverts"
PERFORMER "TC"
INDEX 01 35:59:28
TRACK 10 AUDIO
TITLE "Show Me The Way"
PERFORMER "TC"
INDEX 01 41:15:57
TRACK 11 AUDIO
TITLE "King Of Africa - Feat. Hannah Collins"
PERFORMER "TC"
INDEX 01 42:31:46
TRACK 12 AUDIO
TITLE "Strictly Drum & Bass"
PERFORMER "TC"
INDEX 01 46:23:44
TRACK 13 AUDIO
TITLE "Drink feat. Jakes"
PERFORMER "TC"
INDEX 01 50:18:69
TRACK 14 AUDIO
TITLE "Take A Minute"
PERFORMER "TC"
INDEX 01 54:49:21
TRACK 15 AUDIO
TITLE "Jump"
PERFORMER "TC"
INDEX 01 55:46:27
TRACK 16 AUDIO
TITLE "Raise The Roof"
PERFORMER "TC"
INDEX 01 59:08:72
Exact Audio Copy V0.99 prebeta 4 from 23. January 2008
Отчёт EAC об извлечении, выполненном 14. июня 2008, 15:04
TC / Evolution (Special Edition) 2
Дисковод: HL-DT-STDVDRAM GSA-T20N Adapter: 0 ID: 0
Режим чтения : Достоверность
Использование точного потока : Да
Отключение кэша аудио : Нет
Использование указателей C2 : Нет
Коррекция смещения при чтении : 667
Способность читать области Lead-in и Lead-out : Нет
Заполнение пропущенных сэмплов тишиной : Да
Удаление блоков с тишиной в начале и конце : Нет
При вычислениях CRC использовались нулевые сэмплы : Да
Интерфейс : Встроенный Win32-интерфейс для Win NT/2000
Обработка зазоров : Не обнаружено, добавлено к предыдущему треку
Выходной формат : Внутренние WAV-операции
Формат сэмплов : 44.100 Гц; 16 бит; стерео
TOC извлечённого CD
Трек | Старт | Длительность | Начальный сектор | Конечный сектор
---------------------------------------------------------------------
1 | 0:00.00 | 40:16.01 | 0 | 181200
2 | 42:48.01 | 8:29.36 | 192601 | 230811
Трек 1
Имя файла D:\flac\TC - Evolution (Special Edition) 2.wav
Пиковый уровень 100.0 %
Качество трека 100.0 %
CRC копии 2B8E75EE
Копирование... OK
Ошибок не произошло
Конец отчёта
REM GENRE Drum'n'Bass
REM DATE 2007
REM DISCID E30EF210
REM COMMENT "ExactAudioCopy v0.99pb4"
PERFORMER "TC"
TITLE "Evolution (Special Edition)"
FILE "TC - Evolution (Special Edition) 2.wav" WAVE
TRACK 01 AUDIO
TITLE "The Scratch Perverts Evolution Mix"
PERFORMER "TC"
INDEX 01 00:00:00
-----------------------
DON'T MODIFY THIS FILE
-----------------------
PERFORMER: auCDtect Task Manager, ver. 1.5.1RC6 build 1.5.1.7
Copyright (c) 2008-2010 y-soft. All rights reserved
http://y-soft.org
ANALYZER: auCDtect: CD records authenticity detector, version 0.8.2
Copyright (c) 2004 Oleg Berngardt. All rights reserved.
Copyright (c) 2004 Alexander Djourik. All rights reserved.
FILE: TC - Evolution (Special Edition) 2.flac
Size: 282630224 Hash: CAB2E44AF3E29C811212340E9A1578D3 Accuracy: -m0
Conclusion: MPEG 95%
Signature: 49B1CCE74E55D51EDA59D161B3E290AA195BB3EE
FILE: TC - Evolution (Special Edition) 1.flac
Size: 459703091 Hash: 8EA84919066A70E9D93034AA4B6F422A Accuracy: -m0
Conclusion: CDDA 100%
Signature: C549AF35C9FD46D6858B0FF708011B27721F4185
Download / Скачать

Хотите скачать бесплатно? Зарегистрируйтесь на сайте (ссылка на регистрацию). Pirat.ca - самый быстрый торрент трекер в рунете!

Как скачивать  ·   Что такое торрент  ·   Рейтинг и ограничения



Последний раз редактировалось: Igoryok96 (2012-06-13 12:22), всего редактировалось 5 раз(а)

Паппик

Корсар

1530

Пост 17-Мар-2012 23:35 (спустя 2 часа 38 минут)

[Q] 

"Сомнительно" . Причина - не отключен кэш.
Неужели больше нечего стянуть с Ру... очень уважаемого треккера? Ну не сошёлся на нём клином данный релиз ...
[Профиль]  [ЛС] 

Igoryok96 ®

Шкипер

352

Пост 18-Мар-2012 10:05 (спустя 10 часов)

[Q] 

"Сомнительно" . Причина - не отключен кэш.
Неужели больше нечего стянуть с Ру... очень уважаемого треккера? Ну не сошёлся на нём клином данный релиз ...
а где вы ещё найдёте рип с такого диска?? Если найдёте - киньте ссылку в личку, обязательно скачаю. Не встречал пока ещё в лосслессе этот альбом.

_________________
Сошел на берег.
[Профиль]  [ЛС] 
Показать сообщения:    
Ответить на тему

Текущее время: Сегодня 04:14

Часовой пояс: GMT + 4



Вы не можете начинать темы
Вы не можете отвечать на сообщения
Вы не можете редактировать свои сообщения
Вы не можете удалять свои сообщения
Вы не можете голосовать в опросах
Вы не можете прикреплять файлы к сообщениям
Вы не можете скачивать файлы

▼ Вниз