Уважаемый Гость!
Вы можете поддержать проект и зарегистрироваться у наших партнеров - онлайн-стратегия MyLands. При регистрации в игре Вы получите код, который сможете активировать после регистрации на pirat.ca и получить 1000 дублонов.

Ваш код:
1834ae75e9227261aad6e08fc139cfdee7634d27
 
     

(Chillout, Ambient, Deep House)VA - Secret Lounge: Erotic Pleasure 3хCD (2009) FLAC (image + .cue), lossless

Ответить на тему
 
Автор
Сообщение

Пост 18-Май-2012 22:35

[Q] 

Koralina

VA - Secret Lounge: Erotic Pleasure 3хCD (2009) Производство: VA
Жанр: Chillout, Ambient, Deep House
Дата выхода: 2009
Формат аудио: FLAC (image + .cue)
Битрэйт: lossless
Продолжительность: 03.33.06

01. Unknown Lights feat. Franjo - En-Vol
02. Sharion - Pleasure
03. Without Face & Without Number - La Coccinelle
04. Wailea Night Implosion - Chew That
05. Hookipa Hustler Lounge - Lazy Night In June
06. Class A+ - Into The Dawn
07. West Maui Beach Resort - Spanish Fly (In Love To Josy Violin)
08. Sailor Why Don't Care - Sailing To Candide
09. Damiano C - Body Experience
10. Martytone - Running
11. Makena Manison - Chillin' Journey
12. Akmusique - Close Enough

01. Kelsinki - Maui's Children
02. 10 Seconds Feat. Paolo - La Mer Diane
03. Leman's Guests - Crime Story
04. Llucmajoritas - Flor Pequenina
05. Nightwalker - Dupah Dupont
06. Abc-Of-Fools - Sweet Mystery
07. Hands Of Mt.Michele - Le Grand Baron
08. MindPrint Traveller - Sea Of Roses
09. Cosmic Enemy - My Nightwalk
10. Latino Lover - Ola Hombre
11. Sinner In Love - Fat Man
12. Lindenise - Sleepwalking
13. Oerlikon Rules - Spaced Out
14. Boogaloo's Heart - Vinylistic Sun

01. Erica Jennings - It's A Lovely Day
02. Manuel Franjo - Solo Por Tu Amor
03. Fuman Freak - New York City
04. Missarah - Wishing You Were Here
05. Erica Jennings - Bang, Bang
06. Asian Heart - Compassionate Buddha
07. Charlene Holloway - Miracle
08. Terry Barber - The World Is A Stage
09. P.Melas - My Funny Valentine
10. Missarah - What Is This?
11. Kyoko - Sweet Johnny
Код:
CD1
Exact Audio Copy V0.99 prebeta 4 from 23. January 2008
EAC extraction logfile from 10. March 2009, 9:46
Various / Secret Lounge - Erotic Pleasure - CD1
Used drive  : PIONEER DVD-RW  DVR-112D   Adapter: 1  ID: 0
Read mode               : Secure
Utilize accurate stream : Yes
Defeat audio cache      : Yes
Make use of C2 pointers : No
Read offset correction                      : 48
Overread into Lead-In and Lead-Out          : No
Fill up missing offset samples with silence : Yes
Delete leading and trailing silent blocks   : No
Null samples used in CRC calculations       : Yes
Used interface                              : Installed external ASPI interface
Used output format              : User Defined Encoder
Selected bitrate                : 192 kBit/s
Quality                         : Low
Add ID3 tag                     : Yes
Command line compressor         : C:\Program Files\E A C Audio\Flac\flac.exe
Additional command line options : -V -8 -T "artist=%a" -T "title=%t" -T "album=%g" -T "date=%y" -T "tracknumber=%n" -T "genre=%m" %s
TOC of the extracted CD
     Track |   Start  |  Length  | Start sector | End sector
    ---------------------------------------------------------
        1  |  0:00.00 |  5:14.14 |         0    |    23563
        2  |  5:14.14 |  6:17.20 |     23564    |    51858
        3  | 11:31.34 |  3:56.72 |     51859    |    69630
        4  | 15:28.31 |  5:53.59 |     69631    |    96164
        5  | 21:22.15 |  5:58.42 |     96165    |   123056
        6  | 27:20.57 |  6:00.32 |    123057    |   150088
        7  | 33:21.14 |  3:57.60 |    150089    |   167923
        8  | 37:18.74 |  6:07.27 |    167924    |   195475
        9  | 43:26.26 |  5:05.24 |    195476    |   218374
       10  | 48:31.50 |  5:56.63 |    218375    |   245137
       11  | 54:28.38 |  6:42.72 |    245138    |   275359
       12  | 61:11.35 |  5:07.37 |    275360    |   298421
Range status and errors
Selected range
     Filename G:\lossless-room.nnm.ru\Various - Secret Lounge - Erotic Pleasure\Various - Secret Lounge - Erotic Pleasure - CD1.wav
     Peak level 100.0 %
     Range quality 99.9 %
     Test CRC 7761408F
     Copy CRC 7761408F
     Copy OK
No errors occurred
AccurateRip summary
Track  1  not present in database
Track  2  not present in database
Track  3  not present in database
Track  4  not present in database
Track  5  not present in database
Track  6  not present in database
Track  7  not present in database
Track  8  not present in database
Track  9  not present in database
Track 10  not present in database
Track 11  not present in database
Track 12  not present in database
None of the tracks are present in the AccurateRip database
End of status report
CD2
Exact Audio Copy V0.99 prebeta 4 from 23. January 2008
EAC extraction logfile from 10. March 2009, 11:49
Various / Secret Lounge - Erotic Pleasure - CD2
Used drive  : PIONEER DVD-RW  DVR-112D   Adapter: 1  ID: 0
Read mode               : Secure
Utilize accurate stream : Yes
Defeat audio cache      : Yes
Make use of C2 pointers : No
Read offset correction                      : 48
Overread into Lead-In and Lead-Out          : No
Fill up missing offset samples with silence : Yes
Delete leading and trailing silent blocks   : No
Null samples used in CRC calculations       : Yes
Used interface                              : Installed external ASPI interface
Used output format              : User Defined Encoder
Selected bitrate                : 192 kBit/s
Quality                         : Low
Add ID3 tag                     : Yes
Command line compressor         : C:\Program Files\E A C Audio\Flac\flac.exe
Additional command line options : -V -8 -T "artist=%a" -T "title=%t" -T "album=%g" -T "date=%y" -T "tracknumber=%n" -T "genre=%m" %s
TOC of the extracted CD
     Track |   Start  |  Length  | Start sector | End sector
    ---------------------------------------------------------
        1  |  0:00.00 |  4:42.72 |         0    |    21221
        2  |  4:42.72 |  5:45.70 |     21222    |    47166
        3  | 10:28.67 |  5:29.25 |     47167    |    71866
        4  | 15:58.17 |  3:43.72 |     71867    |    88663
        5  | 19:42.14 |  3:40.48 |     88664    |   105211
        6  | 23:22.62 |  6:26.14 |    105212    |   134175
        7  | 29:49.01 |  6:03.27 |    134176    |   161427
        8  | 35:52.28 |  3:42.68 |    161428    |   178145
        9  | 39:35.21 |  5:59.67 |    178146    |   205137
       10  | 45:35.13 |  3:55.40 |    205138    |   222802
       11  | 49:30.53 |  5:16.36 |    222803    |   246538
       12  | 54:47.14 |  5:01.47 |    246539    |   269160
       13  | 59:48.61 |  5:50.21 |    269161    |   295431
       14  | 65:39.07 |  5:27.53 |    295432    |   320009
Range status and errors
Selected range
     Filename G:\lossless-room.nnm.ru\Various - Secret Lounge - Erotic Pleasure\Various - Secret Lounge - Erotic Pleasure - CD2.wav
     Peak level 100.0 %
     Range quality 100.0 %
     Copy CRC 6803FC6B
     Copy OK
No errors occurred
AccurateRip summary
Track  1  not present in database
Track  2  not present in database
Track  3  not present in database
Track  4  not present in database
Track  5  not present in database
Track  6  not present in database
Track  7  not present in database
Track  8  not present in database
Track  9  not present in database
Track 10  not present in database
Track 11  not present in database
Track 12  not present in database
Track 13  not present in database
Track 14  not present in database
None of the tracks are present in the AccurateRip database
End of status report
CD3
Exact Audio Copy V0.99 prebeta 4 from 23. January 2008
EAC extraction logfile from 10. March 2009, 12:42
Various / Secret Lounge - Erotic Pleasure - CD3
Used drive  : PIONEER DVD-RW  DVR-112D   Adapter: 1  ID: 0
Read mode               : Secure
Utilize accurate stream : Yes
Defeat audio cache      : Yes
Make use of C2 pointers : No
Read offset correction                      : 48
Overread into Lead-In and Lead-Out          : No
Fill up missing offset samples with silence : Yes
Delete leading and trailing silent blocks   : No
Null samples used in CRC calculations       : Yes
Used interface                              : Installed external ASPI interface
Used output format              : User Defined Encoder
Selected bitrate                : 192 kBit/s
Quality                         : Low
Add ID3 tag                     : Yes
Command line compressor         : C:\Program Files\E A C Audio\Flac\flac.exe
Additional command line options : -V -8 -T "artist=%a" -T "title=%t" -T "album=%g" -T "date=%y" -T "tracknumber=%n" -T "genre=%m" %s
TOC of the extracted CD
     Track |   Start  |  Length  | Start sector | End sector
    ---------------------------------------------------------
        1  |  0:00.00 |  3:41.57 |         0    |    16631
        2  |  3:41.57 |  7:21.05 |     16632    |    49711
        3  | 11:02.62 |  7:38.59 |     49712    |    84120
        4  | 18:41.46 |  7:42.33 |     84121    |   118803
        5  | 26:24.04 |  6:32.37 |    118804    |   148240
        6  | 32:56.41 |  6:53.47 |    148241    |   179262
        7  | 39:50.13 |  7:50.54 |    179263    |   214566
        8  | 47:40.67 |  8:44.54 |    214567    |   253920
        9  | 56:25.46 |  6:30.18 |    253921    |   283188
       10  | 62:55.64 |  8:44.00 |    283189    |   322488
       11  | 71:39.64 |  4:00.65 |    322489    |   340553
Range status and errors
Selected range
     Filename G:\lossless-room.nnm.ru\Various - Secret Lounge - Erotic Pleasure\Various - Secret Lounge - Erotic Pleasure - CD3.wav
     Peak level 93.7 %
     Range quality 100.0 %
     Test CRC 13F30EF4
     Copy CRC 13F30EF4
     Copy OK
No errors occurred
AccurateRip summary
Track  1  not present in database
Track  2  not present in database
Track  3  not present in database
Track  4  not present in database
Track  5  not present in database
Track  6  not present in database
Track  7  not present in database
Track  8  not present in database
Track  9  not present in database
Track 10  not present in database
Track 11  not present in database
None of the tracks are present in the AccurateRip database
End of status report
Код:
CD1
REM GENRE Electronic
REM DATE 2009
rem place lossless-room.nnm.ru
REM DISCID 910F8A0C
REM COMMENT "ExactAudioCopy v0.99pb4"
PERFORMER "Various"
TITLE "Secret Lounge - Erotic Pleasure - CD1"
FILE "Various - Secret Lounge - Erotic Pleasure - CD1.flac" WAVE
  TRACK 01 AUDIO
    TITLE "En-Vol"
    PERFORMER "Unknown Lights feat. Franjo"
    FLAGS DCP
    INDEX 01 00:00:00
  TRACK 02 AUDIO
    TITLE "Pleasure"
    PERFORMER "Sharion"
    FLAGS DCP
    INDEX 01 05:14:14
  TRACK 03 AUDIO
    TITLE "La Coccinelle"
    PERFORMER "Without Face & Without Number"
    FLAGS DCP
    INDEX 01 11:31:34
  TRACK 04 AUDIO
    TITLE "Chew That"
    PERFORMER "Wailea Night Implosion"
    FLAGS DCP
    INDEX 01 15:28:31
  TRACK 05 AUDIO
    TITLE "Lazy Night In June"
    PERFORMER "Hookipa Hustler Lounge"
    FLAGS DCP
    INDEX 01 21:22:15
  TRACK 06 AUDIO
    TITLE "Into The Dawn"
    PERFORMER "Class A+"
    FLAGS DCP
    INDEX 01 27:20:57
  TRACK 07 AUDIO
    TITLE "Spanish Fly (In Love To Josy Violin)"
    PERFORMER "West Maui Beach Resort"
    FLAGS DCP
    INDEX 01 33:21:14
  TRACK 08 AUDIO
    TITLE "Sailing To Candide"
    PERFORMER "Sailor Why Don't Care"
    FLAGS DCP
    INDEX 01 37:18:74
  TRACK 09 AUDIO
    TITLE "Body Experience"
    PERFORMER "Damiano C"
    FLAGS DCP
    INDEX 01 43:26:26
  TRACK 10 AUDIO
    TITLE "Running"
    PERFORMER "Martytone"
    FLAGS DCP
    INDEX 01 48:31:50
  TRACK 11 AUDIO
    TITLE "Chillin' Journey"
    PERFORMER "Makena Manison"
    FLAGS DCP
    INDEX 01 54:28:38
  TRACK 12 AUDIO
    TITLE "Close Enough"
    PERFORMER "Akmusique"
    FLAGS DCP
    INDEX 01 61:11:35
CD2
REM GENRE Electronic
REM DATE 2009
REM PLACE lossless-room.nnm.ru
REM DISCID CF10AA0E
REM COMMENT "ExactAudioCopy v0.99pb4"
PERFORMER "Various"
TITLE "Secret Lounge - Erotic Pleasure - CD2"
FILE "Various - Secret Lounge - Erotic Pleasure - CD2.flac" WAVE
  TRACK 01 AUDIO
    TITLE "Maui's Children"
    PERFORMER "Kelsinki"
    FLAGS DCP
    INDEX 01 00:00:00
  TRACK 02 AUDIO
    TITLE "La Mer Diane"
    PERFORMER "10 Seconds Feat. Paolo"
    FLAGS DCP
    INDEX 01 04:42:72
  TRACK 03 AUDIO
    TITLE "Crime Story"
    PERFORMER "Leman's Guests"
    FLAGS DCP
    INDEX 01 10:28:67
  TRACK 04 AUDIO
    TITLE "Flor Pequenina"
    PERFORMER "Llucmajoritas"
    FLAGS DCP
    INDEX 01 15:58:17
  TRACK 05 AUDIO
    TITLE "Dupah Dupont"
    PERFORMER "Nightwalker"
    FLAGS DCP
    INDEX 01 19:42:14
  TRACK 06 AUDIO
    TITLE "Sweet Mystery"
    PERFORMER "Abc-Of-Fools"
    FLAGS DCP
    INDEX 01 23:22:62
  TRACK 07 AUDIO
    TITLE "Le Grand Baron"
    PERFORMER "Hands Of Mt.Michele"
    FLAGS DCP
    INDEX 01 29:49:01
  TRACK 08 AUDIO
    TITLE "Sea Of Roses"
    PERFORMER "MindPrint Traveller"
    FLAGS DCP
    INDEX 01 35:52:28
  TRACK 09 AUDIO
    TITLE "My Nightwalk"
    PERFORMER "Cosmic Enemy"
    FLAGS DCP
    INDEX 01 39:35:21
  TRACK 10 AUDIO
    TITLE "Ola Hombre"
    PERFORMER "Latino Lover"
    FLAGS DCP
    INDEX 01 45:35:13
  TRACK 11 AUDIO
    TITLE "Fat Man"
    PERFORMER "Sinner In Love"
    FLAGS DCP
    INDEX 01 49:30:53
  TRACK 12 AUDIO
    TITLE "Sleepwalking"
    PERFORMER "Lindenise"
    FLAGS DCP
    INDEX 01 54:47:14
  TRACK 13 AUDIO
    TITLE "Spaced Out"
    PERFORMER "Oerlikon Rules"
    FLAGS DCP
    INDEX 01 59:48:61
  TRACK 14 AUDIO
    TITLE "Vinylistic Sun"
    PERFORMER "Boogaloo's Heart"
    FLAGS DCP
    INDEX 01 65:39:07
CD3
REM GENRE House
REM DATE 2009
REM PLACE lossless-room.nnm.ru
REM DISCID A411BC0B
REM COMMENT "ExactAudioCopy v0.99pb4"
PERFORMER "Various"
TITLE "Secret Lounge - Erotic Pleasure - CD3"
FILE "Various - Secret Lounge - Erotic Pleasure - CD3.flac" WAVE
  TRACK 01 AUDIO
    TITLE "It's A Lovely Day"
    PERFORMER "Erica Jennings"
    FLAGS DCP
    INDEX 01 00:00:00
  TRACK 02 AUDIO
    TITLE "Solo Por Tu Amor"
    PERFORMER "Manuel Franjo"
    FLAGS DCP
    INDEX 00 03:40:57
    INDEX 01 03:41:57
  TRACK 03 AUDIO
    TITLE "New York City"
    PERFORMER "Fuman Freak"
    FLAGS DCP
    INDEX 00 11:02:02
    INDEX 01 11:02:62
  TRACK 04 AUDIO
    TITLE "Wishing You Were Here"
    PERFORMER "Missarah"
    FLAGS DCP
    INDEX 01 18:41:46
  TRACK 05 AUDIO
    TITLE "Bang, Bang"
    PERFORMER "Erica Jennings"
    FLAGS DCP
    INDEX 01 26:24:04
  TRACK 06 AUDIO
    TITLE "Compassionate Buddha"
    PERFORMER "Asian Heart"
    FLAGS DCP
    INDEX 01 32:56:41
  TRACK 07 AUDIO
    TITLE "Miracle"
    PERFORMER "Charlene Holloway"
    FLAGS DCP
    INDEX 01 39:50:13
  TRACK 08 AUDIO
    TITLE "The World Is A Stage"
    PERFORMER "Terry Barber"
    FLAGS DCP
    INDEX 01 47:40:67
  TRACK 09 AUDIO
    TITLE "My Funny Valentine"
    PERFORMER "P.Melas"
    FLAGS DCP
    INDEX 01 56:25:46
  TRACK 10 AUDIO
    TITLE "What Is This?"
    PERFORMER "Missarah"
    FLAGS DCP
    INDEX 01 62:55:64
  TRACK 11 AUDIO
    TITLE "Sweet Johnny"
    PERFORMER "Kyoko"
    FLAGS DCP
    INDEX 00 71:39:04
    INDEX 01 71:39:64
Download / Скачать

Хотите скачать бесплатно? Зарегистрируйтесь на сайте (ссылка на регистрацию). Pirat.ca - самый быстрый торрент трекер в рунете!

Как скачивать  ·   Что такое торрент  ·   Рейтинг и ограничения

Wolf111

58989

Пост 30-Янв-2013 21:47 (спустя 8 месяцев 11 дней)

[Q] 

[Профиль]  [ЛС] 
Показать сообщения:    
Ответить на тему

Текущее время: Сегодня 01:01

Часовой пояс: GMT + 4



Вы не можете начинать темы
Вы не можете отвечать на сообщения
Вы не можете редактировать свои сообщения
Вы не можете удалять свои сообщения
Вы не можете голосовать в опросах
Вы не можете прикреплять файлы к сообщениям
Вы не можете скачивать файлы

▼ Вниз