Уважаемый Гость!
Вы можете поддержать проект и зарегистрироваться у наших партнеров - онлайн-стратегия MyLands. При регистрации в игре Вы получите код, который сможете активировать после регистрации на pirat.ca и получить 1000 дублонов.

Ваш код:
c338cfa05a6faf0f03d3fc8cc0d56be528fb8645
 
     

(Instrumental) VA - Легенды советской эстрады 50-60гг (РД) - 2012 (5 CD) [FLAC, tracks+cue, lossless]

Ответить на тему
 
Автор
Сообщение

Пост 14-Дек-2012 01:48

[Q] 

CHARLI2236

VA - Легенды советской эстрады 50-60гг (РД) - 2012 (5CD)
Год выпуска альбома: 2012
Страна: Россия
Жанр: Instrumental
Лейбл издания: Ридерз Дайджест
Продолжительность: 4:02:27
Формат: FLAC
Битрейт аудио: lossless
Тип рипа: tracks+.cue
Источник (релизер): диск CDDA
Наличие сканов в содержимом раздачи: да
Трэклист
01 - 001 А у нас во дворе_ДКС - 54533. (2:06)
02 - 002 Стою на полустаночке_ДКС - 16024. (2:27)
03 - 003 Два берега_Д - 61043. (2:38)
04 - 004 Верный друг_Д - 36126. (2:40)
05 - 005 Если бы парни всей земли_Д - 78194. (2:23)
06 - 006 Если б гармошка умела_Д - 33351. (3:08)
07 - 007 Песенка молодых соседей_Д - 42804. (2:08)
08 - 008 Песенка о влюблённом пареньке_Д - 45730. (2:06)
09 - 009 Букет цветов из Ниццы_Д - 42166. (3:11)
10 - 010 Прощайте, голуби_Д - 71860. (2:34)
11 - 011 По ночной Москве_Д - 62671. (3:32)
12 - 012 Сердце на снегу_ДКС - 55237. (3:27)
13 - 013 А годы летят_Д - 63023. (3:14)
14 - 014 Снег идёт_Д - 63368. (2:17)
15 - 015 Я шагаю по Москве_ДКС - 39701. (3:38)
”Отчет ЕАС”
Отчёт EAC об извлечении, выполненном 10. декабря 2012, 12:49 для диска:
Various / Легенды советской эстрады 50-60гг (CD1)
Дисковод: _NEC DVD_RW ND-4550A Adapter: 0 ID: 1
Режим чтения: Достоверный (C2: нет, Точный поток: да, Отключение кэша: да)
Коррекция смещения при чтении: 48
Способность читать области Lead-in и Lead-out : Нет
Выходной формат: C:\Program Files\FLAC\flac.exe (Пользовательский кодировщик)
128 kBit/s
Дополнительные параметры: -8 -V -T "ARTIST=%a" -T "TITLE=%t" -T "ALBUM=%g" -T "DATE=%y" -T "TRACKNUMBER=%n" -T "GENRE=%m" -T "COMMENT=EAC FLAC -8" %s
Другие параметры:
Заполнение пропущенных сэмплов тишиной : Да
Удаление блоков с тишиной в начале и конце : Нет
Встроенный Win32-интерфейс для Win NT/2000
Трек 1
Имя файла C:\Sergei\новая папка\01 - 001 А у нас во дворе_ДКС - 54533.wav
Длина предзазора 0:00:02.00
Пиковый уровень 88.0 %
Качество трека 100.0 %
CRC теста 5D4B52C0
CRC копии 5D4B52C0
Копирование... OK
Трек 2
Имя файла C:\Sergei\новая папка\02 - 002 Стою на полустаночке_ДКС - 16024.wav
Длина предзазора 0:00:02.00
Пиковый уровень 99.6 %
Качество трека 100.0 %
CRC теста F0436C62
CRC копии F0436C62
Копирование... OK
Трек 3
Имя файла C:\Sergei\новая папка\03 - 003 Два берега_Д - 61043.wav
Длина предзазора 0:00:02.00
Пиковый уровень 99.6 %
Качество трека 99.9 %
CRC теста FCF79BEA
CRC копии FCF79BEA
Копирование... OK
Трек 4
Имя файла C:\Sergei\новая папка\04 - 004 Верный друг_Д - 36126.wav
Длина предзазора 0:00:02.00
Пиковый уровень 99.6 %
Качество трека 100.0 %
CRC теста B48CDD5C
CRC копии B48CDD5C
Копирование... OK
Трек 5
Имя файла C:\Sergei\новая папка\05 - 005 Если бы парни всей земли_Д - 78194.wav
Длина предзазора 0:00:02.00
Пиковый уровень 86.7 %
Качество трека 100.0 %
CRC теста DE18E3A3
CRC копии DE18E3A3
Копирование... OK
Трек 6
Имя файла C:\Sergei\новая папка\06 - 006 Если б гармошка умела_Д - 33351.wav
Длина предзазора 0:00:02.00
Пиковый уровень 99.6 %
Качество трека 100.0 %
CRC теста 2FE0E498
CRC копии 2FE0E498
Копирование... OK
Трек 7
Имя файла C:\Sergei\новая папка\07 - 007 Песенка молодых соседей_Д - 42804.wav
Длина предзазора 0:00:02.00
Пиковый уровень 99.6 %
Качество трека 100.0 %
CRC теста 5870D5A6
CRC копии 5870D5A6
Копирование... OK
Трек 8
Имя файла C:\Sergei\новая папка\08 - 008 Песенка о влюблённом пареньке_Д - 45730.wav
Длина предзазора 0:00:02.00
Пиковый уровень 99.6 %
Качество трека 100.0 %
CRC теста 63E279BD
CRC копии 63E279BD
Копирование... OK
Трек 9
Имя файла C:\Sergei\новая папка\09 - 009 Букет цветов из Ниццы_Д - 42166.wav
Длина предзазора 0:00:02.00
Пиковый уровень 99.6 %
Качество трека 100.0 %
CRC теста 9F98BB63
CRC копии 9F98BB63
Копирование... OK
Трек 10
Имя файла C:\Sergei\новая папка\10 - 010 Прощайте, голуби_Д - 71860.wav
Длина предзазора 0:00:02.00
Пиковый уровень 99.6 %
Качество трека 100.0 %
CRC теста 116CB504
CRC копии 116CB504
Копирование... OK
Трек 11
Имя файла C:\Sergei\новая папка\11 - 011 По ночной Москве_Д - 62671.wav
Длина предзазора 0:00:02.00
Пиковый уровень 99.6 %
Качество трека 100.0 %
CRC теста 1E4967F7
CRC копии 1E4967F7
Копирование... OK
Трек 12
Имя файла C:\Sergei\новая папка\12 - 012 Сердце на снегу_ДКС - 55237.wav
Длина предзазора 0:00:02.00
Пиковый уровень 88.0 %
Качество трека 100.0 %
CRC теста 89071CB9
CRC копии 89071CB9
Копирование... OK
Трек 13
Имя файла C:\Sergei\новая папка\13 - 013 А годы летят_Д - 63023.wav
Длина предзазора 0:00:02.00
Пиковый уровень 99.6 %
Качество трека 100.0 %
CRC теста 024D2A88
CRC копии 024D2A88
Копирование... OK
Трек 14
Имя файла C:\Sergei\новая папка\14 - 014 Снег идёт_Д - 63368.wav
Длина предзазора 0:00:02.00
Пиковый уровень 99.6 %
Качество трека 100.0 %
CRC теста 1EAFE06C
CRC копии 1EAFE06C
Копирование... OK
Трек 15
Имя файла C:\Sergei\новая папка\15 - 015 Я шагаю по Москве_ДКС - 39701.wav
Длина предзазора 0:00:02.00
Пиковый уровень 79.4 %
Качество трека 100.0 %
CRC теста 5828739F
CRC копии 5828739F
Копирование... OK
Ошибок не произошло
Конец отчёта
"Non-compilant CUE"
REM GENRE Instrumental
REM DATE 2012
REM DISCID CB09C00F
REM COMMENT "ExactAudioCopy v0.95b3"
PERFORMER "Various"
TITLE "Легенды советской эстрады 50-60гг (CD1)"
FILE "01 - 001 А у нас во дворе_ДКС - 54533.wav" WAVE
TRACK 01 AUDIO
TITLE "54533"
PERFORMER "001 А у нас во дворе_ДКС"
FLAGS DCP
INDEX 01 00:00:00
TRACK 02 AUDIO
TITLE "16024"
PERFORMER "002 Стою на полустаночке_ДКС"
FLAGS DCP
INDEX 00 02:04:69
FILE "02 - 002 Стою на полустаночке_ДКС - 16024.wav" WAVE
INDEX 01 00:00:00
TRACK 03 AUDIO
TITLE "61043"
PERFORMER "003 Два берега_Д"
FLAGS DCP
INDEX 00 02:25:52
FILE "03 - 003 Два берега_Д - 61043.wav" WAVE
INDEX 01 00:00:00
TRACK 04 AUDIO
TITLE "36126"
PERFORMER "004 Верный друг_Д"
FLAGS DCP
INDEX 00 02:36:28
FILE "04 - 004 Верный друг_Д - 36126.wav" WAVE
INDEX 01 00:00:00
TRACK 05 AUDIO
TITLE "78194"
PERFORMER "005 Если бы парни всей земли_Д"
FLAGS DCP
INDEX 00 02:38:74
FILE "05 - 005 Если бы парни всей земли_Д - 78194.wav" WAVE
INDEX 01 00:00:00
TRACK 06 AUDIO
TITLE "33351"
PERFORMER "006 Если б гармошка умела_Д"
FLAGS DCP
INDEX 00 02:21:37
FILE "06 - 006 Если б гармошка умела_Д - 33351.wav" WAVE
INDEX 01 00:00:00
TRACK 07 AUDIO
TITLE "42804"
PERFORMER "007 Песенка молодых соседей_Д"
FLAGS DCP
INDEX 00 03:06:07
FILE "07 - 007 Песенка молодых соседей_Д - 42804.wav" WAVE
INDEX 01 00:00:00
TRACK 08 AUDIO
TITLE "45730"
PERFORMER "008 Песенка о влюблённом пареньке_Д"
FLAGS DCP
INDEX 00 02:06:21
FILE "08 - 008 Песенка о влюблённом пареньке_Д - 45730.wav" WAVE
INDEX 01 00:00:00
TRACK 09 AUDIO
TITLE "42166"
PERFORMER "009 Букет цветов из Ниццы_Д"
FLAGS DCP
INDEX 00 02:04:24
FILE "09 - 009 Букет цветов из Ниццы_Д - 42166.wav" WAVE
INDEX 01 00:00:00
TRACK 10 AUDIO
TITLE "71860"
PERFORMER "010 Прощайте, голуби_Д"
FLAGS DCP
INDEX 00 03:09:21
FILE "10 - 010 Прощайте, голуби_Д - 71860.wav" WAVE
INDEX 01 00:00:00
TRACK 11 AUDIO
TITLE "62671"
PERFORMER "011 По ночной Москве_Д"
FLAGS DCP
INDEX 00 02:32:42
FILE "11 - 011 По ночной Москве_Д - 62671.wav" WAVE
INDEX 01 00:00:00
TRACK 12 AUDIO
TITLE "55237"
PERFORMER "012 Сердце на снегу_ДКС"
FLAGS DCP
INDEX 00 03:30:58
FILE "12 - 012 Сердце на снегу_ДКС - 55237.wav" WAVE
INDEX 01 00:00:00
TRACK 13 AUDIO
TITLE "63023"
PERFORMER "013 А годы летят_Д"
FLAGS DCP
INDEX 00 03:25:26
FILE "13 - 013 А годы летят_Д - 63023.wav" WAVE
INDEX 01 00:00:00
TRACK 14 AUDIO
TITLE "63368"
PERFORMER "014 Снег идёт_Д"
FLAGS DCP
INDEX 00 03:12:64
FILE "14 - 014 Снег идёт_Д - 63368.wav" WAVE
INDEX 01 00:00:00
TRACK 15 AUDIO
TITLE "39701"
PERFORMER "015 Я шагаю по Москве_ДКС"
FLAGS DCP
INDEX 00 02:15:74
FILE "15 - 015 Я шагаю по Москве_ДКС - 39701.wav" WAVE
INDEX 01 00:00:00
"Лог Audiochecker"
AUDIOCHECKER v2.0 beta (build 457) - by Dester - [email protected]
~~~~~~~~~~~~~~~~~~~~~~~~~~~~~~~~~~
-=== НЕ РЕДАКТИРУЙТЕ ЭТОТ ФАЙЛ! ===-
Путь: ...\CD1
01 -=- 01 - 001 А у нас во дворе_ДКС - 54533.flac -=- CDDA (100%)
02 -=- 02 - 002 Стою на полустаночке_ДКС - 16024.flac -=- CDDA (100%)
03 -=- 03 - 003 Два берега_Д - 61043.flac -=- CDDA (100%)
04 -=- 04 - 004 Верный друг_Д - 36126.flac -=- CDDA (100%)
05 -=- 05 - 005 Если бы парни всей земли_Д - 78194.flac -=- CDDA (100%)
06 -=- 06 - 006 Если б гармошка умела_Д - 33351.flac -=- CDDA (100%)
07 -=- 07 - 007 Песенка молодых соседей_Д - 42804.flac -=- CDDA (100%)
08 -=- 08 - 008 Песенка о влюблённом пареньке_Д - 45730.flac -=- CDDA (100%)
09 -=- 09 - 009 Букет цветов из Ниццы_Д - 42166.flac -=- CDDA (100%)
10 -=- 10 - 010 Прощайте, голуби_Д - 71860.flac -=- CDDA (100%)
11 -=- 11 - 011 По ночной Москве_Д - 62671.flac -=- CDDA (100%)
12 -=- 12 - 012 Сердце на снегу_ДКС - 55237.flac -=- CDDA (100%)
13 -=- 13 - 013 А годы летят_Д - 63023.flac -=- CDDA (99%)
14 -=- 14 - 014 Снег идёт_Д - 63368.flac -=- CDDA (100%)
15 -=- 15 - 015 Я шагаю по Москве_ДКС - 39701.flac -=- CDDA (100%)
Сводка 99,93% CDDA
55618340
Трэклист
01 - 001 Королева красоты_Д - 74274. (2:31)
02 - 002 Ландыши_Д - 54665. (3:15)
03 - 003 Ничего не вижу_В - 23632. (2:06)
04 - 004 Я тебя подожду_В - 11818. (3:16)
05 - 005 Как провожают пароходы_Д - 74174. (3:15)
06 - 006 Всё проходит_Д - 42180. (2:51)
07 - 007 Ты только одна виновата_Д - 31306. (2:39)
08 - 008 Возвращайся_ПВ - 90897. (3:48)
09 - 009 Я свпоминаю_ДВ - 75311. (3:40)
10 - 010 Мы жили по соседству_Д - 45119. (2:19)
11 - 011 Навязчивый мотив_Д - 61828. (2:58)
12 - 012 На солнечной поляночке_ДКС - 31836. (2:11)
13 - 013 Встреча друзей_ПВ - 076017. (4:27)
14 - 014 В лодке_Д - 1181. (3:55)
15 - 015 Московские Окна_В - 19166. (4:48)
”Отчет ЕАС”
Отчёт EAC об извлечении, выполненном 10. декабря 2012, 15:04 для диска:
Various / Легенды советской эстрады 50-60гг (CD2)
Дисковод: _NEC DVD_RW ND-4550A Adapter: 0 ID: 1
Режим чтения: Достоверный (C2: нет, Точный поток: да, Отключение кэша: да)
Коррекция смещения при чтении: 48
Способность читать области Lead-in и Lead-out : Нет
Выходной формат: C:\Program Files\FLAC\flac.exe (Пользовательский кодировщик)
128 kBit/s
Дополнительные параметры: -8 -V -T "ARTIST=%a" -T "TITLE=%t" -T "ALBUM=%g" -T "DATE=%y" -T "TRACKNUMBER=%n" -T "GENRE=%m" -T "COMMENT=EAC FLAC -8" %s
Другие параметры:
Заполнение пропущенных сэмплов тишиной : Да
Удаление блоков с тишиной в начале и конце : Нет
Встроенный Win32-интерфейс для Win NT/2000
Трек 1
Имя файла C:\Sergei\новая папка\01 - 001 Королева красоты_Д - 74274.wav
Длина предзазора 0:00:02.00
Пиковый уровень 88.0 %
Качество трека 100.0 %
CRC теста BFEB6DF7
CRC копии BFEB6DF7
Копирование... OK
Трек 2
Имя файла C:\Sergei\новая папка\02 - 002 Ландыши_Д - 54665.wav
Длина предзазора 0:00:02.00
Пиковый уровень 99.6 %
Качество трека 100.0 %
CRC теста 651C7718
CRC копии 651C7718
Копирование... OK
Трек 3
Имя файла C:\Sergei\новая папка\03 - 003 Ничего не вижу_В - 23632.wav
Длина предзазора 0:00:02.00
Пиковый уровень 88.0 %
Качество трека 100.0 %
CRC теста 10050972
CRC копии 10050972
Копирование... OK
Трек 4
Имя файла C:\Sergei\новая папка\04 - 004 Я тебя подожду_В - 11818.wav
Длина предзазора 0:00:02.00
Пиковый уровень 99.6 %
Качество трека 100.0 %
CRC теста 1336DC83
CRC копии 1336DC83
Копирование... OK
Трек 5
Имя файла C:\Sergei\новая папка\05 - 005 Как провожают пароходы_Д - 74174.wav
Длина предзазора 0:00:02.00
Пиковый уровень 99.6 %
Качество трека 100.0 %
CRC теста 6F1C0E62
CRC копии 6F1C0E62
Копирование... OK
Трек 6
Имя файла C:\Sergei\новая папка\06 - 006 Всё проходит_Д - 42180.wav
Длина предзазора 0:00:02.00
Пиковый уровень 99.6 %
Качество трека 100.0 %
CRC теста 0D2F27A9
CRC копии 0D2F27A9
Копирование... OK
Трек 7
Имя файла C:\Sergei\новая папка\07 - 007 Ты только одна виновата_Д - 31306.wav
Длина предзазора 0:00:02.00
Пиковый уровень 99.6 %
Качество трека 100.0 %
CRC теста 30D7F93E
CRC копии 30D7F93E
Копирование... OK
Трек 8
Имя файла C:\Sergei\новая папка\08 - 008 Возвращайся_ПВ - 90897.wav
Длина предзазора 0:00:02.00
Пиковый уровень 99.6 %
Качество трека 100.0 %
CRC теста 57A26912
CRC копии 57A26912
Копирование... OK
Трек 9
Имя файла C:\Sergei\новая папка\09 - 009 Я свпоминаю_ДВ - 75311.wav
Длина предзазора 0:00:02.00
Пиковый уровень 99.6 %
Качество трека 99.9 %
CRC теста 73243B2F
CRC копии 73243B2F
Копирование... OK
Трек 10
Имя файла C:\Sergei\новая папка\10 - 010 Мы жили по соседству_Д - 45119.wav
Длина предзазора 0:00:02.00
Пиковый уровень 99.6 %
Качество трека 99.9 %
CRC теста A3710CC7
CRC копии A3710CC7
Копирование... OK
Трек 11
Имя файла C:\Sergei\новая папка\11 - 011 Навязчивый мотив_Д - 61828.wav
Длина предзазора 0:00:02.00
Пиковый уровень 99.6 %
Качество трека 100.0 %
CRC теста 584998D9
CRC копии 584998D9
Копирование... OK
Трек 12
Имя файла C:\Sergei\новая папка\12 - 012 На солнечной поляночке_ДКС - 31836.wav
Длина предзазора 0:00:02.00
Пиковый уровень 99.6 %
Качество трека 100.0 %
CRC теста 4A5CBCAE
CRC копии 4A5CBCAE
Копирование... OK
Трек 13
Имя файла C:\Sergei\новая папка\13 - 013 Встреча друзей_ПВ - 076017.wav
Длина предзазора 0:00:02.00
Пиковый уровень 99.6 %
Качество трека 100.0 %
CRC теста DFEAB8C5
CRC копии DFEAB8C5
Копирование... OK
Трек 14
Имя файла C:\Sergei\новая папка\14 - 014 В лодке_Д - 1181.wav
Длина предзазора 0:00:02.00
Пиковый уровень 88.0 %
Качество трека 100.0 %
CRC теста D3E32E27
CRC копии D3E32E27
Копирование... OK
Трек 15
Имя файла C:\Sergei\новая папка\15 - 015 Московские Окна_В - 19166.wav
Длина предзазора 0:00:02.00
Пиковый уровень 99.6 %
Качество трека 99.9 %
CRC теста E5F01CED
CRC копии E5F01CED
Копирование... OK
Ошибок не произошло
Конец отчёта
"Non-compilant CUE"
REM GENRE Instrumental
REM DATE 2012
REM DISCID EA0B450F
REM COMMENT "ExactAudioCopy v0.95b3"
PERFORMER "Various"
TITLE "Легенды советской эстрады 50-60гг (CD2)"
FILE "01 - 001 Королева красоты_Д - 74274.wav" WAVE
TRACK 01 AUDIO
TITLE "74274"
PERFORMER "001 Королева красоты_Д"
FLAGS DCP
INDEX 01 00:00:00
TRACK 02 AUDIO
TITLE "54665"
PERFORMER "002 Ландыши_Д"
FLAGS DCP
INDEX 00 02:29:20
FILE "02 - 002 Ландыши_Д - 54665.wav" WAVE
INDEX 01 00:00:00
TRACK 03 AUDIO
TITLE "23632"
PERFORMER "003 Ничего не вижу_В"
FLAGS DCP
INDEX 00 03:13:40
FILE "03 - 003 Ничего не вижу_В - 23632.wav" WAVE
INDEX 01 00:00:00
TRACK 04 AUDIO
TITLE "11818"
PERFORMER "004 Я тебя подожду_В"
FLAGS DCP
INDEX 00 02:04:22
FILE "04 - 004 Я тебя подожду_В - 11818.wav" WAVE
INDEX 01 00:00:00
TRACK 05 AUDIO
TITLE "74174"
PERFORMER "005 Как провожают пароходы_Д"
FLAGS DCP
INDEX 00 03:14:46
FILE "05 - 005 Как провожают пароходы_Д - 74174.wav" WAVE
INDEX 01 00:00:00
TRACK 06 AUDIO
TITLE "42180"
PERFORMER "006 Всё проходит_Д"
FLAGS DCP
INDEX 00 03:13:26
FILE "06 - 006 Всё проходит_Д - 42180.wav" WAVE
INDEX 01 00:00:00
TRACK 07 AUDIO
TITLE "31306"
PERFORMER "007 Ты только одна виновата_Д"
FLAGS DCP
INDEX 00 02:49:40
FILE "07 - 007 Ты только одна виновата_Д - 31306.wav" WAVE
INDEX 01 00:00:00
TRACK 08 AUDIO
TITLE "90897"
PERFORMER "008 Возвращайся_ПВ"
FLAGS DCP
INDEX 00 02:37:19
FILE "08 - 008 Возвращайся_ПВ - 90897.wav" WAVE
INDEX 01 00:00:00
TRACK 09 AUDIO
TITLE "75311"
PERFORMER "009 Я свпоминаю_ДВ"
FLAGS DCP
INDEX 00 03:46:50
FILE "09 - 009 Я свпоминаю_ДВ - 75311.wav" WAVE
INDEX 01 00:00:00
TRACK 10 AUDIO
TITLE "45119"
PERFORMER "010 Мы жили по соседству_Д"
FLAGS DCP
INDEX 00 03:38:09
FILE "10 - 010 Мы жили по соседству_Д - 45119.wav" WAVE
INDEX 01 00:00:00
TRACK 11 AUDIO
TITLE "61828"
PERFORMER "011 Навязчивый мотив_Д"
FLAGS DCP
INDEX 00 02:17:58
FILE "11 - 011 Навязчивый мотив_Д - 61828.wav" WAVE
INDEX 01 00:00:00
TRACK 12 AUDIO
TITLE "31836"
PERFORMER "012 На солнечной поляночке_ДКС"
FLAGS DCP
INDEX 00 02:56:14
FILE "12 - 012 На солнечной поляночке_ДКС - 31836.wav" WAVE
INDEX 01 00:00:00
TRACK 13 AUDIO
TITLE "076017"
PERFORMER "013 Встреча друзей_ПВ"
FLAGS DCP
INDEX 00 02:09:18
FILE "13 - 013 Встреча друзей_ПВ - 076017.wav" WAVE
INDEX 01 00:00:00
TRACK 14 AUDIO
TITLE "1181"
PERFORMER "014 В лодке_Д"
FLAGS DCP
INDEX 00 04:25:43
FILE "14 - 014 В лодке_Д - 1181.wav" WAVE
INDEX 01 00:00:00
TRACK 15 AUDIO
TITLE "19166"
PERFORMER "015 Московские Окна_В"
FLAGS DCP
INDEX 00 03:53:71
FILE "15 - 015 Московские Окна_В - 19166.wav" WAVE
INDEX 01 00:00:00
"Лог Audiochecker"
AUDIOCHECKER v2.0 beta (build 457) - by Dester - [email protected]
~~~~~~~~~~~~~~~~~~~~~~~~~~~~~~~~~~
-=== НЕ РЕДАКТИРУЙТЕ ЭТОТ ФАЙЛ! ===-
Путь: ...\CD2
01 -=- 01 - 001 Королева красоты_Д - 74274.flac -=- CDDA (100%)
02 -=- 02 - 002 Ландыши_Д - 54665.flac -=- CDDA (100%)
03 -=- 03 - 003 Ничего не вижу_В - 23632.flac -=- CDDA (100%)
04 -=- 04 - 004 Я тебя подожду_В - 11818.flac -=- CDDA (100%)
05 -=- 05 - 005 Как провожают пароходы_Д - 74174.flac -=- CDDA (100%)
06 -=- 06 - 006 Всё проходит_Д - 42180.flac -=- CDDA (100%)
07 -=- 07 - 007 Ты только одна виновата_Д - 31306.flac -=- CDDA (100%)
08 -=- 08 - 008 Возвращайся_ПВ - 90897.flac -=- CDDA (100%)
09 -=- 09 - 009 Я свпоминаю_ДВ - 75311.flac -=- CDDA (100%)
10 -=- 10 - 010 Мы жили по соседству_Д - 45119.flac -=- CDDA (100%)
11 -=- 11 - 011 Навязчивый мотив_Д - 61828.flac -=- CDDA (100%)
12 -=- 12 - 012 На солнечной поляночке_ДКС - 31836.flac -=- CDDA (100%)
13 -=- 13 - 013 Встреча друзей_ПВ - 076017.flac -=- CDDA (100%)
14 -=- 14 - 014 В лодке_Д - 1181.flac -=- CDDA (100%)
15 -=- 15 - 015 Московские Окна_В - 19166.flac -=- CDDA (100%)
Сводка 100,00% CDDA
78444580
Трэклист
01 - 001 Синий платочек_Д - 76052. (2:35)
02 - 002 На безымянной высоте_ДКС - 19180. (4:47)
03 - 003 Где же вы теперь, друзья - однополчане_ДКСВ-20790. (5:58)
04 - 004 Любимый город_Д - 44322. (2:28)
05 - 005 Под звёздами балканскими_ДКС - 46052. (1:35)
06 - 006 Прощайте, скалистые горы_ДКС - 19143. (2:45)
07 - 007 Бери шинель, пошли домой_ДКС - 37529. (4:28)
08 - 008 Нет, не забудет солдат_Д - 3044. (3:29)
09 - 009 Катюша_Д - 3986. (2:17)
10 - 010 Ростов - город_Д-2141. (3:03)
11 - 011 Вечер на рейде_Д - 20508. (5:26)
12 - 012 Заветный камень_Д - 2787. (6:33)
13 - 013 Песня о фонарике_П - 07785. (3:22)
14 - 014 Давно мы дома не были_Д - 6043. (2:33)
15 - 015 Звёздочка_Д - 35473. (2:02)
16 - 016 Тучи над городом встали_Д - 44323. (1:59)
”Отчет ЕАС”
Отчёт EAC об извлечении, выполненном 10. декабря 2012, 15:57 для диска:
Various / Легенды советской эстрады 50-60гг (CD3)
Дисковод: _NEC DVD_RW ND-4550A Adapter: 0 ID: 1
Режим чтения: Достоверный (C2: нет, Точный поток: да, Отключение кэша: да)
Коррекция смещения при чтении: 48
Способность читать области Lead-in и Lead-out : Нет
Выходной формат: C:\Program Files\FLAC\flac.exe (Пользовательский кодировщик)
128 kBit/s
Дополнительные параметры: -8 -V -T "ARTIST=%a" -T "TITLE=%t" -T "ALBUM=%g" -T "DATE=%y" -T "TRACKNUMBER=%n" -T "GENRE=%m" -T "COMMENT=EAC FLAC -8" %s
Другие параметры:
Заполнение пропущенных сэмплов тишиной : Да
Удаление блоков с тишиной в начале и конце : Нет
Встроенный Win32-интерфейс для Win NT/2000
Трек 1
Имя файла C:\Sergei\новая папка\01 - 001 Синий платочек_Д - 76052.wav
Длина предзазора 0:00:02.00
Пиковый уровень 99.6 %
Качество трека 100.0 %
CRC теста 1378844A
CRC копии 1378844A
Копирование... OK
Трек 2
Имя файла C:\Sergei\новая папка\02 - 002 На безымянной высоте_ДКС - 19180.wav
Длина предзазора 0:00:02.00
Пиковый уровень 91.5 %
Качество трека 99.9 %
CRC теста 1FBA6E4F
CRC копии 1FBA6E4F
Копирование... OK
Трек 3
Имя файла C:\Sergei\новая папка\03 - 003 Где же вы теперь, друзья - однополчане_ДКСВ-20790.wav
Длина предзазора 0:00:02.00
Пиковый уровень 91.5 %
Качество трека 100.0 %
CRC теста C3E4BEDA
CRC копии C3E4BEDA
Копирование... OK
Трек 4
Имя файла C:\Sergei\новая папка\04 - 004 Любимый город_Д - 44322.wav
Длина предзазора 0:00:02.00
Пиковый уровень 99.6 %
Качество трека 100.0 %
CRC теста 6F4B1429
CRC копии 6F4B1429
Копирование... OK
Трек 5
Имя файла C:\Sergei\новая папка\05 - 005 Под звёздами балканскими_ДКС - 46052.wav
Длина предзазора 0:00:02.00
Пиковый уровень 76.3 %
Качество трека 100.0 %
CRC теста 0622C21A
CRC копии 0622C21A
Копирование... OK
Трек 6
Имя файла C:\Sergei\новая папка\06 - 006 Прощайте, скалистые горы_ДКС - 19143.wav
Длина предзазора 0:00:02.00
Пиковый уровень 99.6 %
Качество трека 99.9 %
CRC теста 5254EA8C
CRC копии 5254EA8C
Копирование... OK
Трек 7
Имя файла C:\Sergei\новая папка\07 - 007 Бери шинель, пошли домой_ДКС - 37529.wav
Длина предзазора 0:00:02.00
Пиковый уровень 91.5 %
Качество трека 100.0 %
CRC теста A90F095A
CRC копии A90F095A
Копирование... OK
Трек 8
Имя файла C:\Sergei\новая папка\08 - 008 Нет, не забудет солдат_Д - 3044.wav
Длина предзазора 0:00:02.00
Пиковый уровень 99.6 %
Качество трека 100.0 %
CRC теста FC1763D3
CRC копии FC1763D3
Копирование... OK
Трек 9
Имя файла C:\Sergei\новая папка\09 - 009 Катюша_Д - 3986.wav
Длина предзазора 0:00:02.00
Пиковый уровень 99.6 %
Качество трека 100.0 %
CRC теста 13E00E64
CRC копии 13E00E64
Копирование... OK
Трек 10
Имя файла C:\Sergei\новая папка\10 - 010 Ростов - город_Д-2141.wav
Длина предзазора 0:00:02.00
Пиковый уровень 91.5 %
Качество трека 100.0 %
CRC теста C2CA56AD
CRC копии C2CA56AD
Копирование... OK
Трек 11
Имя файла C:\Sergei\новая папка\11 - 011 Вечер на рейде_Д - 20508.wav
Длина предзазора 0:00:02.00
Пиковый уровень 91.5 %
Качество трека 100.0 %
CRC теста 6001A586
CRC копии 6001A586
Копирование... OK
Трек 12
Имя файла C:\Sergei\новая папка\12 - 012 Заветный камень_Д - 2787.wav
Длина предзазора 0:00:02.00
Пиковый уровень 81.9 %
Качество трека 100.0 %
CRC теста 488073A2
CRC копии 488073A2
Копирование... OK
Трек 13
Имя файла C:\Sergei\новая папка\13 - 013 Песня о фонарике_П - 07785.wav
Длина предзазора 0:00:02.00
Пиковый уровень 91.5 %
Качество трека 100.0 %
CRC теста 6A6F0C93
CRC копии 6A6F0C93
Копирование... OK
Трек 14
Имя файла C:\Sergei\новая папка\14 - 014 Давно мы дома не были_Д - 6043.wav
Длина предзазора 0:00:02.00
Пиковый уровень 99.6 %
Качество трека 100.0 %
CRC теста 876AE9F2
CRC копии 876AE9F2
Копирование... OK
Трек 15
Имя файла C:\Sergei\новая папка\15 - 015 Звёздочка_Д - 35473.wav
Длина предзазора 0:00:02.00
Пиковый уровень 91.5 %
Качество трека 100.0 %
CRC теста 9CA651FA
CRC копии 9CA651FA
Копирование... OK
Трек 16
Имя файла C:\Sergei\новая папка\16 - 016 Тучи над городом встали_Д - 44323.wav
Длина предзазора 0:00:02.00
Пиковый уровень 99.6 %
Качество трека 100.0 %
CRC теста 7A35F6A0
CRC копии 7A35F6A0
Копирование... OK
Ошибок не произошло
Конец отчёта
"Non-compilant CUE"
REM GENRE Instrumental
REM DATE 2012
REM DISCID C50D0010
REM COMMENT "ExactAudioCopy v0.95b3"
PERFORMER "Various"
TITLE "Легенды советской эстрады 50-60гг (CD3)"
FILE "01 - 001 Синий платочек_Д - 76052.wav" WAVE
TRACK 01 AUDIO
TITLE "76052"
PERFORMER "001 Синий платочек_Д"
FLAGS DCP
INDEX 01 00:00:00
TRACK 02 AUDIO
TITLE "19180"
PERFORMER "002 На безымянной высоте_ДКС"
FLAGS DCP
INDEX 00 02:33:07
FILE "02 - 002 На безымянной высоте_ДКС - 19180.wav" WAVE
INDEX 01 00:00:00
TRACK 03 AUDIO
TITLE "однополчане_ДКСВ-20790"
PERFORMER "003 Где же вы теперь, друзья"
FLAGS DCP
INDEX 00 04:45:39
FILE "03 - 003 Где же вы теперь, друзья - однополчане_ДКСВ-20790.wav" WAVE
INDEX 01 00:00:00
TRACK 04 AUDIO
TITLE "44322"
PERFORMER "004 Любимый город_Д"
FLAGS DCP
INDEX 00 05:56:15
FILE "04 - 004 Любимый город_Д - 44322.wav" WAVE
INDEX 01 00:00:00
TRACK 05 AUDIO
TITLE "46052"
PERFORMER "005 Под звёздами балканскими_ДКС"
FLAGS DCP
INDEX 00 02:26:71
FILE "05 - 005 Под звёздами балканскими_ДКС - 46052.wav" WAVE
INDEX 01 00:00:00
TRACK 06 AUDIO
TITLE "19143"
PERFORMER "006 Прощайте, скалистые горы_ДКС"
FLAGS DCP
INDEX 00 01:33:61
FILE "06 - 006 Прощайте, скалистые горы_ДКС - 19143.wav" WAVE
INDEX 01 00:00:00
TRACK 07 AUDIO
TITLE "37529"
PERFORMER "007 Бери шинель, пошли домой_ДКС"
FLAGS DCP
INDEX 00 02:43:01
FILE "07 - 007 Бери шинель, пошли домой_ДКС - 37529.wav" WAVE
INDEX 01 00:00:00
TRACK 08 AUDIO
TITLE "3044"
PERFORMER "008 Нет, не забудет солдат_Д"
FLAGS DCP
INDEX 00 04:26:51
FILE "08 - 008 Нет, не забудет солдат_Д - 3044.wav" WAVE
INDEX 01 00:00:00
TRACK 09 AUDIO
TITLE "3986"
PERFORMER "009 Катюша_Д"
FLAGS DCP
INDEX 00 03:27:17
FILE "09 - 009 Катюша_Д - 3986.wav" WAVE
INDEX 01 00:00:00
TRACK 10 AUDIO
TITLE "город_Д-2141"
PERFORMER "010 Ростов"
FLAGS DCP
INDEX 00 02:15:52
FILE "10 - 010 Ростов - город_Д-2141.wav" WAVE
INDEX 01 00:00:00
TRACK 11 AUDIO
TITLE "20508"
PERFORMER "011 Вечер на рейде_Д"
FLAGS DCP
INDEX 00 03:01:42
FILE "11 - 011 Вечер на рейде_Д - 20508.wav" WAVE
INDEX 01 00:00:00
TRACK 12 AUDIO
TITLE "2787"
PERFORMER "012 Заветный камень_Д"
FLAGS DCP
INDEX 00 05:24:45
FILE "12 - 012 Заветный камень_Д - 2787.wav" WAVE
INDEX 01 00:00:00
TRACK 13 AUDIO
TITLE "07785"
PERFORMER "013 Песня о фонарике_П"
FLAGS DCP
INDEX 00 06:31:66
FILE "13 - 013 Песня о фонарике_П - 07785.wav" WAVE
INDEX 01 00:00:00
TRACK 14 AUDIO
TITLE "6043"
PERFORMER "014 Давно мы дома не были_Д"
FLAGS DCP
INDEX 00 03:20:47
FILE "14 - 014 Давно мы дома не были_Д - 6043.wav" WAVE
INDEX 01 00:00:00
TRACK 15 AUDIO
TITLE "35473"
PERFORMER "015 Звёздочка_Д"
FLAGS DCP
INDEX 00 02:31:61
FILE "15 - 015 Звёздочка_Д - 35473.wav" WAVE
INDEX 01 00:00:00
TRACK 16 AUDIO
TITLE "44323"
PERFORMER "016 Тучи над городом встали_Д"
FLAGS DCP
INDEX 00 02:00:71
FILE "16 - 016 Тучи над городом встали_Д - 44323.wav" WAVE
INDEX 01 00:00:00
"Лог Audiochecker"
AUDIOCHECKER v2.0 beta (build 457) - by Dester - [email protected]
~~~~~~~~~~~~~~~~~~~~~~~~~~~~~~~~~~
-=== НЕ РЕДАКТИРУЙТЕ ЭТОТ ФАЙЛ! ===-
Путь: ...\CD3
01 -=- 01 - 001 Синий платочек_Д - 76052.flac -=- CDDA (100%)
02 -=- 02 - 002 На безымянной высоте_ДКС - 19180.flac -=- CDDA (100%)
03 -=- 03 - 003 Где же вы теперь, друзья - однополчане_ДКСВ-20790.flac -=- CDDA (100%)
04 -=- 04 - 004 Любимый город_Д - 44322.flac -=- CDDA (100%)
05 -=- 05 - 005 Под звёздами балканскими_ДКС - 46052.flac -=- CDDA (100%)
06 -=- 06 - 006 Прощайте, скалистые горы_ДКС - 19143.flac -=- CDDA (100%)
07 -=- 07 - 007 Бери шинель, пошли домой_ДКС - 37529.flac -=- CDDA (99%)
08 -=- 08 - 008 Нет, не забудет солдат_Д - 3044.flac -=- CDDA (100%)
09 -=- 09 - 009 Катюша_Д - 3986.flac -=- CDDA (99%)
10 -=- 10 - 010 Ростов - город_Д-2141.flac -=- CDDA (100%)
11 -=- 11 - 011 Вечер на рейде_Д - 20508.flac -=- CDDA (100%)
12 -=- 12 - 012 Заветный камень_Д - 2787.flac -=- CDDA (100%)
13 -=- 13 - 013 Песня о фонарике_П - 07785.flac -=- CDDA (100%)
14 -=- 14 - 014 Давно мы дома не были_Д - 6043.flac -=- CDDA (100%)
15 -=- 15 - 015 Звёздочка_Д - 35473.flac -=- CDDA (99%)
16 -=- 16 - 016 Тучи над городом встали_Д - 44323.flac -=- CDDA (100%)
Сводка 99,81% CDDA
236499188
Трэклист
01 - 001 Каким ты был_Д - 45696. (2:58)
02 - 002 Лусше нету того цвету - 4441. (2:43)
03 - 003 Ах, Самара - городок_ДКСВ-45728. (3:37)
04 - 004 Будьте здоровы_Д - 67162. (2:24)
05 - 005 Огней так много золотых_ДКС - 30712. (2:44)
06 - 006 Одинокая гармонь_Д - 5004. (3:07)
07 - 007 И кто его знает_Д - 20493. (3:34)
08 - 008 Старый клён_ДКС - 21010. (3:03)
09 - 009 За фабричной заставой_Д - 43824. (3:10)
10 - 010 Любимые глаза_Д - 41595. (3:26)
11 - 011 Морзянка_В - 19378. (3:58)
12 - 012 Ты да Я_Д - 8396. (2:48)
13 - 013 Сирень - Черёмуха_Д-1288. (3:18)
14 - 014 Мой Вася_Д - 44203. (2:07)
15 - 015 Куплеты Курочкина_П - 23806. (1:55)
”Отчет ЕАС”
Отчёт EAC об извлечении, выполненном 10. декабря 2012, 18:33 для диска:
Various / Легенды советской эстрады 50-60гг (CD4)
Дисковод: _NEC DVD_RW ND-4550A Adapter: 0 ID: 1
Режим чтения: Достоверный (C2: нет, Точный поток: да, Отключение кэша: да)
Коррекция смещения при чтении: 48
Способность читать области Lead-in и Lead-out : Нет
Выходной формат: C:\Program Files\FLAC\flac.exe (Пользовательский кодировщик)
128 kBit/s
Дополнительные параметры: -8 -V -T "ARTIST=%a" -T "TITLE=%t" -T "ALBUM=%g" -T "DATE=%y" -T "TRACKNUMBER=%n" -T "GENRE=%m" -T "COMMENT=EAC FLAC -8" %s
Другие параметры:
Заполнение пропущенных сэмплов тишиной : Да
Удаление блоков с тишиной в начале и конце : Нет
Встроенный Win32-интерфейс для Win NT/2000
Трек 1
Имя файла C:\Sergei\новая папка\01 - 001 Каким ты был_Д - 45696.wav
Длина предзазора 0:00:02.00
Пиковый уровень 99.6 %
Качество трека 99.9 %
CRC теста C18F1B24
CRC копии C18F1B24
Копирование... OK
Трек 2
Имя файла C:\Sergei\новая папка\02 - 002 Лусше нету того цвету - 4441.wav
Длина предзазора 0:00:02.00
Пиковый уровень 99.6 %
Качество трека 100.0 %
CRC теста 75D628D4
CRC копии 75D628D4
Копирование... OK
Трек 3
Имя файла C:\Sergei\новая папка\03 - 003 Ах, Самара - городок_ДКСВ-45728.wav
Длина предзазора 0:00:02.00
Пиковый уровень 99.6 %
Качество трека 100.0 %
CRC теста 6685B831
CRC копии 6685B831
Копирование... OK
Трек 4
Имя файла C:\Sergei\новая папка\04 - 004 Будьте здоровы_Д - 67162.wav
Длина предзазора 0:00:02.00
Пиковый уровень 99.6 %
Качество трека 100.0 %
CRC теста E83BFD3C
CRC копии E83BFD3C
Копирование... OK
Трек 5
Имя файла C:\Sergei\новая папка\05 - 005 Огней так много золотых_ДКС - 30712.wav
Длина предзазора 0:00:02.00
Пиковый уровень 99.6 %
Качество трека 100.0 %
CRC теста 9EACE569
CRC копии 9EACE569
Копирование... OK
Трек 6
Имя файла C:\Sergei\новая папка\06 - 006 Одинокая гармонь_Д - 5004.wav
Длина предзазора 0:00:02.00
Пиковый уровень 99.6 %
Качество трека 100.0 %
CRC теста 98550396
CRC копии 98550396
Копирование... OK
Трек 7
Имя файла C:\Sergei\новая папка\07 - 007 И кто его знает_Д - 20493.wav
Длина предзазора 0:00:02.00
Пиковый уровень 99.6 %
Качество трека 99.9 %
CRC теста 73ECC269
CRC копии 73ECC269
Копирование... OK
Трек 8
Имя файла C:\Sergei\новая папка\08 - 008 Старый клён_ДКС - 21010.wav
Длина предзазора 0:00:02.00
Пиковый уровень 99.6 %
Качество трека 99.9 %
CRC теста 85376315
CRC копии 85376315
Копирование... OK
Трек 9
Имя файла C:\Sergei\новая папка\09 - 009 За фабричной заставой_Д - 43824.wav
Длина предзазора 0:00:02.00
Пиковый уровень 99.6 %
Качество трека 100.0 %
CRC теста FADBEF6D
CRC копии FADBEF6D
Копирование... OK
Трек 10
Имя файла C:\Sergei\новая папка\10 - 010 Любимые глаза_Д - 41595.wav
Длина предзазора 0:00:02.00
Пиковый уровень 99.6 %
Качество трека 100.0 %
CRC теста 63C51C28
CRC копии 63C51C28
Копирование... OK
Трек 11
Имя файла C:\Sergei\новая папка\11 - 011 Морзянка_В - 19378.wav
Длина предзазора 0:00:02.00
Пиковый уровень 99.6 %
Качество трека 100.0 %
CRC теста 4B71893E
CRC копии 53A3CAEC
Копирование... OK
Трек 12
Имя файла C:\Sergei\новая папка\12 - 012 Ты да Я_Д - 8396.wav
Длина предзазора 0:00:02.00
Пиковый уровень 92.3 %
Качество трека 100.0 %
CRC теста EAB4464A
CRC копии B01FE4A8
Копирование... OK
Трек 13
Имя файла C:\Sergei\новая папка\13 - 013 Сирень - Черёмуха_Д-1288.wav
Длина предзазора 0:00:02.00
Пиковый уровень 99.6 %
Качество трека 100.0 %
CRC теста B6096098
CRC копии B6096098
Копирование... OK
Трек 14
Имя файла C:\Sergei\новая папка\14 - 014 Мой Вася_Д - 44203.wav
Длина предзазора 0:00:02.00
Пиковый уровень 99.6 %
Качество трека 100.0 %
CRC теста 0752E5F9
CRC копии 0752E5F9
Копирование... OK
Трек 15
Имя файла C:\Sergei\новая папка\15 - 015 Куплеты Курочкина_П - 23806.wav
Длина предзазора 0:00:02.00
Пиковый уровень 99.6 %
Качество трека 100.0 %
CRC теста A0EB72F9
CRC копии A0EB72F9
Копирование... OK
Ошибок не произошло
Конец отчёта
"Non-compilant CUE"
REM GENRE Instrumental
REM DATE 2012
REM DISCID D00A8B0F
REM COMMENT "ExactAudioCopy v0.95b3"
PERFORMER "Various"
TITLE "Легенды советской эстрады 50-60гг (CD4)"
FILE "01 - 001 Каким ты был_Д - 45696.wav" WAVE
TRACK 01 AUDIO
TITLE "45696"
PERFORMER "001 Каким ты был_Д"
FLAGS DCP
INDEX 01 00:00:00
TRACK 02 AUDIO
TITLE "4441"
PERFORMER "002 Лусше нету того цвету"
FLAGS DCP
INDEX 00 02:56:48
FILE "02 - 002 Лусше нету того цвету - 4441.wav" WAVE
INDEX 01 00:00:00
TRACK 03 AUDIO
TITLE "городок_ДКСВ-45728"
PERFORMER "003 Ах, Самара"
FLAGS DCP
INDEX 00 02:41:13
FILE "03 - 003 Ах, Самара - городок_ДКСВ-45728.wav" WAVE
INDEX 01 00:00:00
TRACK 04 AUDIO
TITLE "67162"
PERFORMER "004 Будьте здоровы_Д"
FLAGS DCP
INDEX 00 03:35:15
FILE "04 - 004 Будьте здоровы_Д - 67162.wav" WAVE
INDEX 01 00:00:00
TRACK 05 AUDIO
TITLE "30712"
PERFORMER "005 Огней так много золотых_ДКС"
FLAGS DCP
INDEX 00 02:22:53
FILE "05 - 005 Огней так много золотых_ДКС - 30712.wav" WAVE
INDEX 01 00:00:00
TRACK 06 AUDIO
TITLE "5004"
PERFORMER "006 Одинокая гармонь_Д"
FLAGS DCP
INDEX 00 02:42:16
FILE "06 - 006 Одинокая гармонь_Д - 5004.wav" WAVE
INDEX 01 00:00:00
TRACK 07 AUDIO
TITLE "20493"
PERFORMER "007 И кто его знает_Д"
FLAGS DCP
INDEX 00 03:05:62
FILE "07 - 007 И кто его знает_Д - 20493.wav" WAVE
INDEX 01 00:00:00
TRACK 08 AUDIO
TITLE "21010"
PERFORMER "008 Старый клён_ДКС"
FLAGS DCP
INDEX 00 03:32:39
FILE "08 - 008 Старый клён_ДКС - 21010.wav" WAVE
INDEX 01 00:00:00
TRACK 09 AUDIO
TITLE "43824"
PERFORMER "009 За фабричной заставой_Д"
FLAGS DCP
INDEX 00 03:01:71
FILE "09 - 009 За фабричной заставой_Д - 43824.wav" WAVE
INDEX 01 00:00:00
TRACK 10 AUDIO
TITLE "41595"
PERFORMER "010 Любимые глаза_Д"
FLAGS DCP
INDEX 00 03:08:74
FILE "10 - 010 Любимые глаза_Д - 41595.wav" WAVE
INDEX 01 00:00:00
TRACK 11 AUDIO
TITLE "19378"
PERFORMER "011 Морзянка_В"
FLAGS DCP
INDEX 00 03:24:19
FILE "11 - 011 Морзянка_В - 19378.wav" WAVE
INDEX 01 00:00:00
TRACK 12 AUDIO
TITLE "8396"
PERFORMER "012 Ты да Я_Д"
FLAGS DCP
INDEX 00 03:56:70
FILE "12 - 012 Ты да Я_Д - 8396.wav" WAVE
INDEX 01 00:00:00
TRACK 13 AUDIO
TITLE "Черёмуха_Д-1288"
PERFORMER "013 Сирень"
FLAGS DCP
INDEX 00 02:46:15
FILE "13 - 013 Сирень - Черёмуха_Д-1288.wav" WAVE
INDEX 01 00:00:00
TRACK 14 AUDIO
TITLE "44203"
PERFORMER "014 Мой Вася_Д"
FLAGS DCP
INDEX 00 03:16:47
FILE "14 - 014 Мой Вася_Д - 44203.wav" WAVE
INDEX 01 00:00:00
TRACK 15 AUDIO
TITLE "23806"
PERFORMER "015 Куплеты Курочкина_П"
FLAGS DCP
INDEX 00 02:05:05
FILE "15 - 015 Куплеты Курочкина_П - 23806.wav" WAVE
INDEX 01 00:00:00
"Лог Audiochecker"
AUDIOCHECKER v2.0 beta (build 457) - by Dester - [email protected]
~~~~~~~~~~~~~~~~~~~~~~~~~~~~~~~~~~
-=== НЕ РЕДАКТИРУЙТЕ ЭТОТ ФАЙЛ! ===-
Путь: ...\CD4
01 -=- 01 - 001 Каким ты был_Д - 45696.flac -=- CDDA (100%)
02 -=- 02 - 002 Лусше нету того цвету - 4441.flac -=- CDDA (100%)
03 -=- 03 - 003 Ах, Самара - городок_ДКСВ-45728.flac -=- CDDA (43%)
04 -=- 04 - 004 Будьте здоровы_Д - 67162.flac -=- CDDA (100%)
05 -=- 05 - 005 Огней так много золотых_ДКС - 30712.flac -=- CDDA (100%)
06 -=- 06 - 006 Одинокая гармонь_Д - 5004.flac -=- CDDA (100%)
07 -=- 07 - 007 И кто его знает_Д - 20493.flac -=- CDDA (100%)
08 -=- 08 - 008 Старый клён_ДКС - 21010.flac -=- CDDA (100%)
09 -=- 09 - 009 За фабричной заставой_Д - 43824.flac -=- CDDA (100%)
10 -=- 10 - 010 Любимые глаза_Д - 41595.flac -=- CDDA (100%)
11 -=- 11 - 011 Морзянка_В - 19378.flac -=- CDDA (100%)
12 -=- 12 - 012 Ты да Я_Д - 8396.flac -=- CDDA (100%)
13 -=- 13 - 013 Сирень - Черёмуха_Д-1288.flac -=- CDDA (100%)
14 -=- 14 - 014 Мой Вася_Д - 44203.flac -=- CDDA (100%)
15 -=- 15 - 015 Куплеты Курочкина_П - 23806.flac -=- CDDA (100%)
Сводка 96,20% CDDA
179880068
Трэклист
01 - 001 Течёт Волга_ДКС - 63082. (6:03)
02 - 002 Пора в путь - дорогу_Д-73636. (3:07)
03 - 003 Я люблю тебя, жизнь_Д - 54572. (3:27)
04 - 004 Подмосковные вечера_Д - 45067. (4:29)
05 - 005 Когда весна придёт_В - 1606. (3:36)
06 - 006 Весёлый марш высотников_Д - 50827. (2:08)
07 - 007 Когда поёт далёкий друг_Д - 40517. (3:28)
08 - 008 Вернулся на Родину_Д - 32104. (3:22)
09 - 009 - Огонёк_3813. (4:38)
10 - 010 Сядь со мною рядом_Д - 45456. (2:30)
11 - 011 - Тропинка_4442. (2:05)
12 - 012 Тополя_Д - 77513. (3:18)
13 - 013 Что было - то было_ДКС-5631. (3:33)
14 - 014 Где ж ты, мой сад_Д - 80104. (3:16)
15 - 015 Грустные ивы_Д - 7666. (3:12)
”Отчет ЕАС”
Отчёт EAC об извлечении, выполненном 10. декабря 2012, 19:14 для диска:
Various / Легенды советской эстрады 50-60гг (CD5)
Дисковод: _NEC DVD_RW ND-4550A Adapter: 0 ID: 1
Режим чтения: Достоверный (C2: нет, Точный поток: да, Отключение кэша: да)
Коррекция смещения при чтении: 48
Способность читать области Lead-in и Lead-out : Нет
Выходной формат: C:\Program Files\FLAC\flac.exe (Пользовательский кодировщик)
128 kBit/s
Дополнительные параметры: -8 -V -T "ARTIST=%a" -T "TITLE=%t" -T "ALBUM=%g" -T "DATE=%y" -T "TRACKNUMBER=%n" -T "GENRE=%m" -T "COMMENT=EAC FLAC -8" %s
Другие параметры:
Заполнение пропущенных сэмплов тишиной : Да
Удаление блоков с тишиной в начале и конце : Нет
Встроенный Win32-интерфейс для Win NT/2000
Трек 1
Имя файла C:\Sergei\новая папка\01 - 001 Течёт Волга_ДКС - 63082.wav
Длина предзазора 0:00:02.00
Пиковый уровень 99.6 %
Качество трека 100.0 %
CRC теста B6750D19
CRC копии B6750D19
Копирование... OK
Трек 2
Имя файла C:\Sergei\новая папка\02 - 002 Пора в путь - дорогу_Д-73636.wav
Длина предзазора 0:00:02.00
Пиковый уровень 92.3 %
Качество трека 99.9 %
CRC теста 3F01607A
CRC копии 3F01607A
Копирование... OK
Трек 3
Имя файла C:\Sergei\новая папка\03 - 003 Я люблю тебя, жизнь_Д - 54572.wav
Длина предзазора 0:00:02.00
Пиковый уровень 99.6 %
Качество трека 100.0 %
CRC теста 8B06BF31
CRC копии 8B06BF31
Копирование... OK
Трек 4
Имя файла C:\Sergei\новая папка\04 - 004 Подмосковные вечера_Д - 45067.wav
Длина предзазора 0:00:02.00
Пиковый уровень 99.6 %
Качество трека 100.0 %
CRC теста ABB8C44A
CRC копии ABB8C44A
Копирование... OK
Трек 5
Имя файла C:\Sergei\новая папка\05 - 005 Когда весна придёт_В - 1606.wav
Длина предзазора 0:00:02.00
Пиковый уровень 99.6 %
Качество трека 99.9 %
CRC теста 902FF5AC
CRC копии 902FF5AC
Копирование... OK
Трек 6
Имя файла C:\Sergei\новая папка\06 - 006 Весёлый марш высотников_Д - 50827.wav
Длина предзазора 0:00:02.00
Пиковый уровень 99.6 %
Качество трека 100.0 %
CRC теста 7643C634
CRC копии 7643C634
Копирование... OK
Трек 7
Имя файла C:\Sergei\новая папка\07 - 007 Когда поёт далёкий друг_Д - 40517.wav
Длина предзазора 0:00:02.00
Пиковый уровень 99.6 %
Качество трека 100.0 %
CRC теста C7F0AF11
CRC копии C7F0AF11
Копирование... OK
Трек 8
Имя файла C:\Sergei\новая папка\08 - 008 Вернулся на Родину_Д - 32104.wav
Длина предзазора 0:00:02.00
Пиковый уровень 99.6 %
Качество трека 100.0 %
CRC теста 26FE51E6
CRC копии 26FE51E6
Копирование... OK
Трек 9
Имя файла C:\Sergei\новая папка\09 - 009 - Огонёк_3813.wav
Длина предзазора 0:00:02.00
Пиковый уровень 92.3 %
Качество трека 100.0 %
CRC теста 90BEFBA0
CRC копии 90BEFBA0
Копирование... OK
Трек 10
Имя файла C:\Sergei\новая папка\10 - 010 Сядь со мною рядом_Д - 45456.wav
Длина предзазора 0:00:02.00
Пиковый уровень 99.6 %
Качество трека 100.0 %
CRC теста AFE68A37
CRC копии AFE68A37
Копирование... OK
Трек 11
Имя файла C:\Sergei\новая папка\11 - 011 - Тропинка_4442.wav
Длина предзазора 0:00:02.00
Пиковый уровень 99.6 %
Качество трека 100.0 %
CRC теста 670BCBC3
CRC копии 670BCBC3
Копирование... OK
Трек 12
Имя файла C:\Sergei\новая папка\12 - 012 Тополя_Д - 77513.wav
Длина предзазора 0:00:02.00
Пиковый уровень 99.6 %
Качество трека 99.9 %
CRC теста D097F6F6
CRC копии D097F6F6
Копирование... OK
Трек 13
Имя файла C:\Sergei\новая папка\13 - 013 Что было - то было_ДКС-5631.wav
Длина предзазора 0:00:02.00
Пиковый уровень 95.8 %
Качество трека 100.0 %
CRC теста 8D5350E2
CRC копии 8D5350E2
Копирование... OK
Трек 14
Имя файла C:\Sergei\новая папка\14 - 014 Где ж ты, мой сад_Д - 80104.wav
Длина предзазора 0:00:02.00
Пиковый уровень 89.1 %
Качество трека 100.0 %
CRC теста 85953DC2
CRC копии 85953DC2
Копирование... OK
Трек 15
Имя файла C:\Sergei\новая папка\15 - 015 Грустные ивы_Д - 7666.wav
Длина предзазора 0:00:02.00
Пиковый уровень 95.8 %
Качество трека 100.0 %
CRC теста 7603473C
CRC копии 7603473C
Копирование... OK
Ошибок не произошло
Конец отчёта
"Non-compilant CUE"
REM GENRE Instrumental
REM DATE 2012
REM DISCID C80C430F
REM COMMENT "ExactAudioCopy v0.95b3"
PERFORMER "Various"
TITLE "Легенды советской эстрады 50-60гг (CD5)"
FILE "01 - 001 Течёт Волга_ДКС - 63082.wav" WAVE
TRACK 01 AUDIO
TITLE "63082"
PERFORMER "001 Течёт Волга_ДКС"
FLAGS DCP
INDEX 01 00:00:00
TRACK 02 AUDIO
TITLE "дорогу_Д-73636"
PERFORMER "002 Пора в путь"
FLAGS DCP
INDEX 00 06:01:50
FILE "02 - 002 Пора в путь - дорогу_Д-73636.wav" WAVE
INDEX 01 00:00:00
TRACK 03 AUDIO
TITLE "54572"
PERFORMER "003 Я люблю тебя, жизнь_Д"
FLAGS DCP
INDEX 00 03:05:47
FILE "03 - 003 Я люблю тебя, жизнь_Д - 54572.wav" WAVE
INDEX 01 00:00:00
TRACK 04 AUDIO
TITLE "45067"
PERFORMER "004 Подмосковные вечера_Д"
FLAGS DCP
INDEX 00 03:25:44
FILE "04 - 004 Подмосковные вечера_Д - 45067.wav" WAVE
INDEX 01 00:00:00
TRACK 05 AUDIO
TITLE "1606"
PERFORMER "005 Когда весна придёт_В"
FLAGS DCP
INDEX 00 04:27:13
FILE "05 - 005 Когда весна придёт_В - 1606.wav" WAVE
INDEX 01 00:00:00
TRACK 06 AUDIO
TITLE "50827"
PERFORMER "006 Весёлый марш высотников_Д"
FLAGS DCP
INDEX 00 03:34:64
FILE "06 - 006 Весёлый марш высотников_Д - 50827.wav" WAVE
INDEX 01 00:00:00
TRACK 07 AUDIO
TITLE "40517"
PERFORMER "007 Когда поёт далёкий друг_Д"
FLAGS DCP
INDEX 00 02:06:24
FILE "07 - 007 Когда поёт далёкий друг_Д - 40517.wav" WAVE
INDEX 01 00:00:00
TRACK 08 AUDIO
TITLE "32104"
PERFORMER "008 Вернулся на Родину_Д"
FLAGS DCP
INDEX 00 03:26:02
FILE "08 - 008 Вернулся на Родину_Д - 32104.wav" WAVE
INDEX 01 00:00:00
TRACK 09 AUDIO
TITLE "Огонёк_3813"
PERFORMER "009"
FLAGS DCP
INDEX 00 03:20:29
FILE "09 - 009 - Огонёк_3813.wav" WAVE
INDEX 01 00:00:00
TRACK 10 AUDIO
TITLE "45456"
PERFORMER "010 Сядь со мною рядом_Д"
FLAGS DCP
INDEX 00 04:36:72
FILE "10 - 010 Сядь со мною рядом_Д - 45456.wav" WAVE
INDEX 01 00:00:00
TRACK 11 AUDIO
TITLE "Тропинка_4442"
PERFORMER "011"
FLAGS DCP
INDEX 00 02:28:11
FILE "11 - 011 - Тропинка_4442.wav" WAVE
INDEX 01 00:00:00
TRACK 12 AUDIO
TITLE "77513"
PERFORMER "012 Тополя_Д"
FLAGS DCP
INDEX 00 02:03:71
FILE "12 - 012 Тополя_Д - 77513.wav" WAVE
INDEX 01 00:00:00
TRACK 13 AUDIO
TITLE "то было_ДКС-5631"
PERFORMER "013 Что было"
FLAGS DCP
INDEX 00 03:16:18
FILE "13 - 013 Что было - то было_ДКС-5631.wav" WAVE
INDEX 01 00:00:00
TRACK 14 AUDIO
TITLE "80104"
PERFORMER "014 Где ж ты, мой сад_Д"
FLAGS DCP
INDEX 00 03:31:23
FILE "14 - 014 Где ж ты, мой сад_Д - 80104.wav" WAVE
INDEX 01 00:00:00
TRACK 15 AUDIO
TITLE "7666"
PERFORMER "015 Грустные ивы_Д"
FLAGS DCP
INDEX 00 03:14:54
FILE "15 - 015 Грустные ивы_Д - 7666.wav" WAVE
INDEX 01 00:00:00
"Лог Audiochecker"
AUDIOCHECKER v2.0 beta (build 457) - by Dester - [email protected]
~~~~~~~~~~~~~~~~~~~~~~~~~~~~~~~~~~
-=== НЕ РЕДАКТИРУЙТЕ ЭТОТ ФАЙЛ! ===-
Путь: ...\CD5
01 -=- 01 - 001 Течёт Волга_ДКС - 63082.flac -=- CDDA (100%)
02 -=- 02 - 002 Пора в путь - дорогу_Д-73636.flac -=- CDDA (99%)
03 -=- 03 - 003 Я люблю тебя, жизнь_Д - 54572.flac -=- CDDA (100%)
04 -=- 04 - 004 Подмосковные вечера_Д - 45067.flac -=- CDDA (100%)
05 -=- 05 - 005 Когда весна придёт_В - 1606.flac -=- CDDA (100%)
06 -=- 06 - 006 Весёлый марш высотников_Д - 50827.flac -=- CDDA (100%)
07 -=- 07 - 007 Когда поёт далёкий друг_Д - 40517.flac -=- CDDA (100%)
08 -=- 08 - 008 Вернулся на Родину_Д - 32104.flac -=- CDDA (100%)
09 -=- 09 - 009 - Огонёк_3813.flac -=- CDDA (100%)
10 -=- 10 - 010 Сядь со мною рядом_Д - 45456.flac -=- CDDA (100%)
11 -=- 11 - 011 - Тропинка_4442.flac -=- CDDA (100%)
12 -=- 12 - 012 Тополя_Д - 77513.flac -=- CDDA (100%)
13 -=- 13 - 013 Что было - то было_ДКС-5631.flac -=- CDDA (99%)
14 -=- 14 - 014 Где ж ты, мой сад_Д - 80104.flac -=- CDDA (100%)
15 -=- 15 - 015 Грустные ивы_Д - 7666.flac -=- CDDA (100%)
Сводка 99,87% CDDA
219970404
Мы помогаем людям, чтобы они, в свою очередь, помогли нам; таким образом, наши услуги сводятся просто к благодеяниям, которые мы загодя оказываем самим себе. (Франсуа де Ларошфуко)
Download / Скачать

Хотите скачать бесплатно? Зарегистрируйтесь на сайте (ссылка на регистрацию). Pirat.ca - самый быстрый торрент трекер в рунете!

Как скачивать  ·   Что такое торрент  ·   Рейтинг и ограничения

leestan27

Корсар

Пост 27-Мар-2015 23:12 (спустя 2 года 3 месяца)

[Q] 

Автору респект!!!
[Профиль]  [ЛС] 

alexx2201

33

Пост 30-Апр-2015 00:35 (спустя 1 месяц 2 дня)

[Q] 

Спасибо за песни молодости родителей им будет приятно послушать!

_________________
Одним ветром дышим, Пираты!
[Профиль]  [ЛС] 
Показать сообщения:    
Ответить на тему

Текущее время: Сегодня 21:12

Часовой пояс: GMT + 4



Вы не можете начинать темы
Вы не можете отвечать на сообщения
Вы не можете редактировать свои сообщения
Вы не можете удалять свои сообщения
Вы не можете голосовать в опросах
Вы не можете прикреплять файлы к сообщениям
Вы не можете скачивать файлы

▼ Вниз