Уважаемый Гость!
Вы можете поддержать проект и зарегистрироваться у наших партнеров - онлайн-стратегия MyLands. При регистрации в игре Вы получите код, который сможете активировать после регистрации на pirat.ca и получить 1000 дублонов.

Ваш код:
2ef252ecc96cc702a3776719f330d2d758b5d6d1
 
     

(Instrumental) VA - Песни нашего кино (РД) - 2011 (5 CD) [FLAC, tracks+cue, lossless]

Ответить на тему
 
Автор
Сообщение

Пост 30-Янв-2013 00:21

[Q] 

CHARLI2236

VA - Песни нашего кино (РД) - 2011 (5CD)
Год выпуска альбома: 2011
Страна: Россия
Жанр: Instrumental
Лейбл издания: Ридерз Дайджест
Продолжительность: 4:29:26
Формат: FLAC
Битрейт аудио: lossless
Тип рипа: tracks+.cue
Источник (релизер): диск CDDA
Наличие сканов в содержимом раздачи: да
Трэклист
01 - Песня Верещагина - Песня Верещагина. (1:46)
02 - Песня про зайцев - Песня про зайцев. (3:05)
03 - Остров невезения - Остров невезения. (2:46)
04 - Пора-поардуемся - Пора-поардуемся. (3:20)
05 - Песня Остапа - Песня Остапа. (2:59)
06 - Песенка о шпаге - Песенка о шпаге. (2:41)
07 - Любовь и бедность - Любовь и бедность. (3:39)
08 - Есть только миг - Есть только миг. (3:39)
09 - Если у Вас нету тёти - Если у Вас нету тёти. (1:47)
10 - Я спросил у ясеня - Я спросил у ясеня. (3:35)
11 - Позвони мне, позвони - Позвони мне, позвони. (3:47)
12 - Где-то на белом свете - Где-то на белом свете. (2:54)
13 - Если б я был султан - Если б я был султан. (2:38)
14 - Александра - Александра. (3:33)
15 - У природы нет плохой погоды - У природы нет плохой погоды. (2:54)
16 - Женюсь, женюсь - Женюсь, женюсь. (3:19)
17 - Три белых коня - Три белых коня. (2:16)
18 - Разговор со счастьем - Разговор со счастьем. (2:29)
”Отчет ЕАС”
Отчёт EAC об извлечении, выполненном 28. января 2013, 13:48 для диска:
Various / Песни нашего кино (CD1) - Разговор со счастьем (РД)
Дисковод: _NEC DVD_RW ND-4550A Adapter: 0 ID: 1
Режим чтения: Достоверный (C2: нет, Точный поток: да, Отключение кэша: да)
Коррекция смещения при чтении: 48
Способность читать области Lead-in и Lead-out : Нет
Выходной формат: C:\Program Files\FLAC\flac.exe (Пользовательский кодировщик)
128 kBit/s
Дополнительные параметры: -8 -V -T "ARTIST=%a" -T "TITLE=%t" -T "ALBUM=%g" -T "DATE=%y" -T "TRACKNUMBER=%n" -T "GENRE=%m" -T "COMMENT=EAC FLAC -8" %s
Другие параметры:
Заполнение пропущенных сэмплов тишиной : Да
Удаление блоков с тишиной в начале и конце : Нет
Встроенный Win32-интерфейс для Win NT/2000
Трек 1
Имя файла C:\Sergei\новая папка\01 - Песня Верещагина - Песня Верещагина.wav
Длина предзазора 0:00:02.00
Пиковый уровень 98.8 %
Качество трека 99.8 %
CRC теста 0C15E826
CRC копии 0C15E826
Копирование... OK
Трек 2
Имя файла C:\Sergei\новая папка\02 - Песня про зайцев - Песня про зайцев.wav
Пиковый уровень 98.8 %
Качество трека 100.0 %
CRC теста 6460C93A
CRC копии 6460C93A
Копирование... OK
Трек 3
Имя файла C:\Sergei\новая папка\03 - Остров невезения - Остров невезения.wav
Пиковый уровень 98.8 %
Качество трека 99.9 %
CRC теста 304AD8DE
CRC копии 304AD8DE
Копирование... OK
Трек 4
Имя файла C:\Sergei\новая папка\04 - Пора-поардуемся - Пора-поардуемся.wav
Пиковый уровень 98.8 %
Качество трека 100.0 %
CRC теста 5CEE5460
CRC копии 5CEE5460
Копирование... OK
Трек 5
Имя файла C:\Sergei\новая папка\05 - Песня Остапа - Песня Остапа.wav
Пиковый уровень 98.8 %
Качество трека 100.0 %
CRC теста 887408E3
CRC копии 887408E3
Копирование... OK
Трек 6
Имя файла C:\Sergei\новая папка\06 - Песенка о шпаге - Песенка о шпаге.wav
Пиковый уровень 98.8 %
Качество трека 100.0 %
CRC теста D12122BC
CRC копии D12122BC
Копирование... OK
Трек 7
Имя файла C:\Sergei\новая папка\07 - Любовь и бедность - Любовь и бедность.wav
Пиковый уровень 98.8 %
Качество трека 100.0 %
CRC теста E3DCCBE0
CRC копии E3DCCBE0
Копирование... OK
Трек 8
Имя файла C:\Sergei\новая папка\08 - Есть только миг - Есть только миг.wav
Пиковый уровень 98.8 %
Качество трека 100.0 %
CRC теста 16FD78DA
CRC копии 16FD78DA
Копирование... OK
Трек 9
Имя файла C:\Sergei\новая папка\09 - Если у Вас нету тёти - Если у Вас нету тёти.wav
Пиковый уровень 98.8 %
Качество трека 99.9 %
CRC теста 59609288
CRC копии 59609288
Копирование... OK
Трек 10
Имя файла C:\Sergei\новая папка\10 - Я спросил у ясеня - Я спросил у ясеня.wav
Пиковый уровень 98.8 %
Качество трека 100.0 %
CRC теста 7147F204
CRC копии 7147F204
Копирование... OK
Трек 11
Имя файла C:\Sergei\новая папка\11 - Позвони мне, позвони - Позвони мне, позвони.wav
Пиковый уровень 98.8 %
Качество трека 100.0 %
CRC теста 958B4B5A
CRC копии 958B4B5A
Копирование... OK
Трек 12
Имя файла C:\Sergei\новая папка\12 - Где-то на белом свете - Где-то на белом свете.wav
Пиковый уровень 98.8 %
Качество трека 99.9 %
CRC теста 6111C85B
CRC копии 6111C85B
Копирование... OK
Трек 13
Имя файла C:\Sergei\новая папка\13 - Если б я был султан - Если б я был султан.wav
Пиковый уровень 98.8 %
Качество трека 100.0 %
CRC теста 56645AE4
CRC копии 56645AE4
Копирование... OK
Трек 14
Имя файла C:\Sergei\новая папка\14 - Александра - Александра.wav
Пиковый уровень 98.8 %
Качество трека 100.0 %
CRC теста DA92A2E0
CRC копии DA92A2E0
Копирование... OK
Трек 15
Имя файла C:\Sergei\новая папка\15 - У природы нет плохой погоды - У природы нет плохой погоды.wav
Пиковый уровень 98.8 %
Качество трека 100.0 %
CRC теста E4FFF633
CRC копии E4FFF633
Копирование... OK
Трек 16
Имя файла C:\Sergei\новая папка\16 - Женюсь, женюсь - Женюсь, женюсь.wav
Пиковый уровень 98.8 %
Качество трека 100.0 %
CRC теста 356E9505
CRC копии 356E9505
Копирование... OK
Трек 17
Имя файла C:\Sergei\новая папка\17 - Три белых коня - Три белых коня.wav
Пиковый уровень 98.8 %
Качество трека 99.9 %
CRC теста 11035E71
CRC копии 11035E71
Копирование... OK
Трек 18
Имя файла C:\Sergei\новая папка\18 - Разговор со счастьем - Разговор со счастьем.wav
Пиковый уровень 98.8 %
Качество трека 100.0 %
CRC теста E07B253F
CRC копии E07B253F
Копирование... OK
Ошибок не произошло
Конец отчёта
"Non-compilant CUE"
REM GENRE Instrumental
REM DATE 2011
REM DISCID E40C7D12
REM COMMENT "ExactAudioCopy v0.95b3"
PERFORMER "Various"
TITLE "Песни нашего кино (CD1) - Разговор со счастьем (РД)"
FILE "01 - Песня Верещагина - Песня Верещагина.wav" WAVE
TRACK 01 AUDIO
TITLE "Песня Верещагина"
PERFORMER "Песня Верещагина"
FLAGS DCP
INDEX 01 00:00:00
FILE "02 - Песня про зайцев - Песня про зайцев.wav" WAVE
TRACK 02 AUDIO
TITLE "Песня про зайцев"
PERFORMER "Песня про зайцев"
FLAGS DCP
INDEX 01 00:00:00
FILE "03 - Остров невезения - Остров невезения.wav" WAVE
TRACK 03 AUDIO
TITLE "Остров невезения"
PERFORMER "Остров невезения"
FLAGS DCP
INDEX 01 00:00:00
FILE "04 - Пора-поардуемся - Пора-поардуемся.wav" WAVE
TRACK 04 AUDIO
TITLE "Пора-поардуемся"
PERFORMER "Пора-поардуемся"
FLAGS DCP
INDEX 01 00:00:00
FILE "05 - Песня Остапа - Песня Остапа.wav" WAVE
TRACK 05 AUDIO
TITLE "Песня Остапа"
PERFORMER "Песня Остапа"
FLAGS DCP
INDEX 01 00:00:00
FILE "06 - Песенка о шпаге - Песенка о шпаге.wav" WAVE
TRACK 06 AUDIO
TITLE "Песенка о шпаге"
PERFORMER "Песенка о шпаге"
FLAGS DCP
INDEX 01 00:00:00
FILE "07 - Любовь и бедность - Любовь и бедность.wav" WAVE
TRACK 07 AUDIO
TITLE "Любовь и бедность"
PERFORMER "Любовь и бедность"
FLAGS DCP
INDEX 01 00:00:00
FILE "08 - Есть только миг - Есть только миг.wav" WAVE
TRACK 08 AUDIO
TITLE "Есть только миг"
PERFORMER "Есть только миг"
FLAGS DCP
INDEX 01 00:00:00
FILE "09 - Если у Вас нету тёти - Если у Вас нету тёти.wav" WAVE
TRACK 09 AUDIO
TITLE "Если у Вас нету тёти"
PERFORMER "Если у Вас нету тёти"
FLAGS DCP
INDEX 01 00:00:00
FILE "10 - Я спросил у ясеня - Я спросил у ясеня.wav" WAVE
TRACK 10 AUDIO
TITLE "Я спросил у ясеня"
PERFORMER "Я спросил у ясеня"
FLAGS DCP
INDEX 01 00:00:00
FILE "11 - Позвони мне, позвони - Позвони мне, позвони.wav" WAVE
TRACK 11 AUDIO
TITLE "Позвони мне, позвони"
PERFORMER "Позвони мне, позвони"
FLAGS DCP
INDEX 01 00:00:00
FILE "12 - Где-то на белом свете - Где-то на белом свете.wav" WAVE
TRACK 12 AUDIO
TITLE "Где-то на белом свете"
PERFORMER "Где-то на белом свете"
FLAGS DCP
INDEX 01 00:00:00
FILE "13 - Если б я был султан - Если б я был султан.wav" WAVE
TRACK 13 AUDIO
TITLE "Если б я был султан"
PERFORMER "Если б я был султан"
FLAGS DCP
INDEX 01 00:00:00
FILE "14 - Александра - Александра.wav" WAVE
TRACK 14 AUDIO
TITLE "Александра"
PERFORMER "Александра"
FLAGS DCP
INDEX 01 00:00:00
FILE "15 - У природы нет плохой погоды - У природы нет плохой погоды.wav" WAVE
TRACK 15 AUDIO
TITLE "У природы нет плохой погоды"
PERFORMER "У природы нет плохой погоды"
FLAGS DCP
INDEX 01 00:00:00
FILE "16 - Женюсь, женюсь - Женюсь, женюсь.wav" WAVE
TRACK 16 AUDIO
TITLE "Женюсь, женюсь"
PERFORMER "Женюсь, женюсь"
FLAGS DCP
INDEX 01 00:00:00
FILE "17 - Три белых коня - Три белых коня.wav" WAVE
TRACK 17 AUDIO
TITLE "Три белых коня"
PERFORMER "Три белых коня"
FLAGS DCP
INDEX 01 00:00:00
FILE "18 - Разговор со счастьем - Разговор со счастьем.wav" WAVE
TRACK 18 AUDIO
TITLE "Разговор со счастьем"
PERFORMER "Разговор со счастьем"
FLAGS DCP
INDEX 01 00:00:00
"Лог Audiochecker"
AUDIOCHECKER v2.0 beta (build 457) - by Dester - [email protected]
~~~~~~~~~~~~~~~~~~~~~~~~~~~~~~~~~~
-=== НЕ РЕДАКТИРУЙТЕ ЭТОТ ФАЙЛ! ===-
Путь: ...\CD1 - Разговор со счастьем
01 -=- 01 - Песня Верещагина - Песня Верещагина.flac -=- MPEG (95%)
02 -=- 02 - Песня про зайцев - Песня про зайцев.flac -=- MPEG (95%)
03 -=- 03 - Остров невезения - Остров невезения.flac -=- MPEG (95%)
04 -=- 04 - Пора-поардуемся - Пора-поардуемся.flac -=- MPEG (95%)
05 -=- 05 - Песня Остапа - Песня Остапа.flac -=- MPEG (95%)
06 -=- 06 - Песенка о шпаге - Песенка о шпаге.flac -=- MPEG (95%)
07 -=- 07 - Любовь и бедность - Любовь и бедность.flac -=- MPEG (95%)
08 -=- 08 - Есть только миг - Есть только миг.flac -=- CDDA (100%)
09 -=- 09 - Если у Вас нету тёти - Если у Вас нету тёти.flac -=- MPEG (73%)
10 -=- 10 - Я спросил у ясеня - Я спросил у ясеня.flac -=- MPEG (73%)
11 -=- 11 - Позвони мне, позвони - Позвони мне, позвони.flac -=- MPEG (95%)
12 -=- 12 - Где-то на белом свете - Где-то на белом свете.flac -=- CDDA (100%)
13 -=- 13 - Если б я был султан - Если б я был султан.flac -=- CDDA (100%)
14 -=- 14 - Александра - Александра.flac -=- MPEG (95%)
15 -=- 15 - У природы нет плохой погоды - У природы нет плохой погоды.flac -=- MPEG (95%)
16 -=- 16 - Женюсь, женюсь - Женюсь, женюсь.flac -=- MPEG (95%)
17 -=- 17 - Три белых коня - Три белых коня.flac -=- MPEG (95%)
18 -=- 18 - Разговор со счастьем - Разговор со счастьем.flac -=- MPEG (95%)
Сводка 23,28% CDDA
49577700
Трэклист
01 - Ланфрен-ланфра - Ланфрен-ланфра. (2:22)
02 - Песня о дружбе - Песня о дружбе. (2:12)
03 - Бабочка крылышками - Бабочка крылышками. (2:50)
04 - Звенит январская вьюга - Звенит январская вьюга. (3:00)
05 - Кап-кап-кап - Кап-кап-кап. (2:22)
06 - Проснись и пой - Проснись и пой. (2:29)
07 - Купидон - Купидон. (2:10)
08 - Помоги мне - Помоги мне. (4:34)
09 - Быть может, счастье рядом - Быть может, счастье рядом. (1:53)
10 - Долгие проводы - Долгие проводы. (2:23)
11 - Нас в набитых трамваях болтает - Нас в набитых трамваях болтает. (2:06)
12 - Под лаской плюшевого пледа - Под лаской плюшевого пледа. (2:40)
13 - Песня о любви - Песня о любви. (5:02)
14 - Ищу тебя - Ищу тебя. (4:24)
15 - Загадка женщины - Загадка женщины. (2:48)
16 - Песенка Плетнёва - Песенка Плетнёва. (1:30)
17 - Романс - Романс. (3:46)
18 - Жестокое танго - Жестокое танго. (2:56)
”Отчет ЕАС”
Отчёт EAC об извлечении, выполненном 28. января 2013, 16:38 для диска:
Various / Песни нашего кино (CD2) - Проснись и пой (РД)
Дисковод: _NEC DVD_RW ND-4550A Adapter: 0 ID: 1
Режим чтения: Достоверный (C2: нет, Точный поток: да, Отключение кэша: да)
Коррекция смещения при чтении: 48
Способность читать области Lead-in и Lead-out : Нет
Выходной формат: C:\Program Files\FLAC\flac.exe (Пользовательский кодировщик)
128 kBit/s
Дополнительные параметры: -8 -V -T "ARTIST=%a" -T "TITLE=%t" -T "ALBUM=%g" -T "DATE=%y" -T "TRACKNUMBER=%n" -T "GENRE=%m" -T "COMMENT=EAC FLAC -8" %s
Другие параметры:
Заполнение пропущенных сэмплов тишиной : Да
Удаление блоков с тишиной в начале и конце : Нет
Встроенный Win32-интерфейс для Win NT/2000
Трек 1
Имя файла C:\Sergei\новая папка\01 - Ланфрен-ланфра - Ланфрен-ланфра.wav
Длина предзазора 0:00:02.00
Пиковый уровень 98.8 %
Качество трека 100.0 %
CRC теста 20637463
CRC копии 20637463
Копирование... OK
Трек 2
Имя файла C:\Sergei\новая папка\02 - Песня о дружбе - Песня о дружбе.wav
Пиковый уровень 98.8 %
Качество трека 100.0 %
CRC теста 7E9BC054
CRC копии 7E9BC054
Копирование... OK
Трек 3
Имя файла C:\Sergei\новая папка\03 - Бабочка крылышками - Бабочка крылышками.wav
Пиковый уровень 88.1 %
Качество трека 100.0 %
CRC теста 90E38F80
CRC копии 90E38F80
Копирование... OK
Трек 4
Имя файла C:\Sergei\новая папка\04 - Звенит январская вьюга - Звенит январская вьюга.wav
Пиковый уровень 98.8 %
Качество трека 100.0 %
CRC теста 26437DCB
CRC копии 26437DCB
Копирование... OK
Трек 5
Имя файла C:\Sergei\новая папка\05 - Кап-кап-кап - Кап-кап-кап.wav
Пиковый уровень 76.1 %
Качество трека 100.0 %
CRC теста 87B0E995
CRC копии 87B0E995
Копирование... OK
Трек 6
Имя файла C:\Sergei\новая папка\06 - Проснись и пой - Проснись и пой.wav
Пиковый уровень 90.4 %
Качество трека 100.0 %
CRC теста 831B476B
CRC копии 831B476B
Копирование... OK
Трек 7
Имя файла C:\Sergei\новая папка\07 - Купидон - Купидон.wav
Пиковый уровень 98.8 %
Качество трека 100.0 %
CRC теста ABA40A0D
CRC копии ABA40A0D
Копирование... OK
Трек 8
Имя файла C:\Sergei\новая папка\08 - Помоги мне - Помоги мне.wav
Пиковый уровень 95.5 %
Качество трека 99.7 %
CRC теста 906AEEBC
CRC копии 906AEEBC
Копирование... OK
Трек 9
Имя файла C:\Sergei\новая папка\09 - Быть может, счастье рядом - Быть может, счастье рядом.wav
Пиковый уровень 98.8 %
Качество трека 97.7 %
CRC теста 1993F188
CRC копии 09AD3517
Копирование завершено
Трек 10
Имя файла C:\Sergei\новая папка\10 - Долгие проводы - Долгие проводы.wav
Пиковый уровень 71.7 %
Качество трека 100.0 %
CRC теста 69568CC8
CRC копии 69568CC8
Копирование... OK
Трек 11
Имя файла C:\Sergei\новая папка\11 - Нас в набитых трамваях болтает - Нас в набитых трамваях болтает.wav
Пиковый уровень 98.8 %
Качество трека 100.0 %
CRC теста 1E2CCB40
CRC копии 1E2CCB40
Копирование... OK
Трек 12
Имя файла C:\Sergei\новая папка\12 - Под лаской плюшевого пледа - Под лаской плюшевого пледа.wav
Пиковый уровень 98.8 %
Качество трека 100.0 %
CRC теста 8329B6CF
CRC копии 8329B6CF
Копирование... OK
Трек 13
Имя файла C:\Sergei\новая папка\13 - Песня о любви - Песня о любви.wav
Пиковый уровень 98.8 %
Качество трека 100.0 %
CRC теста CE9AF384
CRC копии CE9AF384
Копирование... OK
Трек 14
Имя файла C:\Sergei\новая папка\14 - Ищу тебя - Ищу тебя.wav
Пиковый уровень 98.8 %
Качество трека 100.0 %
CRC теста 3F197D86
CRC копии 3F197D86
Копирование... OK
Трек 15
Имя файла C:\Sergei\новая папка\15 - Загадка женщины - Загадка женщины.wav
Пиковый уровень 98.8 %
Качество трека 100.0 %
CRC теста D161A374
CRC копии D161A374
Копирование... OK
Трек 16
Имя файла C:\Sergei\новая папка\16 - Песенка Плетнёва - Песенка Плетнёва.wav
Пиковый уровень 98.8 %
Качество трека 100.0 %
CRC теста C3709F3A
CRC копии C3709F3A
Копирование... OK
Трек 17
Имя файла C:\Sergei\новая папка\17 - Романс - Романс.wav
Пиковый уровень 98.8 %
Качество трека 100.0 %
CRC теста A531935F
CRC копии A531935F
Копирование... OK
Трек 18
Имя файла C:\Sergei\новая папка\18 - Жестокое танго - Жестокое танго.wav
Пиковый уровень 98.8 %
Качество трека 99.7 %
CRC теста FC755B94
CRC копии FC755B94
Копирование... OK
Ошибок не произошло
Конец отчёта
"Non-compilant CUE"
REM GENRE Instrumental
REM DATE 2011
REM DISCID F70C1812
REM COMMENT "ExactAudioCopy v0.95b3"
PERFORMER "Various"
TITLE "Песни нашего кино (CD2) - Проснись и пой (РД)"
FILE "01 - Ланфрен-ланфра - Ланфрен-ланфра.wav" WAVE
TRACK 01 AUDIO
TITLE "Ланфрен-ланфра"
PERFORMER "Ланфрен-ланфра"
INDEX 01 00:00:00
FILE "02 - Песня о дружбе - Песня о дружбе.wav" WAVE
TRACK 02 AUDIO
TITLE "Песня о дружбе"
PERFORMER "Песня о дружбе"
INDEX 01 00:00:00
FILE "03 - Бабочка крылышками - Бабочка крылышками.wav" WAVE
TRACK 03 AUDIO
TITLE "Бабочка крылышками"
PERFORMER "Бабочка крылышками"
INDEX 01 00:00:00
FILE "04 - Звенит январская вьюга - Звенит январская вьюга.wav" WAVE
TRACK 04 AUDIO
TITLE "Звенит январская вьюга"
PERFORMER "Звенит январская вьюга"
INDEX 01 00:00:00
FILE "05 - Кап-кап-кап - Кап-кап-кап.wav" WAVE
TRACK 05 AUDIO
TITLE "Кап-кап-кап"
PERFORMER "Кап-кап-кап"
INDEX 01 00:00:00
FILE "06 - Проснись и пой - Проснись и пой.wav" WAVE
TRACK 06 AUDIO
TITLE "Проснись и пой"
PERFORMER "Проснись и пой"
INDEX 01 00:00:00
FILE "07 - Купидон - Купидон.wav" WAVE
TRACK 07 AUDIO
TITLE "Купидон"
PERFORMER "Купидон"
INDEX 01 00:00:00
FILE "08 - Помоги мне - Помоги мне.wav" WAVE
TRACK 08 AUDIO
TITLE "Помоги мне"
PERFORMER "Помоги мне"
INDEX 01 00:00:00
FILE "09 - Быть может, счастье рядом - Быть может, счастье рядом.wav" WAVE
TRACK 09 AUDIO
TITLE "Быть может, счастье рядом"
PERFORMER "Быть может, счастье рядом"
INDEX 01 00:00:00
FILE "10 - Долгие проводы - Долгие проводы.wav" WAVE
TRACK 10 AUDIO
TITLE "Долгие проводы"
PERFORMER "Долгие проводы"
INDEX 01 00:00:00
FILE "11 - Нас в набитых трамваях болтает - Нас в набитых трамваях болтает.wav" WAVE
TRACK 11 AUDIO
TITLE "Нас в набитых трамваях болтает"
PERFORMER "Нас в набитых трамваях болтает"
INDEX 01 00:00:00
FILE "12 - Под лаской плюшевого пледа - Под лаской плюшевого пледа.wav" WAVE
TRACK 12 AUDIO
TITLE "Под лаской плюшевого пледа"
PERFORMER "Под лаской плюшевого пледа"
INDEX 01 00:00:00
FILE "13 - Песня о любви - Песня о любви.wav" WAVE
TRACK 13 AUDIO
TITLE "Песня о любви"
PERFORMER "Песня о любви"
INDEX 01 00:00:00
FILE "14 - Ищу тебя - Ищу тебя.wav" WAVE
TRACK 14 AUDIO
TITLE "Ищу тебя"
PERFORMER "Ищу тебя"
INDEX 01 00:00:00
FILE "15 - Загадка женщины - Загадка женщины.wav" WAVE
TRACK 15 AUDIO
TITLE "Загадка женщины"
PERFORMER "Загадка женщины"
INDEX 01 00:00:00
FILE "16 - Песенка Плетнёва - Песенка Плетнёва.wav" WAVE
TRACK 16 AUDIO
TITLE "Песенка Плетнёва"
PERFORMER "Песенка Плетнёва"
INDEX 01 00:00:00
FILE "17 - Романс - Романс.wav" WAVE
TRACK 17 AUDIO
TITLE "Романс"
PERFORMER "Романс"
INDEX 01 00:00:00
FILE "18 - Жестокое танго - Жестокое танго.wav" WAVE
TRACK 18 AUDIO
TITLE "Жестокое танго"
PERFORMER "Жестокое танго"
INDEX 01 00:00:00
"Лог Audiochecker"
AUDIOCHECKER v2.0 beta (build 457) - by Dester - [email protected]
~~~~~~~~~~~~~~~~~~~~~~~~~~~~~~~~~~
-=== НЕ РЕДАКТИРУЙТЕ ЭТОТ ФАЙЛ! ===-
Путь: ...\CD2 - Проснись и пой!
01 -=- 01 - Ланфрен-ланфра - Ланфрен-ланфра.flac -=- MPEG (100%)
02 -=- 02 - Песня о дружбе - Песня о дружбе.flac -=- MPEG (95%)
03 -=- 03 - Бабочка крылышками - Бабочка крылышками.flac -=- MPEG (79%)
04 -=- 04 - Звенит январская вьюга - Звенит январская вьюга.flac -=- MPEG (95%)
05 -=- 05 - Кап-кап-кап - Кап-кап-кап.flac -=- MPEG (95%)
06 -=- 06 - Проснись и пой - Проснись и пой.flac -=- MPEG (95%)
07 -=- 07 - Купидон - Купидон.flac -=- MPEG (95%)
08 -=- 08 - Помоги мне - Помоги мне.flac -=- MPEG (95%)
09 -=- 09 - Быть может, счастье рядом - Быть может, счастье рядом.flac -=- MPEG (95%)
10 -=- 10 - Долгие проводы - Долгие проводы.flac -=- MPEG (95%)
11 -=- 11 - Нас в набитых трамваях болтает - Нас в набитых трамваях болтает.flac -=- MPEG (95%)
12 -=- 12 - Под лаской плюшевого пледа - Под лаской плюшевого пледа.flac -=- MPEG (95%)
13 -=- 13 - Песня о любви - Песня о любви.flac -=- MPEG (95%)
14 -=- 14 - Ищу тебя - Ищу тебя.flac -=- MPEG (95%)
15 -=- 15 - Загадка женщины - Загадка женщины.flac -=- MPEG (95%)
16 -=- 16 - Песенка Плетнёва - Песенка Плетнёва.flac -=- ERROR
17 -=- 17 - Романс - Романс.flac -=- MPEG (95%)
18 -=- 18 - Жестокое танго - Жестокое танго.flac -=- MPEG (95%)
Сводка 5,65% CDDA
28850420
Трэклист
01 - Живём мы что-то без азарта - Живём мы что-то без азарта. (1:46)
02 - Гадалка - Гадалка. (3:28)
03 - Леди совершенство - Леди совершенство. (2:30)
04 - Лесной олень - Лесной олень. (2:49)
05 - Чёрное и белое - Чёрное и белое. (2:21)
06 - А, напоследок я скажу - А, напоследок я скажу. (2:34)
07 - Прощальная - Прощальная. (5:03)
08 - Песня о друге - Песня о друге. (3:12)
09 - Танго Рио - Танго Рио. (2:19)
10 - Сердце-томная забота - Сердце-томная забота. (1:29)
11 - В моей душе покоя нет - В моей душе покоя нет. (3:08)
12 - Романс полковника - Романс полковника. (3:09)
13 - Любовь-волшебная страна - Любовь-волшебная страна. (2:48)
14 - Я шагаю по Москве - Я шагаю по Москве. (2:04)
15 - Женя, Женчка и 'катюша' - Женя, Женчка и 'катюша'. (3:07)
16 - Романс Настеньки - Романс Настеньки. (3:12)
17 - Пять минут - Пять минут. (3:54)
18 - Эхо любви - Эхо любви. (3:06)
”Отчет ЕАС”
Отчёт EAC об извлечении, выполненном 28. января 2013, 17:36 для диска:
Various / Песни нашего кино (CD3) - Любовь-волшебная страна (РД)
Дисковод: _NEC DVD_RW ND-4550A Adapter: 0 ID: 1
Режим чтения: Достоверный (C2: нет, Точный поток: да, Отключение кэша: да)
Коррекция смещения при чтении: 48
Способность читать области Lead-in и Lead-out : Нет
Выходной формат: C:\Program Files\FLAC\flac.exe (Пользовательский кодировщик)
128 kBit/s
Дополнительные параметры: -8 -V -T "ARTIST=%a" -T "TITLE=%t" -T "ALBUM=%g" -T "DATE=%y" -T "TRACKNUMBER=%n" -T "GENRE=%m" -T "COMMENT=EAC FLAC -8" %s
Другие параметры:
Заполнение пропущенных сэмплов тишиной : Да
Удаление блоков с тишиной в начале и конце : Нет
Встроенный Win32-интерфейс для Win NT/2000
Трек 1
Имя файла C:\Sergei\новая папка\01 - Живём мы что-то без азарта - Живём мы что-то без азарта.wav
Длина предзазора 0:00:02.00
Пиковый уровень 92.5 %
Качество трека 100.0 %
CRC теста 8AE6E028
CRC копии 8AE6E028
Копирование... OK
Трек 2
Имя файла C:\Sergei\новая папка\02 - Гадалка - Гадалка.wav
Пиковый уровень 86.6 %
Качество трека 100.0 %
CRC теста AF934319
CRC копии AF934319
Копирование... OK
Трек 3
Имя файла C:\Sergei\новая папка\03 - Леди совершенство - Леди совершенство.wav
Пиковый уровень 98.8 %
Качество трека 100.0 %
CRC теста D56EDD46
CRC копии D56EDD46
Копирование... OK
Трек 4
Имя файла C:\Sergei\новая папка\04 - Лесной олень - Лесной олень.wav
Пиковый уровень 91.2 %
Качество трека 100.0 %
CRC теста 1A4E768C
CRC копии 1A4E768C
Копирование... OK
Трек 5
Имя файла C:\Sergei\новая папка\05 - Чёрное и белое - Чёрное и белое.wav
Пиковый уровень 98.8 %
Качество трека 100.0 %
CRC теста 79CD169F
CRC копии 79CD169F
Копирование... OK
Трек 6
Имя файла C:\Sergei\новая папка\06 - А, напоследок я скажу - А, напоследок я скажу.wav
Пиковый уровень 98.8 %
Качество трека 100.0 %
CRC теста 640DEBE7
CRC копии 640DEBE7
Копирование... OK
Трек 7
Имя файла C:\Sergei\новая папка\07 - Прощальная - Прощальная.wav
Пиковый уровень 98.8 %
Качество трека 100.0 %
CRC теста F151B457
CRC копии F151B457
Копирование... OK
Трек 8
Имя файла C:\Sergei\новая папка\08 - Песня о друге - Песня о друге.wav
Пиковый уровень 98.8 %
Качество трека 100.0 %
CRC теста 61DE0A63
CRC копии 61DE0A63
Копирование... OK
Трек 9
Имя файла C:\Sergei\новая папка\09 - Танго Рио - Танго Рио.wav
Пиковый уровень 98.8 %
Качество трека 99.9 %
CRC теста ECC977BA
CRC копии ECC977BA
Копирование... OK
Трек 10
Имя файла C:\Sergei\новая папка\10 - Сердце-томная забота - Сердце-томная забота.wav
Пиковый уровень 97.1 %
Качество трека 99.8 %
CRC теста AB2A097C
CRC копии AB2A097C
Копирование... OK
Трек 11
Имя файла C:\Sergei\новая папка\11 - В моей душе покоя нет - В моей душе покоя нет.wav
Пиковый уровень 94.2 %
Качество трека 100.0 %
CRC теста 7BC5917B
CRC копии 7BC5917B
Копирование... OK
Трек 12
Имя файла C:\Sergei\новая папка\12 - Романс полковника - Романс полковника.wav
Пиковый уровень 98.8 %
Качество трека 100.0 %
CRC теста 1DC3BDF3
CRC копии 1DC3BDF3
Копирование... OK
Трек 13
Имя файла C:\Sergei\новая папка\13 - Любовь-волшебная страна - Любовь-волшебная страна.wav
Пиковый уровень 98.8 %
Качество трека 100.0 %
CRC теста 936724BD
CRC копии 936724BD
Копирование... OK
Трек 14
Имя файла C:\Sergei\новая папка\14 - Я шагаю по Москве - Я шагаю по Москве.wav
Пиковый уровень 98.8 %
Качество трека 100.0 %
CRC теста 99D76B73
CRC копии 99D76B73
Копирование... OK
Трек 15
Имя файла C:\Sergei\новая папка\15 - Женя, Женчка и 'катюша' - Женя, Женчка и 'катюша'.wav
Пиковый уровень 98.8 %
Качество трека 100.0 %
CRC теста 73C5E86B
CRC копии 73C5E86B
Копирование... OK
Трек 16
Имя файла C:\Sergei\новая папка\16 - Романс Настеньки - Романс Настеньки.wav
Пиковый уровень 98.8 %
Качество трека 100.0 %
CRC теста 1973FEDC
CRC копии 1973FEDC
Копирование... OK
Трек 17
Имя файла C:\Sergei\новая папка\17 - Пять минут - Пять минут.wav
Пиковый уровень 90.2 %
Качество трека 100.0 %
CRC теста 9D449089
CRC копии 9D449089
Копирование... OK
Трек 18
Имя файла C:\Sergei\новая папка\18 - Эхо любви - Эхо любви.wav
Пиковый уровень 98.8 %
Качество трека 100.0 %
CRC теста 681CFFDD
CRC копии 681CFFDD
Копирование... OK
Ошибок не произошло
Конец отчёта
"Non-compilant CUE"
REM GENRE Instrumental
REM DATE 2011
REM DISCID 030C3712
REM COMMENT "ExactAudioCopy v0.95b3"
PERFORMER "Various"
TITLE "Песни нашего кино (CD3) - Любовь-волшебная страна (РД)"
FILE "01 - Живём мы что-то без азарта - Живём мы что-то без азарта.wav" WAVE
TRACK 01 AUDIO
TITLE "Живём мы что-то без азарта"
PERFORMER "Живём мы что-то без азарта"
FLAGS DCP
INDEX 01 00:00:00
FILE "02 - Гадалка - Гадалка.wav" WAVE
TRACK 02 AUDIO
TITLE "Гадалка"
PERFORMER "Гадалка"
FLAGS DCP
INDEX 01 00:00:00
FILE "03 - Леди совершенство - Леди совершенство.wav" WAVE
TRACK 03 AUDIO
TITLE "Леди совершенство"
PERFORMER "Леди совершенство"
FLAGS DCP
INDEX 01 00:00:00
FILE "04 - Лесной олень - Лесной олень.wav" WAVE
TRACK 04 AUDIO
TITLE "Лесной олень"
PERFORMER "Лесной олень"
FLAGS DCP
INDEX 01 00:00:00
FILE "05 - Чёрное и белое - Чёрное и белое.wav" WAVE
TRACK 05 AUDIO
TITLE "Чёрное и белое"
PERFORMER "Чёрное и белое"
FLAGS DCP
INDEX 01 00:00:00
FILE "06 - А, напоследок я скажу - А, напоследок я скажу.wav" WAVE
TRACK 06 AUDIO
TITLE "А, напоследок я скажу"
PERFORMER "А, напоследок я скажу"
FLAGS DCP
INDEX 01 00:00:00
FILE "07 - Прощальная - Прощальная.wav" WAVE
TRACK 07 AUDIO
TITLE "Прощальная"
PERFORMER "Прощальная"
FLAGS DCP
INDEX 01 00:00:00
FILE "08 - Песня о друге - Песня о друге.wav" WAVE
TRACK 08 AUDIO
TITLE "Песня о друге"
PERFORMER "Песня о друге"
FLAGS DCP
INDEX 01 00:00:00
FILE "09 - Танго Рио - Танго Рио.wav" WAVE
TRACK 09 AUDIO
TITLE "Танго Рио"
PERFORMER "Танго Рио"
FLAGS DCP
INDEX 01 00:00:00
FILE "10 - Сердце-томная забота - Сердце-томная забота.wav" WAVE
TRACK 10 AUDIO
TITLE "Сердце-томная забота"
PERFORMER "Сердце-томная забота"
FLAGS DCP
INDEX 01 00:00:00
FILE "11 - В моей душе покоя нет - В моей душе покоя нет.wav" WAVE
TRACK 11 AUDIO
TITLE "В моей душе покоя нет"
PERFORMER "В моей душе покоя нет"
FLAGS DCP
INDEX 01 00:00:00
FILE "12 - Романс полковника - Романс полковника.wav" WAVE
TRACK 12 AUDIO
TITLE "Романс полковника"
PERFORMER "Романс полковника"
FLAGS DCP
INDEX 01 00:00:00
FILE "13 - Любовь-волшебная страна - Любовь-волшебная страна.wav" WAVE
TRACK 13 AUDIO
TITLE "Любовь-волшебная страна"
PERFORMER "Любовь-волшебная страна"
FLAGS DCP
INDEX 01 00:00:00
FILE "14 - Я шагаю по Москве - Я шагаю по Москве.wav" WAVE
TRACK 14 AUDIO
TITLE "Я шагаю по Москве"
PERFORMER "Я шагаю по Москве"
FLAGS DCP
INDEX 01 00:00:00
FILE "15 - Женя, Женчка и 'катюша' - Женя, Женчка и 'катюша'.wav" WAVE
TRACK 15 AUDIO
TITLE "Женя, Женчка и 'катюша'"
PERFORMER "Женя, Женчка и 'катюша'"
FLAGS DCP
INDEX 01 00:00:00
FILE "16 - Романс Настеньки - Романс Настеньки.wav" WAVE
TRACK 16 AUDIO
TITLE "Романс Настеньки"
PERFORMER "Романс Настеньки"
FLAGS DCP
INDEX 01 00:00:00
FILE "17 - Пять минут - Пять минут.wav" WAVE
TRACK 17 AUDIO
TITLE "Пять минут"
PERFORMER "Пять минут"
FLAGS DCP
INDEX 01 00:00:00
FILE "18 - Эхо любви - Эхо любви.wav" WAVE
TRACK 18 AUDIO
TITLE "Эхо любви"
PERFORMER "Эхо любви"
FLAGS DCP
INDEX 01 00:00:00
"Лог Audiochecker"
AUDIOCHECKER v2.0 beta (build 457) - by Dester - [email protected]
~~~~~~~~~~~~~~~~~~~~~~~~~~~~~~~~~~
-=== НЕ РЕДАКТИРУЙТЕ ЭТОТ ФАЙЛ! ===-
Путь: ...\CD3 - Любовь - волшебная страна
01 -=- 01 - Живём мы что-то без азарта - Живём мы что-то без азарта.flac -=- MPEG (95%)
02 -=- 02 - Гадалка - Гадалка.flac -=- MPEG (95%)
03 -=- 03 - Леди совершенство - Леди совершенство.flac -=- ERROR
04 -=- 04 - Лесной олень - Лесной олень.flac -=- MPEG (95%)
05 -=- 05 - Чёрное и белое - Чёрное и белое.flac -=- MPEG (95%)
06 -=- 06 - А, напоследок я скажу - А, напоследок я скажу.flac -=- ERROR
07 -=- 07 - Прощальная - Прощальная.flac -=- MPEG (95%)
08 -=- 08 - Песня о друге - Песня о друге.flac -=- MPEG (95%)
09 -=- 09 - Танго Рио - Танго Рио.flac -=- MPEG (95%)
10 -=- 10 - Сердце-томная забота - Сердце-томная забота.flac -=- MPEG (95%)
11 -=- 11 - В моей душе покоя нет - В моей душе покоя нет.flac -=- MPEG (95%)
12 -=- 12 - Романс полковника - Романс полковника.flac -=- MPEG (95%)
13 -=- 13 - Любовь-волшебная страна - Любовь-волшебная страна.flac -=- MPEG (95%)
14 -=- 14 - Я шагаю по Москве - Я шагаю по Москве.flac -=- MPEG (100%)
15 -=- 15 - Женя, Женчка и 'катюша' - Женя, Женчка и 'катюша'.flac -=- MPEG (95%)
16 -=- 16 - Романс Настеньки - Романс Настеньки.flac -=- MPEG (95%)
17 -=- 17 - Пять минут - Пять минут.flac -=- CDDA (100%)
18 -=- 18 - Эхо любви - Эхо любви.flac -=- MPEG (95%)
Сводка 10,63% CDDA
43600340
Трэклист
01 - Берег моря - Берег моря. (2:27)
02 - Вальс - Вальс. (4:01)
03 - Баллада о сердце - Баллада о сердце. (3:58)
04 - Обыкновенное чудо - Обыкновенное чудо. (1:43)
05 - Вальс - Вальс. (2:25)
06 - Я прошу хоть ненадолго - Я прошу хоть ненадолго. (2:46)
07 - Спят курганы тёмные - Спят курганы тёмные. (1:44)
08 - Погоня - Погоня. (1:40)
09 - Мелодия - Мелодия. (2:58)
10 - Мираж - Мираж. (5:03)
11 - Инструментальная тема - Инструментальная тема. (1:31)
12 - Песня и марш - Песня и марш. (5:35)
13 - Гляжу в озёра синие - Гляжу в озёра синие. (3:13)
14 - Что будет, то и будет - Что будет, то и будет. (3:20)
15 - Увертюра - Увертюра. (5:05)
16 - Тёмная ночь - Тёмная ночь. (2:42)
17 - Поезд - Поезд. (3:25)
18 - Облетают последние маки - Облетают последние маки. (3:33)
”Отчет ЕАС”
Отчёт EAC об извлечении, выполненном 28. января 2013, 18:34 для диска:
Various / Песни нашего кино (CD4) - Обыкновенное чудо (РД)
Дисковод: _NEC DVD_RW ND-4550A Adapter: 0 ID: 1
Режим чтения: Достоверный (C2: нет, Точный поток: да, Отключение кэша: да)
Коррекция смещения при чтении: 48
Способность читать области Lead-in и Lead-out : Нет
Выходной формат: C:\Program Files\FLAC\flac.exe (Пользовательский кодировщик)
128 kBit/s
Дополнительные параметры: -8 -V -T "ARTIST=%a" -T "TITLE=%t" -T "ALBUM=%g" -T "DATE=%y" -T "TRACKNUMBER=%n" -T "GENRE=%m" -T "COMMENT=EAC FLAC -8" %s
Другие параметры:
Заполнение пропущенных сэмплов тишиной : Да
Удаление блоков с тишиной в начале и конце : Нет
Встроенный Win32-интерфейс для Win NT/2000
Трек 1
Имя файла C:\Sergei\новая папка\01 - Берег моря - Берег моря.wav
Длина предзазора 0:00:02.00
Пиковый уровень 90.6 %
Качество трека 100.0 %
CRC теста CAB72911
CRC копии CAB72911
Копирование... OK
Трек 2
Имя файла C:\Sergei\новая папка\02 - Вальс - Вальс.wav
Пиковый уровень 97.9 %
Качество трека 100.0 %
CRC теста E6B9F798
CRC копии E6B9F798
Копирование... OK
Трек 3
Имя файла C:\Sergei\новая папка\03 - Баллада о сердце - Баллада о сердце.wav
Пиковый уровень 100.0 %
Качество трека 100.0 %
CRC теста D64B4D56
CRC копии D64B4D56
Копирование... OK
Трек 4
Имя файла C:\Sergei\новая папка\04 - Обыкновенное чудо - Обыкновенное чудо.wav
Пиковый уровень 88.0 %
Качество трека 100.0 %
CRC теста 622A0289
CRC копии 622A0289
Копирование... OK
Трек 5
Имя файла C:\Sergei\новая папка\05 - Вальс - Вальс.wav
Пиковый уровень 71.8 %
Качество трека 100.0 %
CRC теста D19DBFB6
CRC копии D19DBFB6
Копирование... OK
Трек 6
Имя файла C:\Sergei\новая папка\06 - Я прошу хоть ненадолго - Я прошу хоть ненадолго.wav
Пиковый уровень 100.0 %
Качество трека 99.9 %
CRC теста CD347542
CRC копии CD347542
Копирование... OK
Трек 7
Имя файла C:\Sergei\новая папка\07 - Спят курганы тёмные - Спят курганы тёмные.wav
Пиковый уровень 100.0 %
Качество трека 100.0 %
CRC теста 070CAFDC
CRC копии 070CAFDC
Копирование... OK
Трек 8
Имя файла C:\Sergei\новая папка\08 - Погоня - Погоня.wav
Пиковый уровень 66.2 %
Качество трека 100.0 %
CRC теста 569613A7
CRC копии 569613A7
Копирование... OK
Трек 9
Имя файла C:\Sergei\новая папка\09 - Мелодия - Мелодия.wav
Пиковый уровень 99.9 %
Качество трека 100.0 %
CRC теста A973AE68
CRC копии A973AE68
Копирование... OK
Трек 10
Имя файла C:\Sergei\новая папка\10 - Мираж - Мираж.wav
Пиковый уровень 100.0 %
Качество трека 100.0 %
CRC теста E7D7970A
CRC копии E7D7970A
Копирование... OK
Трек 11
Имя файла C:\Sergei\новая папка\11 - Инструментальная тема - Инструментальная тема.wav
Пиковый уровень 100.0 %
Качество трека 100.0 %
CRC теста 361FAE01
CRC копии 361FAE01
Копирование... OK
Трек 12
Имя файла C:\Sergei\новая папка\12 - Песня и марш - Песня и марш.wav
Пиковый уровень 100.0 %
Качество трека 100.0 %
CRC теста B85354A4
CRC копии B85354A4
Копирование... OK
Трек 13
Имя файла C:\Sergei\новая папка\13 - Гляжу в озёра синие - Гляжу в озёра синие.wav
Пиковый уровень 100.0 %
Качество трека 100.0 %
CRC теста 34CABBC1
CRC копии 34CABBC1
Копирование... OK
Трек 14
Имя файла C:\Sergei\новая папка\14 - Что будет, то и будет - Что будет, то и будет.wav
Пиковый уровень 100.0 %
Качество трека 100.0 %
CRC теста 0A7B34FF
CRC копии 0A7B34FF
Копирование... OK
Трек 15
Имя файла C:\Sergei\новая папка\15 - Увертюра - Увертюра.wav
Пиковый уровень 95.4 %
Качество трека 100.0 %
CRC теста CF73885A
CRC копии CF73885A
Копирование... OK
Трек 16
Имя файла C:\Sergei\новая папка\16 - Тёмная ночь - Тёмная ночь.wav
Пиковый уровень 100.0 %
Качество трека 100.0 %
CRC теста 9DBB1FB4
CRC копии 9DBB1FB4
Копирование... OK
Трек 17
Имя файла C:\Sergei\новая папка\17 - Поезд - Поезд.wav
Пиковый уровень 100.0 %
Качество трека 100.0 %
CRC теста F71172DD
CRC копии F71172DD
Копирование... OK
Трек 18
Имя файла C:\Sergei\новая папка\18 - Облетают последние маки - Облетают последние маки.wav
Пиковый уровень 100.0 %
Качество трека 100.0 %
CRC теста 8613D91A
CRC копии 8613D91A
Копирование... OK
Ошибок не произошло
Конец отчёта
"Non-compilant CUE"
REM GENRE Instrumental
REM DATE 2011
REM DISCID EF0D6E12
REM COMMENT "ExactAudioCopy v0.95b3"
PERFORMER "Various"
TITLE "Песни нашего кино (CD4) - Обыкновенное чудо (РД)"
FILE "01 - Берег моря - Берег моря.wav" WAVE
TRACK 01 AUDIO
TITLE "Берег моря"
PERFORMER "Берег моря"
FLAGS DCP
INDEX 01 00:00:00
FILE "02 - Вальс - Вальс.wav" WAVE
TRACK 02 AUDIO
TITLE "Вальс"
PERFORMER "Вальс"
FLAGS DCP
INDEX 01 00:00:00
FILE "03 - Баллада о сердце - Баллада о сердце.wav" WAVE
TRACK 03 AUDIO
TITLE "Баллада о сердце"
PERFORMER "Баллада о сердце"
FLAGS DCP
INDEX 01 00:00:00
FILE "04 - Обыкновенное чудо - Обыкновенное чудо.wav" WAVE
TRACK 04 AUDIO
TITLE "Обыкновенное чудо"
PERFORMER "Обыкновенное чудо"
FLAGS DCP
INDEX 01 00:00:00
FILE "05 - Вальс - Вальс.wav" WAVE
TRACK 05 AUDIO
TITLE "Вальс"
PERFORMER "Вальс"
FLAGS DCP
INDEX 01 00:00:00
FILE "06 - Я прошу хоть ненадолго - Я прошу хоть ненадолго.wav" WAVE
TRACK 06 AUDIO
TITLE "Я прошу хоть ненадолго"
PERFORMER "Я прошу хоть ненадолго"
FLAGS DCP
INDEX 01 00:00:00
FILE "07 - Спят курганы тёмные - Спят курганы тёмные.wav" WAVE
TRACK 07 AUDIO
TITLE "Спят курганы тёмные"
PERFORMER "Спят курганы тёмные"
FLAGS DCP
INDEX 01 00:00:00
FILE "08 - Погоня - Погоня.wav" WAVE
TRACK 08 AUDIO
TITLE "Погоня"
PERFORMER "Погоня"
FLAGS DCP
INDEX 01 00:00:00
FILE "09 - Мелодия - Мелодия.wav" WAVE
TRACK 09 AUDIO
TITLE "Мелодия"
PERFORMER "Мелодия"
FLAGS DCP
INDEX 01 00:00:00
FILE "10 - Мираж - Мираж.wav" WAVE
TRACK 10 AUDIO
TITLE "Мираж"
PERFORMER "Мираж"
FLAGS DCP
INDEX 01 00:00:00
FILE "11 - Инструментальная тема - Инструментальная тема.wav" WAVE
TRACK 11 AUDIO
TITLE "Инструментальная тема"
PERFORMER "Инструментальная тема"
FLAGS DCP
INDEX 01 00:00:00
FILE "12 - Песня и марш - Песня и марш.wav" WAVE
TRACK 12 AUDIO
TITLE "Песня и марш"
PERFORMER "Песня и марш"
FLAGS DCP
INDEX 01 00:00:00
FILE "13 - Гляжу в озёра синие - Гляжу в озёра синие.wav" WAVE
TRACK 13 AUDIO
TITLE "Гляжу в озёра синие"
PERFORMER "Гляжу в озёра синие"
FLAGS DCP
INDEX 01 00:00:00
FILE "14 - Что будет, то и будет - Что будет, то и будет.wav" WAVE
TRACK 14 AUDIO
TITLE "Что будет, то и будет"
PERFORMER "Что будет, то и будет"
FLAGS DCP
INDEX 01 00:00:00
FILE "15 - Увертюра - Увертюра.wav" WAVE
TRACK 15 AUDIO
TITLE "Увертюра"
PERFORMER "Увертюра"
FLAGS DCP
INDEX 01 00:00:00
FILE "16 - Тёмная ночь - Тёмная ночь.wav" WAVE
TRACK 16 AUDIO
TITLE "Тёмная ночь"
PERFORMER "Тёмная ночь"
FLAGS DCP
INDEX 01 00:00:00
FILE "17 - Поезд - Поезд.wav" WAVE
TRACK 17 AUDIO
TITLE "Поезд"
PERFORMER "Поезд"
FLAGS DCP
INDEX 01 00:00:00
FILE "18 - Облетают последние маки - Облетают последние маки.wav" WAVE
TRACK 18 AUDIO
TITLE "Облетают последние маки"
PERFORMER "Облетают последние маки"
FLAGS DCP
INDEX 01 00:00:00
"Лог Audiochecker"
AUDIOCHECKER v2.0 beta (build 457) - by Dester - [email protected]
~~~~~~~~~~~~~~~~~~~~~~~~~~~~~~~~~~
-=== НЕ РЕДАКТИРУЙТЕ ЭТОТ ФАЙЛ! ===-
Путь: ...\CD4 - Обыкновенное чудо
01 -=- 01 - Берег моря - Берег моря.flac -=- MPEG (95%)
02 -=- 02 - Вальс - Вальс.flac -=- MPEG (95%)
03 -=- 03 - Баллада о сердце - Баллада о сердце.flac -=- MPEG (95%)
04 -=- 04 - Обыкновенное чудо - Обыкновенное чудо.flac -=- MPEG (95%)
05 -=- 05 - Вальс - Вальс.flac -=- MPEG (95%)
06 -=- 06 - Я прошу хоть ненадолго - Я прошу хоть ненадолго.flac -=- MPEG (95%)
07 -=- 07 - Спят курганы тёмные - Спят курганы тёмные.flac -=- MPEG (95%)
08 -=- 08 - Погоня - Погоня.flac -=- MPEG (95%)
09 -=- 09 - Мелодия - Мелодия.flac -=- MPEG (95%)
10 -=- 10 - Мираж - Мираж.flac -=- MPEG (95%)
11 -=- 11 - Инструментальная тема - Инструментальная тема.flac -=- MPEG (95%)
12 -=- 12 - Песня и марш - Песня и марш.flac -=- MPEG (95%)
13 -=- 13 - Гляжу в озёра синие - Гляжу в озёра синие.flac -=- MPEG (95%)
14 -=- 14 - Что будет, то и будет - Что будет, то и будет.flac -=- MPEG (95%)
15 -=- 15 - Увертюра - Увертюра.flac -=- MPEG (95%)
16 -=- 16 - Тёмная ночь - Тёмная ночь.flac -=- CDDA (43%)
17 -=- 17 - Поезд - Поезд.flac -=- MPEG (95%)
18 -=- 18 - Облетают последние маки - Облетают последние маки.flac -=- MPEG (95%)
Сводка 7,11% CDDA
265718740
Трэклист
01 - Вступление к к - ф 'Вокзал для двоих'. (2:39)
02 - Погоня - Погоня. (1:11)
03 - Постой, паровоз - Постой, паровоз. (2:33)
04 - С чего начинается Родина - С чего начинается Родина. (2:22)
05 - Человек-амфибия - Человек-амфибия. (9:20)
06 - Танец воспоминаний - Танец воспоминаний. (3:39)
07 - Песня подруг - Песня подруг. (1:38)
08 - Песня о беспризорном мальчишке - Песня о беспризорном мальчишке. (3:10)
09 - Веселый ветер - Веселый ветер. (2:42)
10 - Песенка про трубачей - Песенка про трубачей. (2:32)
11 - Обрываются речи влюбленных - Обрываются речи влюбленных. (1:48)
12 - Романс о романсе - Романс о романсе. (4:02)
13 - Человек-амфибия - Человек-амфибия. (2:55)
14 - Глаза - Глаза. (2:24)
15 - Вальс - Вальс. (3:56)
16 - Нежность - Нежность. (2:55)
17 - Мгновения - Мгновения. (2:04)
18 - Инструментальная тема - Инструментальная тема. (3:09)
”Отчет ЕАС”
Отчёт EAC об извлечении, выполненном 28. января 2013, 19:18 для диска:
Various / Песни нашего кино (CD5) - Нежность (РД)
Дисковод: _NEC DVD_RW ND-4550A Adapter: 0 ID: 1
Режим чтения: Достоверный (C2: нет, Точный поток: да, Отключение кэша: да)
Коррекция смещения при чтении: 48
Способность читать области Lead-in и Lead-out : Нет
Выходной формат: C:\Program Files\FLAC\flac.exe (Пользовательский кодировщик)
128 kBit/s
Дополнительные параметры: -8 -V -T "ARTIST=%a" -T "TITLE=%t" -T "ALBUM=%g" -T "DATE=%y" -T "TRACKNUMBER=%n" -T "GENRE=%m" -T "COMMENT=EAC FLAC -8" %s
Другие параметры:
Заполнение пропущенных сэмплов тишиной : Да
Удаление блоков с тишиной в начале и конце : Нет
Встроенный Win32-интерфейс для Win NT/2000
Трек 1
Имя файла C:\Sergei\новая папка\01 - Вступление к к - ф 'Вокзал для двоих'.wav
Длина предзазора 0:00:02.00
Пиковый уровень 98.8 %
Качество трека 100.0 %
CRC теста 31018285
CRC копии 31018285
Копирование... OK
Трек 2
Имя файла C:\Sergei\новая папка\02 - Погоня - Погоня.wav
Длина предзазора 0:00:02.00
Пиковый уровень 83.0 %
Качество трека 100.0 %
CRC теста D600B845
CRC копии D600B845
Копирование... OK
Трек 3
Имя файла C:\Sergei\новая папка\03 - Постой, паровоз - Постой, паровоз.wav
Длина предзазора 0:00:02.00
Пиковый уровень 98.8 %
Качество трека 100.0 %
CRC теста 258C5E52
CRC копии 258C5E52
Копирование... OK
Трек 4
Имя файла C:\Sergei\новая папка\04 - С чего начинается Родина - С чего начинается Родина.wav
Длина предзазора 0:00:02.00
Пиковый уровень 98.8 %
Качество трека 100.0 %
CRC теста 41C07E03
CRC копии 41C07E03
Копирование... OK
Трек 5
Имя файла C:\Sergei\новая папка\05 - Человек-амфибия - Человек-амфибия.wav
Длина предзазора 0:00:02.00
Пиковый уровень 98.8 %
Качество трека 100.0 %
CRC теста 311EB343
CRC копии 311EB343
Копирование... OK
Трек 6
Имя файла C:\Sergei\новая папка\06 - Танец воспоминаний - Танец воспоминаний.wav
Длина предзазора 0:00:02.00
Пиковый уровень 98.8 %
Качество трека 100.0 %
CRC теста D2C75EEC
CRC копии D2C75EEC
Копирование... OK
Трек 7
Имя файла C:\Sergei\новая папка\07 - Песня подруг - Песня подруг.wav
Длина предзазора 0:00:02.00
Пиковый уровень 98.8 %
Качество трека 100.0 %
CRC теста E83E2B19
CRC копии E83E2B19
Копирование... OK
Трек 8
Имя файла C:\Sergei\новая папка\08 - Песня о беспризорном мальчишке - Песня о беспризорном мальчишке.wav
Длина предзазора 0:00:02.00
Пиковый уровень 96.7 %
Качество трека 100.0 %
CRC теста 5E77506E
CRC копии 5E77506E
Копирование... OK
Трек 9
Имя файла C:\Sergei\новая папка\09 - Веселый ветер - Веселый ветер.wav
Длина предзазора 0:00:02.00
Пиковый уровень 98.8 %
Качество трека 100.0 %
CRC теста 34733F5F
CRC копии 34733F5F
Копирование... OK
Трек 10
Имя файла C:\Sergei\новая папка\10 - Песенка про трубачей - Песенка про трубачей.wav
Длина предзазора 0:00:02.00
Пиковый уровень 98.8 %
Качество трека 99.9 %
CRC теста 4F446BE5
CRC копии 4F446BE5
Копирование... OK
Трек 11
Имя файла C:\Sergei\новая папка\11 - Обрываются речи влюбленных - Обрываются речи влюбленных.wav
Длина предзазора 0:00:02.00
Пиковый уровень 98.8 %
Качество трека 100.0 %
CRC теста 33A9E84E
CRC копии 33A9E84E
Копирование... OK
Трек 12
Имя файла C:\Sergei\новая папка\12 - Романс о романсе - Романс о романсе.wav
Длина предзазора 0:00:02.00
Пиковый уровень 98.8 %
Качество трека 100.0 %
CRC теста 6F522301
CRC копии 6F522301
Копирование... OK
Трек 13
Имя файла C:\Sergei\новая папка\13 - Человек-амфибия - Человек-амфибия.wav
Длина предзазора 0:00:02.00
Пиковый уровень 98.8 %
Качество трека 100.0 %
CRC теста 940A5346
CRC копии 940A5346
Копирование... OK
Трек 14
Имя файла C:\Sergei\новая папка\14 - Глаза - Глаза.wav
Длина предзазора 0:00:02.00
Пиковый уровень 98.8 %
Качество трека 100.0 %
CRC теста 909C2203
CRC копии 909C2203
Копирование... OK
Трек 15
Имя файла C:\Sergei\новая папка\15 - Вальс - Вальс.wav
Длина предзазора 0:00:02.00
Пиковый уровень 70.2 %
Качество трека 99.9 %
CRC теста 441BED53
CRC копии 441BED53
Копирование... OK
Трек 16
Имя файла C:\Sergei\новая папка\16 - Нежность - Нежность.wav
Длина предзазора 0:00:02.00
Пиковый уровень 91.9 %
Качество трека 100.0 %
CRC теста 0763529F
CRC копии 0763529F
Копирование... OK
Трек 17
Имя файла C:\Sergei\новая папка\17 - Мгновения - Мгновения.wav
Длина предзазора 0:00:02.00
Пиковый уровень 98.8 %
Качество трека 100.0 %
CRC теста 867A4629
CRC копии 867A4629
Копирование... OK
Трек 18
Имя файла C:\Sergei\новая папка\18 - Инструментальная тема - Инструментальная тема.wav
Длина предзазора 0:00:02.00
Пиковый уровень 93.3 %
Качество трека 100.0 %
CRC теста DC8A44AC
CRC копии DC8A44AC
Копирование... OK
Ошибок не произошло
Конец отчёта
"Non-compilant CUE"
REM GENRE Instrumental
REM DATE 2011
REM DISCID F40CEC12
REM COMMENT "ExactAudioCopy v0.95b3"
PERFORMER "Various"
TITLE "Песни нашего кино (CD5) - Нежность (РД)"
FILE "01 - Вступление к к - ф 'Вокзал для двоих'.wav" WAVE
TRACK 01 AUDIO
TITLE "ф 'Вокзал для двоих'"
PERFORMER "Вступление к к"
FLAGS DCP
INDEX 01 00:00:00
TRACK 02 AUDIO
TITLE "Погоня"
PERFORMER "Погоня"
FLAGS DCP
INDEX 00 02:37:44
FILE "02 - Погоня - Погоня.wav" WAVE
INDEX 01 00:00:00
TRACK 03 AUDIO
TITLE "Постой, паровоз"
PERFORMER "Постой, паровоз"
FLAGS DCP
INDEX 00 01:09:40
FILE "03 - Постой, паровоз - Постой, паровоз.wav" WAVE
INDEX 01 00:00:00
TRACK 04 AUDIO
TITLE "С чего начинается Родина"
PERFORMER "С чего начинается Родина"
FLAGS DCP
INDEX 00 02:31:46
FILE "04 - С чего начинается Родина - С чего начинается Родина.wav" WAVE
INDEX 01 00:00:00
TRACK 05 AUDIO
TITLE "Человек-амфибия"
PERFORMER "Человек-амфибия"
FLAGS DCP
INDEX 00 02:20:68
FILE "05 - Человек-амфибия - Человек-амфибия.wav" WAVE
INDEX 01 00:00:00
TRACK 06 AUDIO
TITLE "Танец воспоминаний"
PERFORMER "Танец воспоминаний"
FLAGS DCP
INDEX 00 09:18:26
FILE "06 - Танец воспоминаний - Танец воспоминаний.wav" WAVE
INDEX 01 00:00:00
TRACK 07 AUDIO
TITLE "Песня подруг"
PERFORMER "Песня подруг"
FLAGS DCP
INDEX 00 03:37:41
FILE "07 - Песня подруг - Песня подруг.wav" WAVE
INDEX 01 00:00:00
TRACK 08 AUDIO
TITLE "Песня о беспризорном мальчишке"
PERFORMER "Песня о беспризорном мальчишке"
FLAGS DCP
INDEX 00 01:36:56
FILE "08 - Песня о беспризорном мальчишке - Песня о беспризорном мальчишке.wav" WAVE
INDEX 01 00:00:00
TRACK 09 AUDIO
TITLE "Веселый ветер"
PERFORMER "Веселый ветер"
FLAGS DCP
INDEX 00 03:08:60
FILE "09 - Веселый ветер - Веселый ветер.wav" WAVE
INDEX 01 00:00:00
TRACK 10 AUDIO
TITLE "Песенка про трубачей"
PERFORMER "Песенка про трубачей"
FLAGS DCP
INDEX 00 02:40:72
FILE "10 - Песенка про трубачей - Песенка про трубачей.wav" WAVE
INDEX 01 00:00:00
TRACK 11 AUDIO
TITLE "Обрываются речи влюбленных"
PERFORMER "Обрываются речи влюбленных"
FLAGS DCP
INDEX 00 02:30:04
FILE "11 - Обрываются речи влюбленных - Обрываются речи влюбленных.wav" WAVE
INDEX 01 00:00:00
TRACK 12 AUDIO
TITLE "Романс о романсе"
PERFORMER "Романс о романсе"
FLAGS DCP
INDEX 00 01:46:62
FILE "12 - Романс о романсе - Романс о романсе.wav" WAVE
INDEX 01 00:00:00
TRACK 13 AUDIO
TITLE "Человек-амфибия"
PERFORMER "Человек-амфибия"
FLAGS DCP
INDEX 00 04:00:34
FILE "13 - Человек-амфибия - Человек-амфибия.wav" WAVE
INDEX 01 00:00:00
TRACK 14 AUDIO
TITLE "Глаза"
PERFORMER "Глаза"
FLAGS DCP
INDEX 00 02:53:04
FILE "14 - Глаза - Глаза.wav" WAVE
INDEX 01 00:00:00
TRACK 15 AUDIO
TITLE "Вальс"
PERFORMER "Вальс"
FLAGS DCP
INDEX 00 02:22:04
FILE "15 - Вальс - Вальс.wav" WAVE
INDEX 01 00:00:00
TRACK 16 AUDIO
TITLE "Нежность"
PERFORMER "Нежность"
FLAGS DCP
INDEX 00 03:54:30
FILE "16 - Нежность - Нежность.wav" WAVE
INDEX 01 00:00:00
TRACK 17 AUDIO
TITLE "Мгновения"
PERFORMER "Мгновения"
FLAGS DCP
INDEX 00 02:53:14
FILE "17 - Мгновения - Мгновения.wav" WAVE
INDEX 01 00:00:00
TRACK 18 AUDIO
TITLE "Инструментальная тема"
PERFORMER "Инструментальная тема"
FLAGS DCP
INDEX 00 02:02:58
FILE "18 - Инструментальная тема - Инструментальная тема.wav" WAVE
INDEX 01 00:00:00
"Лог Audiochecker"
AUDIOCHECKER v2.0 beta (build 457) - by Dester - [email protected]
~~~~~~~~~~~~~~~~~~~~~~~~~~~~~~~~~~
-=== НЕ РЕДАКТИРУЙТЕ ЭТОТ ФАЙЛ! ===-
Путь: ...\CD5 - Нежность
01 -=- 01 - Вступление к к - ф 'Вокзал для двоих'.flac -=- MPEG (91%)
02 -=- 02 - Погоня - Погоня.flac -=- MPEG (95%)
03 -=- 03 - Постой, паровоз - Постой, паровоз.flac -=- MPEG (95%)
04 -=- 04 - С чего начинается Родина - С чего начинается Родина.flac -=- MPEG (95%)
05 -=- 05 - Человек-амфибия - Человек-амфибия.flac -=- MPEG (95%)
06 -=- 06 - Танец воспоминаний - Танец воспоминаний.flac -=- MPEG (95%)
07 -=- 07 - Песня подруг - Песня подруг.flac -=- MPEG (95%)
08 -=- 08 - Песня о беспризорном мальчишке - Песня о беспризорном мальчишке.flac -=- MPEG (95%)
09 -=- 09 - Веселый ветер - Веселый ветер.flac -=- MPEG (95%)
10 -=- 10 - Песенка про трубачей - Песенка про трубачей.flac -=- MPEG (95%)
11 -=- 11 - Обрываются речи влюбленных - Обрываются речи влюбленных.flac -=- MPEG (95%)
12 -=- 12 - Романс о романсе - Романс о романсе.flac -=- MPEG (95%)
13 -=- 13 - Человек-амфибия - Человек-амфибия.flac -=- MPEG (93%)
14 -=- 14 - Глаза - Глаза.flac -=- MPEG (95%)
15 -=- 15 - Вальс - Вальс.flac -=- MPEG (95%)
16 -=- 16 - Нежность - Нежность.flac -=- MPEG (95%)
17 -=- 17 - Мгновения - Мгновения.flac -=- MPEG (90%)
18 -=- 18 - Инструментальная тема - Инструментальная тема.flac -=- MPEG (95%)
Сводка 5,61% CDDA
26799396
Мы помогаем людям, чтобы они, в свою очередь, помогли нам; таким образом, наши услуги сводятся просто к благодеяниям, которые мы загодя оказываем самим себе. (Франсуа де Ларошфуко)
Download / Скачать

Хотите скачать бесплатно? Зарегистрируйтесь на сайте (ссылка на регистрацию). Pirat.ca - самый быстрый торрент трекер в рунете!

Как скачивать  ·   Что такое торрент  ·   Рейтинг и ограничения

Michaell43

Корсар

387

Пост 30-Янв-2013 08:05 (спустя 7 часов)

[Q] 

Мне понравилась подборка. Большое спасибо! bp
[Профиль]  [ЛС] 

leestan27

Морской Волк

Пост 27-Мар-2015 23:11 (спустя 2 года 1 месяц)

[Q] 

Спасибо!!!
[Профиль]  [ЛС] 

alexx2201

33

Пост 30-Апр-2015 00:38 (спустя 1 месяц 2 дня)

[Q] 

Спасибо! супруге будет по нраву.

_________________
Одним ветром дышим, Пираты!
[Профиль]  [ЛС] 
Показать сообщения:    
Ответить на тему

Текущее время: Сегодня 07:51

Часовой пояс: GMT + 4



Вы не можете начинать темы
Вы не можете отвечать на сообщения
Вы не можете редактировать свои сообщения
Вы не можете удалять свои сообщения
Вы не можете голосовать в опросах
Вы не можете прикреплять файлы к сообщениям
Вы не можете скачивать файлы

▼ Вниз