Уважаемый Гость!
Вы можете поддержать проект и зарегистрироваться у наших партнеров - онлайн-стратегия MyLands. При регистрации в игре Вы получите код, который сможете активировать после регистрации на pirat.ca и получить 1000 дублонов.

Ваш код:
1834ae75e9227261aad6e08fc139cfdee7634d27
 
     

(Instrumental) VA - Песни военного времени (РД) - 2011 (3 CD) [FLAC, tracks+cue, lossless]

Ответить на тему
 
Автор
Сообщение

Пост 07-Фев-2013 00:03

[Q] 

CHARLI2236

VA - Песни военного времени (РД) - 2011 (3CD)
Год выпуска альбома: 2011
Страна: Россия
Жанр: Instrumental
Лейбл издания: Ридерз Дайджест
Продолжительность: 3:21:20
Формат: FLAC
Битрейт аудио: lossless
Тип рипа: tracks+.cue
Источник (релизер): диск CDDA
Наличие сканов в содержимом раздачи: да
Трэклист
01 - Священная война - Священная война. (4:18)
02 - Шумел сурово брянский лес - Шумел сурово брянский лес. (3:16)
03 - Катюша - Катюша. (2:18)
04 - В лесу прифронтовом - В лесу прифронтовом. (3:19)
05 - Прощайте, скалистые горы - Прощайте, скалистые горы. (2:50)
06 - Смуглянка - Смуглянка. (2:54)
07 - Три танкиста - Три танкиста. (2:49)
08 - Темная ночь - Темная ночь. (3:28)
09 - Синий платочек - Синий платочек. (2:41)
10 - В землянке - В землянке. (3:04)
11 - Вечер на рейде - Вечер на рейде. (6:32)
12 - Два Максима - Два Максима. (2:48)
13 - Вася-Василек - Вася-Василек. (2:59)
14 - Ой, туманы - Ой, туманы. (4:03)
15 - На солнечной поляночке - На солнечной поляночке. (3:44)
16 - Два друга - Два друга. (3:24)
17 - На безымянной высоте - На безымянной высоте. (4:35)
18 - Дорога на Берлин - Дорога на Берлин. (2:36)
19 - Песня и марш из к - ф 'Белорусский вокзал' - Нам нужна одна победа. (5:37)
20 - Сводка Совинформбюро 'О взятии Берлина' - Сводка Совинформбюро 'О взятии Берлина'. (1:40)
”Отчет ЕАС”
Отчёт EAC об извлечении, выполненном 6. февраля 2013, 14:24 для диска:
Various / Песни военного времени (CD1) - Священная война (РД)
Дисковод: _NEC DVD_RW ND-4550A Adapter: 0 ID: 1
Режим чтения: Достоверный (C2: нет, Точный поток: да, Отключение кэша: да)
Коррекция смещения при чтении: 48
Способность читать области Lead-in и Lead-out : Нет
Выходной формат: C:\Program Files\FLAC\flac.exe (Пользовательский кодировщик)
128 kBit/s
Дополнительные параметры: -8 -V -T "ARTIST=%a" -T "TITLE=%t" -T "ALBUM=%g" -T "DATE=%y" -T "TRACKNUMBER=%n" -T "GENRE=%m" -T "COMMENT=EAC FLAC -8" %s
Другие параметры:
Заполнение пропущенных сэмплов тишиной : Да
Удаление блоков с тишиной в начале и конце : Нет
Встроенный Win32-интерфейс для Win NT/2000
Трек 1
Имя файла C:\Sergei\новая папка\01 - Священная война - Священная война.wav
Длина предзазора 0:00:02.00
Пиковый уровень 96.5 %
Качество трека 99.9 %
CRC теста 1441B2B7
CRC копии 1441B2B7
Копирование... OK
Трек 2
Имя файла C:\Sergei\новая папка\02 - Шумел сурово брянский лес - Шумел сурово брянский лес.wav
Пиковый уровень 88.4 %
Качество трека 100.0 %
CRC теста 386572FB
CRC копии 386572FB
Копирование... OK
Трек 3
Имя файла C:\Sergei\новая папка\03 - Катюша - Катюша.wav
Пиковый уровень 94.2 %
Качество трека 99.9 %
CRC теста A45F9049
CRC копии A45F9049
Копирование... OK
Трек 4
Имя файла C:\Sergei\новая папка\04 - В лесу прифронтовом - В лесу прифронтовом.wav
Пиковый уровень 87.1 %
Качество трека 100.0 %
CRC теста DE96634E
CRC копии DE96634E
Копирование... OK
Трек 5
Имя файла C:\Sergei\новая папка\05 - Прощайте, скалистые горы - Прощайте, скалистые горы.wav
Пиковый уровень 99.5 %
Качество трека 100.0 %
CRC теста 1A9A2B82
CRC копии 1A9A2B82
Копирование... OK
Трек 6
Имя файла C:\Sergei\новая папка\06 - Смуглянка - Смуглянка.wav
Пиковый уровень 98.8 %
Качество трека 100.0 %
CRC теста 0702623C
CRC копии 0702623C
Копирование... OK
Трек 7
Имя файла C:\Sergei\новая папка\07 - Три танкиста - Три танкиста.wav
Пиковый уровень 86.7 %
Качество трека 100.0 %
CRC теста 879E7EAC
CRC копии 879E7EAC
Копирование... OK
Трек 8
Имя файла C:\Sergei\новая папка\08 - Темная ночь - Темная ночь.wav
Пиковый уровень 75.9 %
Качество трека 100.0 %
CRC теста C98FD5A3
CRC копии C98FD5A3
Копирование... OK
Трек 9
Имя файла C:\Sergei\новая папка\09 - Синий платочек - Синий платочек.wav
Пиковый уровень 81.4 %
Качество трека 100.0 %
CRC теста CDB34FCE
CRC копии CDB34FCE
Копирование... OK
Трек 10
Имя файла C:\Sergei\новая папка\10 - В землянке - В землянке.wav
Пиковый уровень 63.9 %
Качество трека 100.0 %
CRC теста D2C3C5DA
CRC копии D2C3C5DA
Копирование... OK
Трек 11
Имя файла C:\Sergei\новая папка\11 - Вечер на рейде - Вечер на рейде.wav
Пиковый уровень 100.0 %
Качество трека 99.9 %
CRC теста CA3C114A
CRC копии CA3C114A
Копирование... OK
Трек 12
Имя файла C:\Sergei\новая папка\12 - Два Максима - Два Максима.wav
Пиковый уровень 97.3 %
Качество трека 99.9 %
CRC теста 4B0525A2
CRC копии 4B0525A2
Копирование... OK
Трек 13
Имя файла C:\Sergei\новая папка\13 - Вася-Василек - Вася-Василек.wav
Пиковый уровень 100.0 %
Качество трека 100.0 %
CRC теста 658CF468
CRC копии 658CF468
Копирование... OK
Трек 14
Имя файла C:\Sergei\новая папка\14 - Ой, туманы - Ой, туманы.wav
Пиковый уровень 89.3 %
Качество трека 100.0 %
CRC теста A62B2D02
CRC копии A62B2D02
Копирование... OK
Трек 15
Имя файла C:\Sergei\новая папка\15 - На солнечной поляночке - На солнечной поляночке.wav
Пиковый уровень 97.3 %
Качество трека 100.0 %
CRC теста 109F8E4F
CRC копии 109F8E4F
Копирование... OK
Трек 16
Имя файла C:\Sergei\новая папка\16 - Два друга - Два друга.wav
Пиковый уровень 98.1 %
Качество трека 100.0 %
CRC теста 6B798EB5
CRC копии 6B798EB5
Копирование... OK
Трек 17
Имя файла C:\Sergei\новая папка\17 - На безымянной высоте - На безымянной высоте.wav
Пиковый уровень 87.0 %
Качество трека 99.9 %
CRC теста EBB2403B
CRC копии EBB2403B
Копирование... OK
Трек 18
Имя файла C:\Sergei\новая папка\18 - Дорога на Берлин - Дорога на Берлин.wav
Пиковый уровень 98.7 %
Качество трека 100.0 %
CRC теста 73F87B7F
CRC копии 73F87B7F
Копирование... OK
Трек 19
Имя файла C:\Sergei\новая папка\19 - Песня и марш из к - ф 'Белорусский вокзал' - Нам нужна одна победа.wav
Пиковый уровень 90.4 %
Качество трека 100.0 %
CRC теста A48FBD6C
CRC копии A48FBD6C
Копирование... OK
Трек 20
Имя файла C:\Sergei\новая папка\20 - Сводка Совинформбюро 'О взятии Берлина' - Сводка Совинформбюро 'О взятии Берлина'.wav
Пиковый уровень 99.9 %
Качество трека 100.0 %
CRC теста 7BD0324E
CRC копии 7BD0324E
Копирование... OK
Ошибок не произошло
Конец отчёта
"Non-compilant CUE"
REM GENRE Instrumental
REM DATE 2011
REM DISCID 2D103014
REM COMMENT "ExactAudioCopy v0.95b3"
PERFORMER "Various"
TITLE "Песни военного времени (CD1) - Священная война (РД)"
FILE "01 - Священная война - Священная война.wav" WAVE
TRACK 01 AUDIO
TITLE "Священная война"
PERFORMER "Священная война"
INDEX 01 00:00:00
FILE "02 - Шумел сурово брянский лес - Шумел сурово брянский лес.wav" WAVE
TRACK 02 AUDIO
TITLE "Шумел сурово брянский лес"
PERFORMER "Шумел сурово брянский лес"
INDEX 01 00:00:00
FILE "03 - Катюша - Катюша.wav" WAVE
TRACK 03 AUDIO
TITLE "Катюша"
PERFORMER "Катюша"
INDEX 01 00:00:00
FILE "04 - В лесу прифронтовом - В лесу прифронтовом.wav" WAVE
TRACK 04 AUDIO
TITLE "В лесу прифронтовом"
PERFORMER "В лесу прифронтовом"
INDEX 01 00:00:00
FILE "05 - Прощайте, скалистые горы - Прощайте, скалистые горы.wav" WAVE
TRACK 05 AUDIO
TITLE "Прощайте, скалистые горы"
PERFORMER "Прощайте, скалистые горы"
INDEX 01 00:00:00
FILE "06 - Смуглянка - Смуглянка.wav" WAVE
TRACK 06 AUDIO
TITLE "Смуглянка"
PERFORMER "Смуглянка"
INDEX 01 00:00:00
FILE "07 - Три танкиста - Три танкиста.wav" WAVE
TRACK 07 AUDIO
TITLE "Три танкиста"
PERFORMER "Три танкиста"
INDEX 01 00:00:00
FILE "08 - Темная ночь - Темная ночь.wav" WAVE
TRACK 08 AUDIO
TITLE "Темная ночь"
PERFORMER "Темная ночь"
INDEX 01 00:00:00
FILE "09 - Синий платочек - Синий платочек.wav" WAVE
TRACK 09 AUDIO
TITLE "Синий платочек"
PERFORMER "Синий платочек"
INDEX 01 00:00:00
FILE "10 - В землянке - В землянке.wav" WAVE
TRACK 10 AUDIO
TITLE "В землянке"
PERFORMER "В землянке"
INDEX 01 00:00:00
FILE "11 - Вечер на рейде - Вечер на рейде.wav" WAVE
TRACK 11 AUDIO
TITLE "Вечер на рейде"
PERFORMER "Вечер на рейде"
INDEX 01 00:00:00
FILE "12 - Два Максима - Два Максима.wav" WAVE
TRACK 12 AUDIO
TITLE "Два Максима"
PERFORMER "Два Максима"
INDEX 01 00:00:00
FILE "13 - Вася-Василек - Вася-Василек.wav" WAVE
TRACK 13 AUDIO
TITLE "Вася-Василек"
PERFORMER "Вася-Василек"
INDEX 01 00:00:00
FILE "14 - Ой, туманы - Ой, туманы.wav" WAVE
TRACK 14 AUDIO
TITLE "Ой, туманы"
PERFORMER "Ой, туманы"
INDEX 01 00:00:00
FILE "15 - На солнечной поляночке - На солнечной поляночке.wav" WAVE
TRACK 15 AUDIO
TITLE "На солнечной поляночке"
PERFORMER "На солнечной поляночке"
INDEX 01 00:00:00
FILE "16 - Два друга - Два друга.wav" WAVE
TRACK 16 AUDIO
TITLE "Два друга"
PERFORMER "Два друга"
INDEX 01 00:00:00
FILE "17 - На безымянной высоте - На безымянной высоте.wav" WAVE
TRACK 17 AUDIO
TITLE "На безымянной высоте"
PERFORMER "На безымянной высоте"
INDEX 01 00:00:00
FILE "18 - Дорога на Берлин - Дорога на Берлин.wav" WAVE
TRACK 18 AUDIO
TITLE "Дорога на Берлин"
PERFORMER "Дорога на Берлин"
INDEX 01 00:00:00
FILE "19 - Песня и марш из к - ф 'Белорусский вокзал' - Нам нужна одна победа.wav" WAVE
TRACK 19 AUDIO
TITLE "ф 'Белорусский вокзал' - Нам нужна одна победа"
PERFORMER "Песня и марш из к"
INDEX 01 00:00:00
FILE "20 - Сводка Совинформбюро 'О взятии Берлина' - Сводка Совинформбюро 'О взятии Берлина'.wav" WAVE
TRACK 20 AUDIO
TITLE "Сводка Совинформбюро 'О взятии Берлина'"
PERFORMER "Сводка Совинформбюро 'О взятии Берлина'"
INDEX 01 00:00:00
"Лог Audiochecker"
AUDIOCHECKER v2.0 beta (build 457) - by Dester - [email protected]
~~~~~~~~~~~~~~~~~~~~~~~~~~~~~~~~~~
-=== НЕ РЕДАКТИРУЙТЕ ЭТОТ ФАЙЛ! ===-
Путь: ...\CD1 - Священная война
01 -=- 01 - Священная война - Священная война.flac -=- CDDA (100%)
02 -=- 02 - Шумел сурово брянский лес - Шумел сурово брянский лес.flac -=- CDDA (100%)
03 -=- 03 - Катюша - Катюша.flac -=- CDDA (100%)
04 -=- 04 - В лесу прифронтовом - В лесу прифронтовом.flac -=- CDDA (86%)
05 -=- 05 - Прощайте, скалистые горы - Прощайте, скалистые горы.flac -=- CDDA (100%)
06 -=- 06 - Смуглянка - Смуглянка.flac -=- CDDA (99%)
07 -=- 07 - Три танкиста - Три танкиста.flac -=- CDDA (100%)
08 -=- 08 - Темная ночь - Темная ночь.flac -=- CDDA (87%)
09 -=- 09 - Синий платочек - Синий платочек.flac -=- CDDA (100%)
10 -=- 10 - В землянке - В землянке.flac -=- CDDA (100%)
11 -=- 11 - Вечер на рейде - Вечер на рейде.flac -=- CDDA (100%)
12 -=- 12 - Два Максима - Два Максима.flac -=- CDDA (100%)
13 -=- 13 - Вася-Василек - Вася-Василек.flac -=- CDDA (100%)
14 -=- 14 - Ой, туманы - Ой, туманы.flac -=- CDDA (100%)
15 -=- 15 - На солнечной поляночке - На солнечной поляночке.flac -=- CDDA (100%)
16 -=- 16 - Два друга - Два друга.flac -=- CDDA (100%)
17 -=- 17 - На безымянной высоте - На безымянной высоте.flac -=- CDDA (100%)
18 -=- 18 - Дорога на Берлин - Дорога на Берлин.flac -=- CDDA (100%)
19 -=- 19 - Песня и марш из к - ф 'Белорусский вокзал' - Нам нужна одна победа.flac -=- CDDA (100%)
20 -=- 20 - Сводка Совинформбюро 'О взятии Берлина' - Сводка Совинформбюро 'О взятии Берлина'.flac -=- CDDA (100%)
Сводка 98,60% CDDA
4515604
Трэклист
01 - Сводка Совинформбюро 'О полной и безоговорочной капитуляции' - Сводка Совинформбюро 'О полной и безоговорочной капитуляции'. (0:39)
02 - Сводка Совинформбюро 'Акт о военной капитуляции Германии' - Сводка Совинформбюро 'Акт о военной капитуляции Германии'. (5:08)
03 - Марш Преображенского полка, Петровской эпохи - Марш Преображенского полка, Петровской эпохи. (2:08)
04 - Баллада о солдате - Баллада о солдате. (6:11)
05 - Песенка фронтового шофера - Песенка фронтового шофера. (2:41)
06 - Моя любимая - Моя любимая. (2:41)
07 - Давай закурим - Давай закурим. (2:30)
08 - Соловьи - Соловьи. (5:54)
09 - Вернулся я на Родину - Вернулся я на Родину. (2:36)
10 - Эх, дороги... - Эх, дороги.... (2:57)
11 - Журавли - Журавли. (4:11)
12 - Где же вы теперь, друзья-однополчане - Где же вы теперь, друзья-однополчане. (3:05)
13 - День Победы - День Победы. (3:43)
14 - Прощание славянки - Прощание славянки. (2:35)
15 - Песня защитников Москвы - Песня защитников Москвы. (3:00)
16 - Песенка военных корреспондентов - Песенка военных корреспондентов. (3:10)
17 - Бомбардировщики - Бомбардировщики. (2:17)
18 - Давно мы дома не были - Давно мы дома не были. (2:36)
19 - Случайный вальс - Случайный вальс. (3:03)
20 - Фронтовики, наденьте ордена - Фронтовики, наденьте ордена. (2:10)
”Отчет ЕАС”
Отчёт EAC об извлечении, выполненном 6. февраля 2013, 15:29 для диска:
Various / Песни военного времени (CD2) - День Победы (РД)
Дисковод: _NEC DVD_RW ND-4550A Adapter: 0 ID: 1
Режим чтения: Достоверный (C2: нет, Точный поток: да, Отключение кэша: да)
Коррекция смещения при чтении: 48
Способность читать области Lead-in и Lead-out : Нет
Выходной формат: C:\Program Files\FLAC\flac.exe (Пользовательский кодировщик)
128 kBit/s
Дополнительные параметры: -8 -V -T "ARTIST=%a" -T "TITLE=%t" -T "ALBUM=%g" -T "DATE=%y" -T "TRACKNUMBER=%n" -T "GENRE=%m" -T "COMMENT=EAC FLAC -8" %s
Другие параметры:
Заполнение пропущенных сэмплов тишиной : Да
Удаление блоков с тишиной в начале и конце : Нет
Встроенный Win32-интерфейс для Win NT/2000
Трек 1
Имя файла C:\Sergei\новая папка\01 - Сводка Совинформбюро 'О полной и безоговорочной капитуляции' - Сводка Совинформбюро 'О полной и безоговорочной капитуляции'.wav
Длина предзазора 0:00:02.00
Пиковый уровень 100.0 %
Качество трека 100.0 %
CRC теста 759C04EC
CRC копии 759C04EC
Копирование... OK
Трек 2
Имя файла C:\Sergei\новая папка\02 - Сводка Совинформбюро 'Акт о военной капитуляции Германии' - Сводка Совинформбюро 'Акт о военной капитуляции Германии'.wav
Пиковый уровень 88.2 %
Качество трека 100.0 %
CRC теста E1EE7EEB
CRC копии E1EE7EEB
Копирование... OK
Трек 3
Имя файла C:\Sergei\новая папка\03 - Марш Преображенского полка, Петровской эпохи - Марш Преображенского полка, Петровской эпохи.wav
Пиковый уровень 97.7 %
Качество трека 100.0 %
CRC теста 55DEDF2D
CRC копии 55DEDF2D
Копирование... OK
Трек 4
Имя файла C:\Sergei\новая папка\04 - Баллада о солдате - Баллада о солдате.wav
Пиковый уровень 98.8 %
Качество трека 100.0 %
CRC теста D460C800
CRC копии D460C800
Копирование... OK
Трек 5
Имя файла C:\Sergei\новая папка\05 - Песенка фронтового шофера - Песенка фронтового шофера.wav
Пиковый уровень 88.7 %
Качество трека 99.9 %
CRC теста BD263279
CRC копии BD263279
Копирование... OK
Трек 6
Имя файла C:\Sergei\новая папка\06 - Моя любимая - Моя любимая.wav
Пиковый уровень 93.1 %
Качество трека 99.9 %
CRC теста 5064BC08
CRC копии 5064BC08
Копирование... OK
Трек 7
Имя файла C:\Sergei\новая папка\07 - Давай закурим - Давай закурим.wav
Пиковый уровень 76.5 %
Качество трека 100.0 %
CRC теста 93F7CD72
CRC копии 93F7CD72
Копирование... OK
Трек 8
Имя файла C:\Sergei\новая папка\08 - Соловьи - Соловьи.wav
Пиковый уровень 79.4 %
Качество трека 99.9 %
CRC теста 03DD3DCE
CRC копии 03DD3DCE
Копирование... OK
Трек 9
Имя файла C:\Sergei\новая папка\09 - Вернулся я на Родину - Вернулся я на Родину.wav
Пиковый уровень 75.0 %
Качество трека 100.0 %
CRC теста 93B45E26
CRC копии 93B45E26
Копирование... OK
Трек 10
Имя файла C:\Sergei\новая папка\10 - Эх, дороги... - Эх, дороги....wav
Пиковый уровень 64.7 %
Качество трека 100.0 %
CRC теста 23B6B864
CRC копии 23B6B864
Копирование... OK
Трек 11
Имя файла C:\Sergei\новая папка\11 - Журавли - Журавли.wav
Пиковый уровень 65.8 %
Качество трека 99.9 %
CRC теста EB604536
CRC копии EB604536
Копирование... OK
Трек 12
Имя файла C:\Sergei\новая папка\12 - Где же вы теперь, друзья-однополчане - Где же вы теперь, друзья-однополчане.wav
Пиковый уровень 90.7 %
Качество трека 100.0 %
CRC теста 92E7A1C6
CRC копии 92E7A1C6
Копирование... OK
Трек 13
Имя файла C:\Sergei\новая папка\13 - День Победы - День Победы.wav
Пиковый уровень 70.6 %
Качество трека 100.0 %
CRC теста B33EAA3C
CRC копии B33EAA3C
Копирование... OK
Трек 14
Имя файла C:\Sergei\новая папка\14 - Прощание славянки - Прощание славянки.wav
Пиковый уровень 96.0 %
Качество трека 99.9 %
CRC теста 9633D36E
CRC копии 9633D36E
Копирование... OK
Трек 15
Имя файла C:\Sergei\новая папка\15 - Песня защитников Москвы - Песня защитников Москвы.wav
Пиковый уровень 96.4 %
Качество трека 100.0 %
CRC теста 880B1DA6
CRC копии 880B1DA6
Копирование... OK
Трек 16
Имя файла C:\Sergei\новая папка\16 - Песенка военных корреспондентов - Песенка военных корреспондентов.wav
Пиковый уровень 91.1 %
Качество трека 100.0 %
CRC теста 18D2D154
CRC копии 18D2D154
Копирование... OK
Трек 17
Имя файла C:\Sergei\новая папка\17 - Бомбардировщики - Бомбардировщики.wav
Пиковый уровень 86.3 %
Качество трека 100.0 %
CRC теста 109AAF35
CRC копии 109AAF35
Копирование... OK
Трек 18
Имя файла C:\Sergei\новая папка\18 - Давно мы дома не были - Давно мы дома не были.wav
Пиковый уровень 96.3 %
Качество трека 99.9 %
CRC теста 389BC74C
CRC копии 389BC74C
Копирование... OK
Трек 19
Имя файла C:\Sergei\новая папка\19 - Случайный вальс - Случайный вальс.wav
Пиковый уровень 56.6 %
Качество трека 100.0 %
CRC теста 21D55073
CRC копии 21D55073
Копирование... OK
Трек 20
Имя файла C:\Sergei\новая папка\20 - Фронтовики, наденьте ордена - Фронтовики, наденьте ордена.wav
Пиковый уровень 88.0 %
Качество трека 99.9 %
CRC теста 69B7ABA8
CRC копии 69B7ABA8
Копирование... OK
Ошибок не произошло
Конец отчёта
"Non-compilant CUE"
REM GENRE Instrumental
REM DATE 2011
REM DISCID 050EDC14
REM COMMENT "ExactAudioCopy v0.95b3"
PERFORMER "Various"
TITLE "Песни военного времени (CD2) - День Победы (РД)"
FILE "01 - Сводка Совинформбюро 'О полной и безоговорочной капитуляции' - Сводка Совинформбюро 'О полной и безоговорочной капитуляции'.wav" WAVE
TRACK 01 AUDIO
TITLE "Сводка Совинформбюро 'О полной и безоговорочной капитуляции'"
PERFORMER "Сводка Совинформбюро 'О полной и безоговорочной капитуляции'"
INDEX 01 00:00:00
FILE "02 - Сводка Совинформбюро 'Акт о военной капитуляции Германии' - Сводка Совинформбюро 'Акт о военной капитуляции Германии'.wav" WAVE
TRACK 02 AUDIO
TITLE "Сводка Совинформбюро 'Акт о военной капитуляции Германии'"
PERFORMER "Сводка Совинформбюро 'Акт о военной капитуляции Германии'"
INDEX 01 00:00:00
FILE "03 - Марш Преображенского полка, Петровской эпохи - Марш Преображенского полка, Петровской эпохи.wav" WAVE
TRACK 03 AUDIO
TITLE "Марш Преображенского полка, Петровской эпохи"
PERFORMER "Марш Преображенского полка, Петровской эпохи"
INDEX 01 00:00:00
FILE "04 - Баллада о солдате - Баллада о солдате.wav" WAVE
TRACK 04 AUDIO
TITLE "Баллада о солдате"
PERFORMER "Баллада о солдате"
INDEX 01 00:00:00
FILE "05 - Песенка фронтового шофера - Песенка фронтового шофера.wav" WAVE
TRACK 05 AUDIO
TITLE "Песенка фронтового шофера"
PERFORMER "Песенка фронтового шофера"
INDEX 01 00:00:00
FILE "06 - Моя любимая - Моя любимая.wav" WAVE
TRACK 06 AUDIO
TITLE "Моя любимая"
PERFORMER "Моя любимая"
INDEX 01 00:00:00
FILE "07 - Давай закурим - Давай закурим.wav" WAVE
TRACK 07 AUDIO
TITLE "Давай закурим"
PERFORMER "Давай закурим"
INDEX 01 00:00:00
FILE "08 - Соловьи - Соловьи.wav" WAVE
TRACK 08 AUDIO
TITLE "Соловьи"
PERFORMER "Соловьи"
INDEX 01 00:00:00
FILE "09 - Вернулся я на Родину - Вернулся я на Родину.wav" WAVE
TRACK 09 AUDIO
TITLE "Вернулся я на Родину"
PERFORMER "Вернулся я на Родину"
INDEX 01 00:00:00
FILE "10 - Эх, дороги... - Эх, дороги....wav" WAVE
TRACK 10 AUDIO
TITLE "Эх, дороги..."
PERFORMER "Эх, дороги..."
INDEX 01 00:00:00
FILE "11 - Журавли - Журавли.wav" WAVE
TRACK 11 AUDIO
TITLE "Журавли"
PERFORMER "Журавли"
INDEX 01 00:00:00
FILE "12 - Где же вы теперь, друзья-однополчане - Где же вы теперь, друзья-однополчане.wav" WAVE
TRACK 12 AUDIO
TITLE "Где же вы теперь, друзья-однополчане"
PERFORMER "Где же вы теперь, друзья-однополчане"
INDEX 01 00:00:00
FILE "13 - День Победы - День Победы.wav" WAVE
TRACK 13 AUDIO
TITLE "День Победы"
PERFORMER "День Победы"
INDEX 01 00:00:00
FILE "14 - Прощание славянки - Прощание славянки.wav" WAVE
TRACK 14 AUDIO
TITLE "Прощание славянки"
PERFORMER "Прощание славянки"
INDEX 01 00:00:00
FILE "15 - Песня защитников Москвы - Песня защитников Москвы.wav" WAVE
TRACK 15 AUDIO
TITLE "Песня защитников Москвы"
PERFORMER "Песня защитников Москвы"
INDEX 01 00:00:00
FILE "16 - Песенка военных корреспондентов - Песенка военных корреспондентов.wav" WAVE
TRACK 16 AUDIO
TITLE "Песенка военных корреспондентов"
PERFORMER "Песенка военных корреспондентов"
INDEX 01 00:00:00
FILE "17 - Бомбардировщики - Бомбардировщики.wav" WAVE
TRACK 17 AUDIO
TITLE "Бомбардировщики"
PERFORMER "Бомбардировщики"
INDEX 01 00:00:00
FILE "18 - Давно мы дома не были - Давно мы дома не были.wav" WAVE
TRACK 18 AUDIO
TITLE "Давно мы дома не были"
PERFORMER "Давно мы дома не были"
INDEX 01 00:00:00
FILE "19 - Случайный вальс - Случайный вальс.wav" WAVE
TRACK 19 AUDIO
TITLE "Случайный вальс"
PERFORMER "Случайный вальс"
INDEX 01 00:00:00
FILE "20 - Фронтовики, наденьте ордена - Фронтовики, наденьте ордена.wav" WAVE
TRACK 20 AUDIO
TITLE "Фронтовики, наденьте ордена"
PERFORMER "Фронтовики, наденьте ордена"
INDEX 01 00:00:00
"Лог Audiochecker"
AUDIOCHECKER v2.0 beta (build 457) - by Dester - [email protected]
~~~~~~~~~~~~~~~~~~~~~~~~~~~~~~~~~~
-=== НЕ РЕДАКТИРУЙТЕ ЭТОТ ФАЙЛ! ===-
Путь: ...\CD2 - День Победы
01 -=- 01 - Сводка Совинформбюро 'О полной и безоговорочной капитуляции' - Сводка Совинформбюро 'О полной и безоговорочной капитуляции'.flac -=- CDDA (100%)
02 -=- 02 - Сводка Совинформбюро 'Акт о военной капитуляции Германии' - Сводка Совинформбюро 'Акт о военной капитуляции Германии'.flac -=- CDDA (99%)
03 -=- 03 - Марш Преображенского полка, Петровской эпохи - Марш Преображенского полка, Петровской эпохи.flac -=- CDDA (100%)
04 -=- 04 - Баллада о солдате - Баллада о солдате.flac -=- CDDA (99%)
05 -=- 05 - Песенка фронтового шофера - Песенка фронтового шофера.flac -=- CDDA (100%)
06 -=- 06 - Моя любимая - Моя любимая.flac -=- CDDA (86%)
07 -=- 07 - Давай закурим - Давай закурим.flac -=- CDDA (100%)
08 -=- 08 - Соловьи - Соловьи.flac -=- CDDA (99%)
09 -=- 09 - Вернулся я на Родину - Вернулся я на Родину.flac -=- CDDA (99%)
10 -=- 10 - Эх, дороги... - Эх, дороги....flac -=- CDDA (100%)
11 -=- 11 - Журавли - Журавли.flac -=- CDDA (86%)
12 -=- 12 - Где же вы теперь, друзья-однополчане - Где же вы теперь, друзья-однополчане.flac -=- MPEG (90%)
13 -=- 13 - День Победы - День Победы.flac -=- CDDA (100%)
14 -=- 14 - Прощание славянки - Прощание славянки.flac -=- CDDA (100%)
15 -=- 15 - Песня защитников Москвы - Песня защитников Москвы.flac -=- CDDA (99%)
16 -=- 16 - Песенка военных корреспондентов - Песенка военных корреспондентов.flac -=- CDDA (92%)
17 -=- 17 - Бомбардировщики - Бомбардировщики.flac -=- CDDA (100%)
18 -=- 18 - Давно мы дома не были - Давно мы дома не были.flac -=- CDDA (85%)
19 -=- 19 - Случайный вальс - Случайный вальс.flac -=- CDDA (100%)
20 -=- 20 - Фронтовики, наденьте ордена - Фронтовики, наденьте ордена.flac -=- CDDA (100%)
Сводка 92,70% CDDA
28419012
Трэклист
01 - Красная Армия всех сильней - Красная Армия всех сильней. (2:45)
02 - Солдатушки, бравы ребятушки - Солдатушки, бравы ребятушки. (2:42)
03 - Рота шла - Рота шла. (3:20)
04 - Перед дальней дорогой - Перед дальней дорогой. (3:39)
05 - По долинам и по взгорьям - По долинам и по взгорьям. (2:31)
06 - Солдат - всегда солдат - Солдат - всегда солдат. (2:45)
07 - Когда поют солдаты - Когда поют солдаты. (4:09)
08 - Хотят ли русские войны - Хотят ли русские войны. (3:52)
09 - Если завтра война - Если завтра война. (3:47)
10 - Бухенвальдский набат - Бухенвальдский набат. (3:48)
11 - Всегда ты хороша - Всегда ты хороша. (3:17)
12 - Далеко, далеко - Далеко, далеко. (4:19)
13 - Весна сорок пятого года - Весна сорок пятого года. (2:04)
14 - Вдоль да по речке - Вдоль да по речке. (3:09)
15 - Мужчины - Мужчины. (3:44)
16 - На полянке - На полянке. (2:21)
17 - Алеша - Алеша. (4:21)
18 - Последний бой - Последний бой. (3:36)
19 - У деревни Крюково - У деревни Крюково. (3:50)
20 - Мишка - одессит - Мишка - одессит. (4:45)
”Отчет ЕАС”
Отчёт EAC об извлечении, выполненном 6. февраля 2013, 16:23 для диска:
Various / Песни военного времени (CD3) - По долинам и по взгорьям (РД)
Дисковод: _NEC DVD_RW ND-4550A Adapter: 0 ID: 1
Режим чтения: Достоверный (C2: нет, Точный поток: да, Отключение кэша: да)
Коррекция смещения при чтении: 48
Способность читать области Lead-in и Lead-out : Нет
Выходной формат: C:\Program Files\FLAC\flac.exe (Пользовательский кодировщик)
128 kBit/s
Дополнительные параметры: -8 -V -T "ARTIST=%a" -T "TITLE=%t" -T "ALBUM=%g" -T "DATE=%y" -T "TRACKNUMBER=%n" -T "GENRE=%m" -T "COMMENT=EAC FLAC -8" %s
Другие параметры:
Заполнение пропущенных сэмплов тишиной : Да
Удаление блоков с тишиной в начале и конце : Нет
Встроенный Win32-интерфейс для Win NT/2000
Трек 1
Имя файла C:\Sergei\новая папка\01 - Красная Армия всех сильней - Красная Армия всех сильней.wav
Длина предзазора 0:00:02.00
Пиковый уровень 100.0 %
Качество трека 100.0 %
CRC теста 2E80A456
CRC копии 2E80A456
Копирование... OK
Трек 2
Имя файла C:\Sergei\новая папка\02 - Солдатушки, бравы ребятушки - Солдатушки, бравы ребятушки.wav
Длина предзазора 0:00:02.97
Пиковый уровень 79.8 %
Качество трека 100.0 %
CRC теста 16832EC5
CRC копии 16832EC5
Копирование... OK
Трек 3
Имя файла C:\Sergei\новая папка\03 - Рота шла - Рота шла.wav
Длина предзазора 0:00:02.85
Пиковый уровень 98.5 %
Качество трека 100.0 %
CRC теста A01613DE
CRC копии A01613DE
Копирование... OK
Трек 4
Имя файла C:\Sergei\новая папка\04 - Перед дальней дорогой - Перед дальней дорогой.wav
Длина предзазора 0:00:02.77
Пиковый уровень 100.0 %
Качество трека 100.0 %
CRC теста B67DF9B2
CRC копии B67DF9B2
Копирование... OK
Трек 5
Имя файла C:\Sergei\новая папка\05 - По долинам и по взгорьям - По долинам и по взгорьям.wav
Длина предзазора 0:00:02.64
Пиковый уровень 94.8 %
Качество трека 99.9 %
CRC теста 834FC8B0
CRC копии 834FC8B0
Копирование... OK
Трек 6
Имя файла C:\Sergei\новая папка\06 - Солдат - всегда солдат - Солдат - всегда солдат.wav
Длина предзазора 0:00:02.82
Пиковый уровень 90.4 %
Качество трека 100.0 %
CRC теста 21B25D7B
CRC копии 21B25D7B
Копирование... OK
Трек 7
Имя файла C:\Sergei\новая папка\07 - Когда поют солдаты - Когда поют солдаты.wav
Длина предзазора 0:00:02.54
Пиковый уровень 80.0 %
Качество трека 100.0 %
CRC теста AF039C25
CRC копии AF039C25
Копирование... OK
Трек 8
Имя файла C:\Sergei\новая папка\08 - Хотят ли русские войны - Хотят ли русские войны.wav
Длина предзазора 0:00:02.45
Пиковый уровень 99.0 %
Качество трека 100.0 %
CRC теста 42ABBD13
CRC копии 42ABBD13
Копирование... OK
Трек 9
Имя файла C:\Sergei\новая папка\09 - Если завтра война - Если завтра война.wav
Длина предзазора 0:00:02.25
Пиковый уровень 98.8 %
Качество трека 100.0 %
CRC теста A9C37AF1
CRC копии A9C37AF1
Копирование... OK
Трек 10
Имя файла C:\Sergei\новая папка\10 - Бухенвальдский набат - Бухенвальдский набат.wav
Длина предзазора 0:00:02.90
Пиковый уровень 95.7 %
Качество трека 100.0 %
CRC теста 6FC273B1
CRC копии 6FC273B1
Копирование... OK
Трек 11
Имя файла C:\Sergei\новая папка\11 - Всегда ты хороша - Всегда ты хороша.wav
Длина предзазора 0:00:02.56
Пиковый уровень 99.6 %
Качество трека 100.0 %
CRC теста D4C2A964
CRC копии D4C2A964
Копирование... OK
Трек 12
Имя файла C:\Sergei\новая папка\12 - Далеко, далеко - Далеко, далеко.wav
Длина предзазора 0:00:02.16
Пиковый уровень 77.0 %
Качество трека 100.0 %
CRC теста 7DAA2F7C
CRC копии 7DAA2F7C
Копирование... OK
Трек 13
Имя файла C:\Sergei\новая папка\13 - Весна сорок пятого года - Весна сорок пятого года.wav
Длина предзазора 0:00:02.21
Пиковый уровень 86.8 %
Качество трека 100.0 %
CRC теста 3CE06F32
CRC копии 3CE06F32
Копирование... OK
Трек 14
Имя файла C:\Sergei\новая папка\14 - Вдоль да по речке - Вдоль да по речке.wav
Длина предзазора 0:00:02.54
Пиковый уровень 100.0 %
Качество трека 99.9 %
CRC теста E892B4D3
CRC копии E892B4D3
Копирование... OK
Трек 15
Имя файла C:\Sergei\новая папка\15 - Мужчины - Мужчины.wav
Длина предзазора 0:00:02.28
Пиковый уровень 85.1 %
Качество трека 100.0 %
CRC теста 4F6D3AD7
CRC копии 4F6D3AD7
Копирование... OK
Трек 16
Имя файла C:\Sergei\новая папка\16 - На полянке - На полянке.wav
Длина предзазора 0:00:03.50
Пиковый уровень 70.9 %
Качество трека 100.0 %
CRC теста ED75043B
CRC копии ED75043B
Копирование... OK
Трек 17
Имя файла C:\Sergei\новая папка\17 - Алеша - Алеша.wav
Длина предзазора 0:00:02.94
Пиковый уровень 74.9 %
Качество трека 100.0 %
CRC теста 66AF8C4B
CRC копии 66AF8C4B
Копирование... OK
Трек 18
Имя файла C:\Sergei\новая папка\18 - Последний бой - Последний бой.wav
Длина предзазора 0:00:02.26
Пиковый уровень 90.5 %
Качество трека 100.0 %
CRC теста A0521595
CRC копии A0521595
Копирование... OK
Трек 19
Имя файла C:\Sergei\новая папка\19 - У деревни Крюково - У деревни Крюково.wav
Длина предзазора 0:00:02.34
Пиковый уровень 87.1 %
Качество трека 100.0 %
CRC теста D99AE92D
CRC копии D99AE92D
Копирование... OK
Трек 20
Имя файла C:\Sergei\новая папка\20 - Мишка - одессит - Мишка - одессит.wav
Длина предзазора 0:00:02.45
Пиковый уровень 81.3 %
Качество трека 100.0 %
CRC теста 6538CBD0
CRC копии 6538CBD0
Копирование... OK
Ошибок не произошло
Конец отчёта
"Non-compilant CUE"
REM GENRE Instrumental
REM DATE 2011
REM DISCID 15102414
REM COMMENT "ExactAudioCopy v0.95b3"
PERFORMER "Various"
TITLE "Песни военного времени (CD3) - По долинам и по взгорьям (РД)"
FILE "01 - Красная Армия всех сильней - Красная Армия всех сильней.wav" WAVE
TRACK 01 AUDIO
TITLE "Красная Армия всех сильней"
PERFORMER "Красная Армия всех сильней"
INDEX 01 00:00:00
TRACK 02 AUDIO
TITLE "Солдатушки, бравы ребятушки"
PERFORMER "Солдатушки, бравы ребятушки"
INDEX 00 02:42:49
FILE "02 - Солдатушки, бравы ребятушки - Солдатушки, бравы ребятушки.wav" WAVE
INDEX 01 00:00:00
TRACK 03 AUDIO
TITLE "Рота шла"
PERFORMER "Рота шла"
INDEX 00 02:39:54
FILE "03 - Рота шла - Рота шла.wav" WAVE
INDEX 01 00:00:00
TRACK 04 AUDIO
TITLE "Перед дальней дорогой"
PERFORMER "Перед дальней дорогой"
INDEX 00 03:17:21
FILE "04 - Перед дальней дорогой - Перед дальней дорогой.wav" WAVE
INDEX 01 00:00:00
TRACK 05 AUDIO
TITLE "По долинам и по взгорьям"
PERFORMER "По долинам и по взгорьям"
INDEX 00 03:36:54
FILE "05 - По долинам и по взгорьям - По долинам и по взгорьям.wav" WAVE
INDEX 01 00:00:00
TRACK 06 AUDIO
TITLE "Солдат - всегда солдат"
PERFORMER "Солдат - всегда солдат"
INDEX 00 02:28:42
FILE "06 - Солдат - всегда солдат - Солдат - всегда солдат.wav" WAVE
INDEX 01 00:00:00
TRACK 07 AUDIO
TITLE "Когда поют солдаты"
PERFORMER "Когда поют солдаты"
INDEX 00 02:42:67
FILE "07 - Когда поют солдаты - Когда поют солдаты.wav" WAVE
INDEX 01 00:00:00
TRACK 08 AUDIO
TITLE "Хотят ли русские войны"
PERFORMER "Хотят ли русские войны"
INDEX 00 04:07:01
FILE "08 - Хотят ли русские войны - Хотят ли русские войны.wav" WAVE
INDEX 01 00:00:00
TRACK 09 AUDIO
TITLE "Если завтра война"
PERFORMER "Если завтра война"
INDEX 00 03:50:31
FILE "09 - Если завтра война - Если завтра война.wav" WAVE
INDEX 01 00:00:00
TRACK 10 AUDIO
TITLE "Бухенвальдский набат"
PERFORMER "Бухенвальдский набат"
INDEX 00 03:44:08
FILE "10 - Бухенвальдский набат - Бухенвальдский набат.wav" WAVE
INDEX 01 00:00:00
TRACK 11 AUDIO
TITLE "Всегда ты хороша"
PERFORMER "Всегда ты хороша"
INDEX 00 03:45:58
FILE "11 - Всегда ты хороша - Всегда ты хороша.wav" WAVE
INDEX 01 00:00:00
TRACK 12 AUDIO
TITLE "Далеко, далеко"
PERFORMER "Далеко, далеко"
INDEX 00 03:15:33
FILE "12 - Далеко, далеко - Далеко, далеко.wav" WAVE
INDEX 01 00:00:00
TRACK 13 AUDIO
TITLE "Весна сорок пятого года"
PERFORMER "Весна сорок пятого года"
INDEX 00 04:17:28
FILE "13 - Весна сорок пятого года - Весна сорок пятого года.wav" WAVE
INDEX 01 00:00:00
TRACK 14 AUDIO
TITLE "Вдоль да по речке"
PERFORMER "Вдоль да по речке"
INDEX 00 02:01:61
FILE "14 - Вдоль да по речке - Вдоль да по речке.wav" WAVE
INDEX 01 00:00:00
TRACK 15 AUDIO
TITLE "Мужчины"
PERFORMER "Мужчины"
INDEX 00 03:07:48
FILE "15 - Мужчины - Мужчины.wav" WAVE
INDEX 01 00:00:00
TRACK 16 AUDIO
TITLE "На полянке"
PERFORMER "На полянке"
INDEX 00 03:41:01
FILE "16 - На полянке - На полянке.wav" WAVE
INDEX 01 00:00:00
TRACK 17 AUDIO
TITLE "Алеша"
PERFORMER "Алеша"
INDEX 00 02:18:31
FILE "17 - Алеша - Алеша.wav" WAVE
INDEX 01 00:00:00
TRACK 18 AUDIO
TITLE "Последний бой"
PERFORMER "Последний бой"
INDEX 00 04:19:39
FILE "18 - Последний бой - Последний бой.wav" WAVE
INDEX 01 00:00:00
TRACK 19 AUDIO
TITLE "У деревни Крюково"
PERFORMER "У деревни Крюково"
INDEX 00 03:33:50
FILE "19 - У деревни Крюково - У деревни Крюково.wav" WAVE
INDEX 01 00:00:00
TRACK 20 AUDIO
TITLE "Мишка - одессит"
PERFORMER "Мишка - одессит"
INDEX 00 03:47:53
FILE "20 - Мишка - одессит - Мишка - одессит.wav" WAVE
INDEX 01 00:00:00
"Лог Audiochecker"
AUDIOCHECKER v2.0 beta (build 457) - by Dester - [email protected]
~~~~~~~~~~~~~~~~~~~~~~~~~~~~~~~~~~
-=== НЕ РЕДАКТИРУЙТЕ ЭТОТ ФАЙЛ! ===-
Путь: ...\CD3 - По долинам и по взгорьям
01 -=- 01 - Красная Армия всех сильней - Красная Армия всех сильней.flac -=- CDDA (100%)
02 -=- 02 - Солдатушки, бравы ребятушки - Солдатушки, бравы ребятушки.flac -=- CDDA (100%)
03 -=- 03 - Рота шла - Рота шла.flac -=- CDDA (58%)
04 -=- 04 - Перед дальней дорогой - Перед дальней дорогой.flac -=- CDDA (100%)
05 -=- 05 - По долинам и по взгорьям - По долинам и по взгорьям.flac -=- CDDA (100%)
06 -=- 06 - Солдат - всегда солдат - Солдат - всегда солдат.flac -=- CDDA (100%)
07 -=- 07 - Когда поют солдаты - Когда поют солдаты.flac -=- CDDA (100%)
08 -=- 08 - Хотят ли русские войны - Хотят ли русские войны.flac -=- CDDA (100%)
09 -=- 09 - Если завтра война - Если завтра война.flac -=- CDDA (100%)
10 -=- 10 - Бухенвальдский набат - Бухенвальдский набат.flac -=- CDDA (100%)
11 -=- 11 - Всегда ты хороша - Всегда ты хороша.flac -=- CDDA (100%)
12 -=- 12 - Далеко, далеко - Далеко, далеко.flac -=- CDDA (100%)
13 -=- 13 - Весна сорок пятого года - Весна сорок пятого года.flac -=- CDDA (100%)
14 -=- 14 - Вдоль да по речке - Вдоль да по речке.flac -=- CDDA (100%)
15 -=- 15 - Мужчины - Мужчины.flac -=- CDDA (99%)
16 -=- 16 - На полянке - На полянке.flac -=- CDDA (100%)
17 -=- 17 - Алеша - Алеша.flac -=- CDDA (92%)
18 -=- 18 - Последний бой - Последний бой.flac -=- CDDA (100%)
19 -=- 19 - У деревни Крюково - У деревни Крюково.flac -=- CDDA (100%)
20 -=- 20 - Мишка - одессит - Мишка - одессит.flac -=- ERROR
Сводка 97,32% CDDA
219849396
Мы помогаем людям, чтобы они, в свою очередь, помогли нам; таким образом, наши услуги сводятся просто к благодеяниям, которые мы загодя оказываем самим себе. (Франсуа де Ларошфуко)
Download / Скачать

Хотите скачать бесплатно? Зарегистрируйтесь на сайте (ссылка на регистрацию). Pirat.ca - самый быстрый торрент трекер в рунете!

Как скачивать  ·   Что такое торрент  ·   Рейтинг и ограничения

AnTonyO

Корсар

1075

Пост 08-Фев-2013 21:22 (спустя 1 день 21 час)

[Q] 

Я думаю многие скажут за это СПАСИБО. Держи золото az

_________________
[Профиль]  [ЛС] 
Показать сообщения:    
Ответить на тему

Текущее время: Сегодня 01:04

Часовой пояс: GMT + 4



Вы не можете начинать темы
Вы не можете отвечать на сообщения
Вы не можете редактировать свои сообщения
Вы не можете удалять свои сообщения
Вы не можете голосовать в опросах
Вы не можете прикреплять файлы к сообщениям
Вы не можете скачивать файлы

▼ Вниз