Уважаемый Гость!
Вы можете поддержать проект и зарегистрироваться у наших партнеров - онлайн-стратегия MyLands. При регистрации в игре Вы получите код, который сможете активировать после регистрации на pirat.ca и получить 1000 дублонов.

Ваш код:
6ff808fb37110882284a2a3a6717a61a772fc4f3
 
     

(Instrumental) VA – Наша любимая музыка (РД) - 2012 (3 CD) [FLAC, tracks+cue, lossless]

Ответить на тему
 
Автор
Сообщение

Пост 07-Фев-2013 23:57

[Q] 

CHARLI2236

VA – Наша любимая музыка (РД) - 2012 (3CD)
Год выпуска альбома: 2012
Страна: Россия
Жанр: Instrumental
Лейбл издания: Ридерз Дайджест
Продолжительность: 2:31:42
Формат: FLAC
Битрейт аудио: lossless
Тип рипа: tracks+.cue
Источник (релизер): диск CDDA
Наличие сканов в содержимом раздачи: да
Трэклист
01 - Конец императора тайги - Конец императора тайги. (1:45)
02 - Вперед, гардемарины - Вперед, гардемарины. (2:26)
03 - Приказано взять живым - Приказано взять живым. (1:47)
04 - Зависть богов - Зависть богов. (4:33)
05 - Джентльмены удачи - Джентльмены удачи. (1:17)
06 - Иван Васильевич меняет профессию - Иван Васильевич меняет профессию. (1:40)
07 - Бриллиантовая рука - Бриллиантовая рука. (2:21)
08 - Москва слезам не верит - Москва слезам не верит. (3:06)
09 - Обыкновенное чудо - Обыкновенное чудо. (1:29)
10 - Ирония судьбы - Ирония судьбы. (1:11)
11 - С любимыми не расставайтесь - С любимыми не расставайтесь. (1:30)
12 - Свой среди чужих, чужой среди своих - Свой среди чужих, чужой среди своих. (3:07)
13 - Семнадцать мгновений весны - Семнадцать мгновений весны. (3:23)
14 - Формула любви - Формула любви. (2:55)
”Отчет ЕАС”
Отчёт EAC об извлечении, выполненном 6. февраля 2013, 17:12 для диска:
Various / Наша любимая музыка (CD1) - Мелодии отечественного кино (РД)
Дисковод: _NEC DVD_RW ND-4550A Adapter: 0 ID: 1
Режим чтения: Достоверный (C2: нет, Точный поток: да, Отключение кэша: да)
Коррекция смещения при чтении: 48
Способность читать области Lead-in и Lead-out : Нет
Выходной формат: C:\Program Files\FLAC\flac.exe (Пользовательский кодировщик)
128 kBit/s
Дополнительные параметры: -8 -V -T "ARTIST=%a" -T "TITLE=%t" -T "ALBUM=%g" -T "DATE=%y" -T "TRACKNUMBER=%n" -T "GENRE=%m" -T "COMMENT=EAC FLAC -8" %s
Другие параметры:
Заполнение пропущенных сэмплов тишиной : Да
Удаление блоков с тишиной в начале и конце : Нет
Встроенный Win32-интерфейс для Win NT/2000
Трек 1
Имя файла C:\Sergei\новая папка\01 - Конец императора тайги - Конец императора тайги.wav
Длина предзазора 0:00:02.00
Пиковый уровень 98.8 %
Качество трека 100.0 %
CRC теста EF61D389
CRC копии EF61D389
Копирование... OK
Трек 2
Имя файла C:\Sergei\новая папка\02 - Вперед, гардемарины - Вперед, гардемарины.wav
Пиковый уровень 98.8 %
Качество трека 99.9 %
CRC теста 24E28BAA
CRC копии 24E28BAA
Копирование... OK
Трек 3
Имя файла C:\Sergei\новая папка\03 - Приказано взять живым - Приказано взять живым.wav
Пиковый уровень 93.0 %
Качество трека 100.0 %
CRC теста 75250892
CRC копии 75250892
Копирование... OK
Трек 4
Имя файла C:\Sergei\новая папка\04 - Зависть богов - Зависть богов.wav
Пиковый уровень 98.8 %
Качество трека 100.0 %
CRC теста 8E806AC9
CRC копии 8E806AC9
Копирование... OK
Трек 5
Имя файла C:\Sergei\новая папка\05 - Джентльмены удачи - Джентльмены удачи.wav
Пиковый уровень 98.8 %
Качество трека 100.0 %
CRC теста 9738D95F
CRC копии 9738D95F
Копирование... OK
Трек 6
Имя файла C:\Sergei\новая папка\06 - Иван Васильевич меняет профессию - Иван Васильевич меняет профессию.wav
Пиковый уровень 98.8 %
Качество трека 100.0 %
CRC теста A1954A3E
CRC копии A1954A3E
Копирование... OK
Трек 7
Имя файла C:\Sergei\новая папка\07 - Бриллиантовая рука - Бриллиантовая рука.wav
Пиковый уровень 98.8 %
Качество трека 100.0 %
CRC теста A1B30708
CRC копии A1B30708
Копирование... OK
Трек 8
Имя файла C:\Sergei\новая папка\08 - Москва слезам не верит - Москва слезам не верит.wav
Пиковый уровень 98.8 %
Качество трека 100.0 %
CRC теста E4C1F5A9
CRC копии E4C1F5A9
Копирование... OK
Трек 9
Имя файла C:\Sergei\новая папка\09 - Обыкновенное чудо - Обыкновенное чудо.wav
Пиковый уровень 98.8 %
Качество трека 100.0 %
CRC теста 6F67B87A
CRC копии 6F67B87A
Копирование... OK
Трек 10
Имя файла C:\Sergei\новая папка\10 - Ирония судьбы - Ирония судьбы.wav
Пиковый уровень 98.8 %
Качество трека 100.0 %
CRC теста 43D3DBD8
CRC копии 43D3DBD8
Копирование... OK
Трек 11
Имя файла C:\Sergei\новая папка\11 - С любимыми не расставайтесь - С любимыми не расставайтесь.wav
Пиковый уровень 98.8 %
Качество трека 100.0 %
CRC теста 3A9FFD78
CRC копии 3A9FFD78
Копирование... OK
Трек 12
Имя файла C:\Sergei\новая папка\12 - Свой среди чужих, чужой среди своих - Свой среди чужих, чужой среди своих.wav
Пиковый уровень 98.8 %
Качество трека 99.9 %
CRC теста B99ACDD7
CRC копии B99ACDD7
Копирование... OK
Трек 13
Имя файла C:\Sergei\новая папка\13 - Семнадцать мгновений весны - Семнадцать мгновений весны.wav
Пиковый уровень 98.8 %
Качество трека 100.0 %
CRC теста 7F409CCD
CRC копии 7F409CCD
Копирование... OK
Трек 14
Имя файла C:\Sergei\новая папка\14 - Формула любви - Формула любви.wav
Пиковый уровень 98.8 %
Качество трека 100.0 %
CRC теста CA271956
CRC копии CA271956
Копирование... OK
Ошибок не произошло
Конец отчёта
"Non-compilant CUE"
REM GENRE Instrumental
REM DATE 2012
REM DISCID 9B07A40E
REM COMMENT "ExactAudioCopy v0.95b3"
PERFORMER "Various"
TITLE "Наша любимая музыка (CD1) - Мелодии отечественного кино (РД)"
FILE "01 - Конец императора тайги - Конец императора тайги.wav" WAVE
TRACK 01 AUDIO
TITLE "Конец императора тайги"
PERFORMER "Конец императора тайги"
FLAGS DCP
INDEX 01 00:00:00
FILE "02 - Вперед, гардемарины - Вперед, гардемарины.wav" WAVE
TRACK 02 AUDIO
TITLE "Вперед, гардемарины"
PERFORMER "Вперед, гардемарины"
FLAGS DCP
INDEX 01 00:00:00
FILE "03 - Приказано взять живым - Приказано взять живым.wav" WAVE
TRACK 03 AUDIO
TITLE "Приказано взять живым"
PERFORMER "Приказано взять живым"
FLAGS DCP
INDEX 01 00:00:00
FILE "04 - Зависть богов - Зависть богов.wav" WAVE
TRACK 04 AUDIO
TITLE "Зависть богов"
PERFORMER "Зависть богов"
FLAGS DCP
INDEX 01 00:00:00
FILE "05 - Джентльмены удачи - Джентльмены удачи.wav" WAVE
TRACK 05 AUDIO
TITLE "Джентльмены удачи"
PERFORMER "Джентльмены удачи"
FLAGS DCP
INDEX 01 00:00:00
FILE "06 - Иван Васильевич меняет профессию - Иван Васильевич меняет профессию.wav" WAVE
TRACK 06 AUDIO
TITLE "Иван Васильевич меняет профессию"
PERFORMER "Иван Васильевич меняет профессию"
FLAGS DCP
INDEX 01 00:00:00
FILE "07 - Бриллиантовая рука - Бриллиантовая рука.wav" WAVE
TRACK 07 AUDIO
TITLE "Бриллиантовая рука"
PERFORMER "Бриллиантовая рука"
FLAGS DCP
INDEX 01 00:00:00
FILE "08 - Москва слезам не верит - Москва слезам не верит.wav" WAVE
TRACK 08 AUDIO
TITLE "Москва слезам не верит"
PERFORMER "Москва слезам не верит"
FLAGS DCP
INDEX 01 00:00:00
FILE "09 - Обыкновенное чудо - Обыкновенное чудо.wav" WAVE
TRACK 09 AUDIO
TITLE "Обыкновенное чудо"
PERFORMER "Обыкновенное чудо"
FLAGS DCP
INDEX 01 00:00:00
FILE "10 - Ирония судьбы - Ирония судьбы.wav" WAVE
TRACK 10 AUDIO
TITLE "Ирония судьбы"
PERFORMER "Ирония судьбы"
FLAGS DCP
INDEX 01 00:00:00
FILE "11 - С любимыми не расставайтесь - С любимыми не расставайтесь.wav" WAVE
TRACK 11 AUDIO
TITLE "С любимыми не расставайтесь"
PERFORMER "С любимыми не расставайтесь"
FLAGS DCP
INDEX 01 00:00:00
FILE "12 - Свой среди чужих, чужой среди своих - Свой среди чужих, чужой среди своих.wav" WAVE
TRACK 12 AUDIO
TITLE "Свой среди чужих, чужой среди своих"
PERFORMER "Свой среди чужих, чужой среди своих"
FLAGS DCP
INDEX 01 00:00:00
FILE "13 - Семнадцать мгновений весны - Семнадцать мгновений весны.wav" WAVE
TRACK 13 AUDIO
TITLE "Семнадцать мгновений весны"
PERFORMER "Семнадцать мгновений весны"
FLAGS DCP
INDEX 01 00:00:00
FILE "14 - Формула любви - Формула любви.wav" WAVE
TRACK 14 AUDIO
TITLE "Формула любви"
PERFORMER "Формула любви"
FLAGS DCP
INDEX 01 00:00:00
"Лог Audiochecker"
AUDIOCHECKER v2.0 beta (build 457) - by Dester - [email protected]
~~~~~~~~~~~~~~~~~~~~~~~~~~~~~~~~~~
-=== НЕ РЕДАКТИРУЙТЕ ЭТОТ ФАЙЛ! ===-
Путь: ...\CD1 - Мелодии отечественного кино
01 -=- 01 - Конец императора тайги - Конец императора тайги.flac -=- CDDA (42%)
02 -=- 02 - Вперед, гардемарины - Вперед, гардемарины.flac -=- CDDA (100%)
03 -=- 03 - Приказано взять живым - Приказано взять живым.flac -=- CDDA (94%)
04 -=- 04 - Зависть богов - Зависть богов.flac -=- CDDA (100%)
05 -=- 05 - Джентльмены удачи - Джентльмены удачи.flac -=- CDDA (100%)
06 -=- 06 - Иван Васильевич меняет профессию - Иван Васильевич меняет профессию.flac -=- CDDA (43%)
07 -=- 07 - Бриллиантовая рука - Бриллиантовая рука.flac -=- CDDA (100%)
08 -=- 08 - Москва слезам не верит - Москва слезам не верит.flac -=- MPEG (100%)
09 -=- 09 - Обыкновенное чудо - Обыкновенное чудо.flac -=- CDDA (100%)
10 -=- 10 - Ирония судьбы - Ирония судьбы.flac -=- CDDA (100%)
11 -=- 11 - С любимыми не расставайтесь - С любимыми не расставайтесь.flac -=- CDDA (62%)
12 -=- 12 - Свой среди чужих, чужой среди своих - Свой среди чужих, чужой среди своих.flac -=- CDDA (100%)
13 -=- 13 - Семнадцать мгновений весны - Семнадцать мгновений весны.flac -=- CDDA (100%)
14 -=- 14 - Формула любви - Формула любви.flac -=- CDDA (100%)
Сводка 81,50% CDDA
95508212
Трэклист
01 - На заре ты ее не буди - На заре ты ее не буди. (2:26)
02 - Я ехала домой - Я ехала домой. (3:36)
03 - Не пой, красавица, при мне - Не пой, красавица, при мне. (2:37)
04 - Тройка - Тройка. (1:45)
05 - Вечерний звон - Вечерний звон. (4:00)
06 - Не искушай меня без нужды - Не искушай меня без нужды. (2:32)
07 - Средь шумного бала случайно - Средь шумного бала случайно. (1:51)
08 - Ямщик, не гони лошадей - Ямщик, не гони лошадей. (2:53)
09 - Ах, зачем эта ночь... - Ах, зачем эта ночь.... (1:36)
10 - Утро туманное - Утро туманное. (2:18)
11 - Темно-вишневая шаль - Темно-вишневая шаль. (1:35)
12 - Я вас любил - Я вас любил. (1:38)
13 - Капризная, упрямая - Капризная, упрямая. (2:04)
14 - Колокольчики мои - Колокольчики мои. (1:41)
15 - Что ты жадно глядишь на дорогу... - Что ты жадно глядишь на дорогу.... (2:50)
16 - Я встретил вас - Я встретил вас. (2:36)
17 - Выхожу один я на дорогу - Выхожу один я на дорогу. (2:24)
18 - Живет моя отрада - Живет моя отрада. (3:03)
19 - Только раз бывает в жизни встреча - Только раз бывает в жизни встреча. (3:01)
20 - Однозвучно гремит колокольчик - Однозвучно гремит колокольчик. (0:43)
”Отчет ЕАС”
Отчёт EAC об извлечении, выполненном 6. февраля 2013, 17:55 для диска:
Various / Наша любимая музыка (CD2) - Наши любимые романсы (РД)
Дисковод: _NEC DVD_RW ND-4550A Adapter: 0 ID: 1
Режим чтения: Достоверный (C2: нет, Точный поток: да, Отключение кэша: да)
Коррекция смещения при чтении: 48
Способность читать области Lead-in и Lead-out : Нет
Выходной формат: C:\Program Files\FLAC\flac.exe (Пользовательский кодировщик)
128 kBit/s
Дополнительные параметры: -8 -V -T "ARTIST=%a" -T "TITLE=%t" -T "ALBUM=%g" -T "DATE=%y" -T "TRACKNUMBER=%n" -T "GENRE=%m" -T "COMMENT=EAC FLAC -8" %s
Другие параметры:
Заполнение пропущенных сэмплов тишиной : Да
Удаление блоков с тишиной в начале и конце : Нет
Встроенный Win32-интерфейс для Win NT/2000
Трек 1
Имя файла C:\Sergei\новая папка\01 - На заре ты ее не буди - На заре ты ее не буди.wav
Длина предзазора 0:00:02.00
Пиковый уровень 98.1 %
Качество трека 100.0 %
CRC теста 293F675D
CRC копии 293F675D
Копирование... OK
Трек 2
Имя файла C:\Sergei\новая папка\02 - Я ехала домой - Я ехала домой.wav
Длина предзазора 0:00:02.00
Пиковый уровень 97.9 %
Качество трека 100.0 %
CRC теста 6ADA9BEF
CRC копии 6ADA9BEF
Копирование... OK
Трек 3
Имя файла C:\Sergei\новая папка\03 - Не пой, красавица, при мне - Не пой, красавица, при мне.wav
Длина предзазора 0:00:02.00
Пиковый уровень 96.6 %
Качество трека 100.0 %
CRC теста 84F2A073
CRC копии 84F2A073
Копирование... OK
Трек 4
Имя файла C:\Sergei\новая папка\04 - Тройка - Тройка.wav
Длина предзазора 0:00:02.00
Пиковый уровень 84.4 %
Качество трека 100.0 %
CRC теста 8A91BED7
CRC копии 8A91BED7
Копирование... OK
Трек 5
Имя файла C:\Sergei\новая папка\05 - Вечерний звон - Вечерний звон.wav
Длина предзазора 0:00:02.00
Пиковый уровень 97.8 %
Качество трека 100.0 %
CRC теста 1D8E1E55
CRC копии 1D8E1E55
Копирование... OK
Трек 6
Имя файла C:\Sergei\новая папка\06 - Не искушай меня без нужды - Не искушай меня без нужды.wav
Длина предзазора 0:00:02.00
Пиковый уровень 90.5 %
Качество трека 100.0 %
CRC теста D71B30FC
CRC копии D71B30FC
Копирование... OK
Трек 7
Имя файла C:\Sergei\новая папка\07 - Средь шумного бала случайно - Средь шумного бала случайно.wav
Длина предзазора 0:00:02.00
Пиковый уровень 97.9 %
Качество трека 100.0 %
CRC теста 73FDCF67
CRC копии 73FDCF67
Копирование... OK
Трек 8
Имя файла C:\Sergei\новая папка\08 - Ямщик, не гони лошадей - Ямщик, не гони лошадей.wav
Длина предзазора 0:00:02.00
Пиковый уровень 97.9 %
Качество трека 100.0 %
CRC теста 9737B382
CRC копии 9737B382
Копирование... OK
Трек 9
Имя файла C:\Sergei\новая папка\09 - Ах, зачем эта ночь... - Ах, зачем эта ночь....wav
Длина предзазора 0:00:02.00
Пиковый уровень 97.7 %
Качество трека 100.0 %
CRC теста 70213F4C
CRC копии 70213F4C
Копирование... OK
Трек 10
Имя файла C:\Sergei\новая папка\10 - Утро туманное - Утро туманное.wav
Длина предзазора 0:00:02.00
Пиковый уровень 97.9 %
Качество трека 100.0 %
CRC теста 1FF20AE2
CRC копии 1FF20AE2
Копирование... OK
Трек 11
Имя файла C:\Sergei\новая папка\11 - Темно-вишневая шаль - Темно-вишневая шаль.wav
Длина предзазора 0:00:02.00
Пиковый уровень 86.1 %
Качество трека 100.0 %
CRC теста 838F74C0
CRC копии 838F74C0
Копирование... OK
Трек 12
Имя файла C:\Sergei\новая папка\12 - Я вас любил - Я вас любил.wav
Длина предзазора 0:00:02.00
Пиковый уровень 83.0 %
Качество трека 99.8 %
CRC теста D2B705A1
CRC копии D2B705A1
Копирование... OK
Трек 13
Имя файла C:\Sergei\новая папка\13 - Капризная, упрямая - Капризная, упрямая.wav
Длина предзазора 0:00:02.00
Пиковый уровень 97.9 %
Качество трека 100.0 %
CRC теста 3630A613
CRC копии 3630A613
Копирование... OK
Трек 14
Имя файла C:\Sergei\новая папка\14 - Колокольчики мои - Колокольчики мои.wav
Длина предзазора 0:00:02.00
Пиковый уровень 88.9 %
Качество трека 100.0 %
CRC теста 6666B0AA
CRC копии 6666B0AA
Копирование... OK
Трек 15
Имя файла C:\Sergei\новая папка\15 - Что ты жадно глядишь на дорогу... - Что ты жадно глядишь на дорогу....wav
Длина предзазора 0:00:02.00
Пиковый уровень 87.8 %
Качество трека 100.0 %
CRC теста 54E66260
CRC копии 54E66260
Копирование... OK
Трек 16
Имя файла C:\Sergei\новая папка\16 - Я встретил вас - Я встретил вас.wav
Длина предзазора 0:00:02.00
Пиковый уровень 93.2 %
Качество трека 100.0 %
CRC теста 74C383C0
CRC копии 74C383C0
Копирование... OK
Трек 17
Имя файла C:\Sergei\новая папка\17 - Выхожу один я на дорогу - Выхожу один я на дорогу.wav
Длина предзазора 0:00:02.00
Пиковый уровень 98.0 %
Качество трека 100.0 %
CRC теста D84D40EB
CRC копии D84D40EB
Копирование... OK
Трек 18
Имя файла C:\Sergei\новая папка\18 - Живет моя отрада - Живет моя отрада.wav
Длина предзазора 0:00:02.00
Пиковый уровень 89.8 %
Качество трека 100.0 %
CRC теста 14014612
CRC копии 14014612
Копирование... OK
Трек 19
Имя файла C:\Sergei\новая папка\19 - Только раз бывает в жизни встреча - Только раз бывает в жизни встреча.wav
Длина предзазора 0:00:02.00
Пиковый уровень 97.9 %
Качество трека 100.0 %
CRC теста B6FFFC7A
CRC копии B6FFFC7A
Копирование... OK
Трек 20
Имя файла C:\Sergei\новая папка\20 - Однозвучно гремит колокольчик - Однозвучно гремит колокольчик.wav
Длина предзазора 0:00:02.00
Пиковый уровень 27.5 %
Качество трека 100.0 %
CRC теста AE5800CD
CRC копии AE5800CD
Копирование... OK
Ошибок не произошло
Конец отчёта
"Non-compilant CUE"
REM GENRE Instrumental
REM DATE 2012
REM DISCID 030B1714
REM COMMENT "ExactAudioCopy v0.95b3"
PERFORMER "Various"
TITLE "Наша любимая музыка (CD2) - Наши любимые романсы (РД)"
FILE "01 - На заре ты ее не буди - На заре ты ее не буди.wav" WAVE
TRACK 01 AUDIO
TITLE "На заре ты ее не буди"
PERFORMER "На заре ты ее не буди"
INDEX 01 00:00:00
TRACK 02 AUDIO
TITLE "Я ехала домой"
PERFORMER "Я ехала домой"
INDEX 00 02:24:05
FILE "02 - Я ехала домой - Я ехала домой.wav" WAVE
INDEX 01 00:00:00
TRACK 03 AUDIO
TITLE "Не пой, красавица, при мне"
PERFORMER "Не пой, красавица, при мне"
INDEX 00 03:34:51
FILE "03 - Не пой, красавица, при мне - Не пой, красавица, при мне.wav" WAVE
INDEX 01 00:00:00
TRACK 04 AUDIO
TITLE "Тройка"
PERFORMER "Тройка"
INDEX 00 02:35:39
FILE "04 - Тройка - Тройка.wav" WAVE
INDEX 01 00:00:00
TRACK 05 AUDIO
TITLE "Вечерний звон"
PERFORMER "Вечерний звон"
INDEX 00 01:43:61
FILE "05 - Вечерний звон - Вечерний звон.wav" WAVE
INDEX 01 00:00:00
TRACK 06 AUDIO
TITLE "Не искушай меня без нужды"
PERFORMER "Не искушай меня без нужды"
INDEX 00 03:58:15
FILE "06 - Не искушай меня без нужды - Не искушай меня без нужды.wav" WAVE
INDEX 01 00:00:00
TRACK 07 AUDIO
TITLE "Средь шумного бала случайно"
PERFORMER "Средь шумного бала случайно"
INDEX 00 02:30:36
FILE "07 - Средь шумного бала случайно - Средь шумного бала случайно.wav" WAVE
INDEX 01 00:00:00
TRACK 08 AUDIO
TITLE "Ямщик, не гони лошадей"
PERFORMER "Ямщик, не гони лошадей"
INDEX 00 01:49:52
FILE "08 - Ямщик, не гони лошадей - Ямщик, не гони лошадей.wav" WAVE
INDEX 01 00:00:00
TRACK 09 AUDIO
TITLE "Ах, зачем эта ночь..."
PERFORMER "Ах, зачем эта ночь..."
INDEX 00 02:51:22
FILE "09 - Ах, зачем эта ночь... - Ах, зачем эта ночь....wav" WAVE
INDEX 01 00:00:00
TRACK 10 AUDIO
TITLE "Утро туманное"
PERFORMER "Утро туманное"
INDEX 00 01:34:30
FILE "10 - Утро туманное - Утро туманное.wav" WAVE
INDEX 01 00:00:00
TRACK 11 AUDIO
TITLE "Темно-вишневая шаль"
PERFORMER "Темно-вишневая шаль"
INDEX 00 02:16:27
FILE "11 - Темно-вишневая шаль - Темно-вишневая шаль.wav" WAVE
INDEX 01 00:00:00
TRACK 12 AUDIO
TITLE "Я вас любил"
PERFORMER "Я вас любил"
INDEX 00 01:33:64
FILE "12 - Я вас любил - Я вас любил.wav" WAVE
INDEX 01 00:00:00
TRACK 13 AUDIO
TITLE "Капризная, упрямая"
PERFORMER "Капризная, упрямая"
INDEX 00 01:36:43
FILE "13 - Капризная, упрямая - Капризная, упрямая.wav" WAVE
INDEX 01 00:00:00
TRACK 14 AUDIO
TITLE "Колокольчики мои"
PERFORMER "Колокольчики мои"
INDEX 00 02:02:06
FILE "14 - Колокольчики мои - Колокольчики мои.wav" WAVE
INDEX 01 00:00:00
TRACK 15 AUDIO
TITLE "Что ты жадно глядишь на дорогу..."
PERFORMER "Что ты жадно глядишь на дорогу..."
INDEX 00 01:39:37
FILE "15 - Что ты жадно глядишь на дорогу... - Что ты жадно глядишь на дорогу....wav" WAVE
INDEX 01 00:00:00
TRACK 16 AUDIO
TITLE "Я встретил вас"
PERFORMER "Я встретил вас"
INDEX 00 02:48:69
FILE "16 - Я встретил вас - Я встретил вас.wav" WAVE
INDEX 01 00:00:00
TRACK 17 AUDIO
TITLE "Выхожу один я на дорогу"
PERFORMER "Выхожу один я на дорогу"
INDEX 00 02:34:19
FILE "17 - Выхожу один я на дорогу - Выхожу один я на дорогу.wav" WAVE
INDEX 01 00:00:00
TRACK 18 AUDIO
TITLE "Живет моя отрада"
PERFORMER "Живет моя отрада"
INDEX 00 02:22:69
FILE "18 - Живет моя отрада - Живет моя отрада.wav" WAVE
INDEX 01 00:00:00
TRACK 19 AUDIO
TITLE "Только раз бывает в жизни встреча"
PERFORMER "Только раз бывает в жизни встреча"
INDEX 00 03:01:66
FILE "19 - Только раз бывает в жизни встреча - Только раз бывает в жизни встреча.wav" WAVE
INDEX 01 00:00:00
TRACK 20 AUDIO
TITLE "Однозвучно гремит колокольчик"
PERFORMER "Однозвучно гремит колокольчик"
INDEX 00 02:59:19
FILE "20 - Однозвучно гремит колокольчик - Однозвучно гремит колокольчик.wav" WAVE
INDEX 01 00:00:00
"Лог Audiochecker"
AUDIOCHECKER v2.0 beta (build 457) - by Dester - [email protected]
~~~~~~~~~~~~~~~~~~~~~~~~~~~~~~~~~~
-=== НЕ РЕДАКТИРУЙТЕ ЭТОТ ФАЙЛ! ===-
Путь: ...\CD2 - Наши любимые романсы
01 -=- 01 - На заре ты ее не буди - На заре ты ее не буди.flac -=- CDDA (100%)
02 -=- 02 - Я ехала домой - Я ехала домой.flac -=- CDDA (99%)
03 -=- 03 - Не пой, красавица, при мне - Не пой, красавица, при мне.flac -=- CDDA (99%)
04 -=- 04 - Тройка - Тройка.flac -=- CDDA (100%)
05 -=- 05 - Вечерний звон - Вечерний звон.flac -=- CDDA (100%)
06 -=- 06 - Не искушай меня без нужды - Не искушай меня без нужды.flac -=- CDDA (100%)
07 -=- 07 - Средь шумного бала случайно - Средь шумного бала случайно.flac -=- CDDA (100%)
08 -=- 08 - Ямщик, не гони лошадей - Ямщик, не гони лошадей.flac -=- CDDA (100%)
09 -=- 09 - Ах, зачем эта ночь... - Ах, зачем эта ночь....flac -=- CDDA (100%)
10 -=- 10 - Утро туманное - Утро туманное.flac -=- CDDA (100%)
11 -=- 11 - Темно-вишневая шаль - Темно-вишневая шаль.flac -=- CDDA (100%)
12 -=- 12 - Я вас любил - Я вас любил.flac -=- CDDA (100%)
13 -=- 13 - Капризная, упрямая - Капризная, упрямая.flac -=- CDDA (100%)
14 -=- 14 - Колокольчики мои - Колокольчики мои.flac -=- CDDA (100%)
15 -=- 15 - Что ты жадно глядишь на дорогу... - Что ты жадно глядишь на дорогу....flac -=- CDDA (100%)
16 -=- 16 - Я встретил вас - Я встретил вас.flac -=- CDDA (85%)
17 -=- 17 - Выхожу один я на дорогу - Выхожу один я на дорогу.flac -=- CDDA (100%)
18 -=- 18 - Живет моя отрада - Живет моя отрада.flac -=- CDDA (100%)
19 -=- 19 - Только раз бывает в жизни встреча - Только раз бывает в жизни встреча.flac -=- CDDA (99%)
20 -=- 20 - Однозвучно гремит колокольчик - Однозвучно гремит колокольчик.flac -=- MPEG (89%)
Сводка 94,65% CDDA
31711732
Трэклист
01 - Калинка - Калинка. (3:13)
02 - Деревенская кадриль - Деревенская кадриль. (2:02)
03 - Подмосковные вечера - Подмосковные вечера. (3:44)
04 - Беловежская пуща - Беловежская пуща. (4:54)
05 - Березка - Березка. (4:23)
06 - Катюша - Катюша. (2:33)
07 - Боярский танец - Боярский танец. (2:28)
08 - Ухарь-купец - Ухарь-купец. (1:39)
09 - Эй, ухнем! - Эй, ухнем!. (3:21)
10 - Две гитары - Две гитары. (6:17)
11 - Эх, яблочко! - Танец моряков - Эх, яблочко! - Танец моряков. (4:10)
12 - Полянка - Полянка. (2:58)
13 - Как нам жить друг без друга - Как нам жить друг без друга. (4:16)
14 - Очи черные - Очи черные. (3:32)
15 - Валенки - Валенки. (2:17)
16 - На сопках Манчжурии - На сопках Манчжурии. (2:29)
17 - Казачья наездная - Казачья наездная. (3:34)
18 - Русский вальс - Русский вальс. (3:37)
19 - Светит месяц - Светит месяц. (3:05)
20 - Как молоды мы были - Как молоды мы были. (3:36)
21 - Дорогой длинною - Дорогой длинною. (3:27)
”Отчет ЕАС”
Отчёт EAC об извлечении, выполненном 6. февраля 2013, 21:50 для диска:
Various / Наша любимая музыка ( CD3) - Русская душа (РД)
Дисковод: _NEC DVD_RW ND-4550A Adapter: 0 ID: 1
Режим чтения: Достоверный (C2: нет, Точный поток: да, Отключение кэша: да)
Коррекция смещения при чтении: 48
Способность читать области Lead-in и Lead-out : Нет
Выходной формат: C:\Program Files\FLAC\flac.exe (Пользовательский кодировщик)
128 kBit/s
Дополнительные параметры: -8 -V -T "ARTIST=%a" -T "TITLE=%t" -T "ALBUM=%g" -T "DATE=%y" -T "TRACKNUMBER=%n" -T "GENRE=%m" -T "COMMENT=EAC FLAC -8" %s
Другие параметры:
Заполнение пропущенных сэмплов тишиной : Да
Удаление блоков с тишиной в начале и конце : Нет
Встроенный Win32-интерфейс для Win NT/2000
Трек 1
Имя файла C:\Sergei\новая папка\01 - Калинка - Калинка.wav
Длина предзазора 0:00:02.00
Пиковый уровень 92.4 %
Качество трека 99.9 %
CRC теста A4AA68DB
CRC копии A4AA68DB
Копирование... OK
Трек 2
Имя файла C:\Sergei\новая папка\02 - Деревенская кадриль - Деревенская кадриль.wav
Длина предзазора 0:00:02.00
Пиковый уровень 96.6 %
Качество трека 100.0 %
CRC теста 73C17E36
CRC копии 73C17E36
Копирование... OK
Трек 3
Имя файла C:\Sergei\новая папка\03 - Подмосковные вечера - Подмосковные вечера.wav
Длина предзазора 0:00:02.00
Пиковый уровень 96.6 %
Качество трека 100.0 %
CRC теста B773BE4A
CRC копии B773BE4A
Копирование... OK
Трек 4
Имя файла C:\Sergei\новая папка\04 - Беловежская пуща - Беловежская пуща.wav
Длина предзазора 0:00:02.00
Пиковый уровень 96.6 %
Качество трека 100.0 %
CRC теста 903E8517
CRC копии 903E8517
Копирование... OK
Трек 5
Имя файла C:\Sergei\новая папка\05 - Березка - Березка.wav
Длина предзазора 0:00:02.00
Пиковый уровень 96.0 %
Качество трека 99.9 %
CRC теста FFBE2079
CRC копии FFBE2079
Копирование... OK
Трек 6
Имя файла C:\Sergei\новая папка\06 - Катюша - Катюша.wav
Длина предзазора 0:00:02.00
Пиковый уровень 96.6 %
Качество трека 100.0 %
CRC теста C9B3D679
CRC копии C9B3D679
Копирование... OK
Трек 7
Имя файла C:\Sergei\новая папка\07 - Боярский танец - Боярский танец.wav
Длина предзазора 0:00:02.00
Пиковый уровень 96.6 %
Качество трека 100.0 %
CRC теста 5BD62D28
CRC копии 5BD62D28
Копирование... OK
Трек 8
Имя файла C:\Sergei\новая папка\08 - Ухарь-купец - Ухарь-купец.wav
Длина предзазора 0:00:02.00
Пиковый уровень 96.6 %
Качество трека 100.0 %
CRC теста 8550FC20
CRC копии 8550FC20
Копирование... OK
Трек 9
Имя файла C:\Sergei\новая папка\09 - Эй, ухнем! - Эй, ухнем!.wav
Длина предзазора 0:00:02.00
Пиковый уровень 96.6 %
Качество трека 100.0 %
CRC теста 030ACE19
CRC копии 030ACE19
Копирование... OK
Трек 10
Имя файла C:\Sergei\новая папка\10 - Две гитары - Две гитары.wav
Длина предзазора 0:00:02.00
Пиковый уровень 96.6 %
Качество трека 100.0 %
CRC теста C37FCB51
CRC копии C37FCB51
Копирование... OK
Трек 11
Имя файла C:\Sergei\новая папка\11 - Эх, яблочко! - Танец моряков - Эх, яблочко! - Танец моряков.wav
Длина предзазора 0:00:02.00
Пиковый уровень 96.6 %
Качество трека 100.0 %
CRC теста 8DCF2326
CRC копии 8DCF2326
Копирование... OK
Трек 12
Имя файла C:\Sergei\новая папка\12 - Полянка - Полянка.wav
Длина предзазора 0:00:02.00
Пиковый уровень 96.6 %
Качество трека 100.0 %
CRC теста 9C8E1B40
CRC копии 9C8E1B40
Копирование... OK
Трек 13
Имя файла C:\Sergei\новая папка\13 - Как нам жить друг без друга - Как нам жить друг без друга.wav
Длина предзазора 0:00:02.00
Пиковый уровень 96.6 %
Качество трека 100.0 %
CRC теста 9966761B
CRC копии 9966761B
Копирование... OK
Трек 14
Имя файла C:\Sergei\новая папка\14 - Очи черные - Очи черные.wav
Длина предзазора 0:00:02.00
Пиковый уровень 96.2 %
Качество трека 100.0 %
CRC теста 703940F5
CRC копии 703940F5
Копирование... OK
Трек 15
Имя файла C:\Sergei\новая папка\15 - Валенки - Валенки.wav
Длина предзазора 0:00:02.00
Пиковый уровень 96.6 %
Качество трека 100.0 %
CRC теста B743196A
CRC копии B743196A
Копирование... OK
Трек 16
Имя файла C:\Sergei\новая папка\16 - На сопках Манчжурии - На сопках Манчжурии.wav
Длина предзазора 0:00:02.00
Пиковый уровень 96.6 %
Качество трека 100.0 %
CRC теста 981C34C0
CRC копии 981C34C0
Копирование... OK
Трек 17
Имя файла C:\Sergei\новая папка\17 - Казачья наездная - Казачья наездная.wav
Длина предзазора 0:00:02.00
Пиковый уровень 96.2 %
Качество трека 100.0 %
CRC теста D0565F65
CRC копии D0565F65
Копирование... OK
Трек 18
Имя файла C:\Sergei\новая папка\18 - Русский вальс - Русский вальс.wav
Длина предзазора 0:00:02.00
Пиковый уровень 99.5 %
Качество трека 100.0 %
CRC теста 4D756F3E
CRC копии 4D756F3E
Копирование... OK
Трек 19
Имя файла C:\Sergei\новая папка\19 - Светит месяц - Светит месяц.wav
Длина предзазора 0:00:02.00
Пиковый уровень 96.6 %
Качество трека 100.0 %
CRC теста EFAE8C25
CRC копии EFAE8C25
Копирование... OK
Трек 20
Имя файла C:\Sergei\новая папка\20 - Как молоды мы были - Как молоды мы были.wav
Длина предзазора 0:00:02.00
Пиковый уровень 99.5 %
Качество трека 100.0 %
CRC теста 772B240A
CRC копии 772B240A
Копирование... OK
Трек 21
Имя файла C:\Sergei\новая папка\21 - Дорогой длинною - Дорогой длинною.wav
Длина предзазора 0:00:02.00
Пиковый уровень 95.4 %
Качество трека 93.9 %
CRC теста 650A1421
CRC копии 8EDD9553
Копирование завершено
Ошибок не произошло
Конец отчёта
"Non-compilant CUE"
REM GENRE Instrumental
REM DATE 2012
REM DISCID 1C10D315
REM COMMENT "ExactAudioCopy v0.95b3"
PERFORMER "Various"
TITLE "Наша любимая музыка ( CD3) - Русская душа (РД)"
FILE "01 - Калинка - Калинка.wav" WAVE
TRACK 01 AUDIO
TITLE "Калинка"
PERFORMER "Калинка"
INDEX 01 00:00:00
TRACK 02 AUDIO
TITLE "Деревенская кадриль"
PERFORMER "Деревенская кадриль"
INDEX 00 03:11:74
FILE "02 - Деревенская кадриль - Деревенская кадриль.wav" WAVE
INDEX 01 00:00:00
TRACK 03 AUDIO
TITLE "Подмосковные вечера"
PERFORMER "Подмосковные вечера"
INDEX 00 02:00:47
FILE "03 - Подмосковные вечера - Подмосковные вечера.wav" WAVE
INDEX 01 00:00:00
TRACK 04 AUDIO
TITLE "Беловежская пуща"
PERFORMER "Беловежская пуща"
INDEX 00 03:42:40
FILE "04 - Беловежская пуща - Беловежская пуща.wav" WAVE
INDEX 01 00:00:00
TRACK 05 AUDIO
TITLE "Березка"
PERFORMER "Березка"
INDEX 00 04:52:50
FILE "05 - Березка - Березка.wav" WAVE
INDEX 01 00:00:00
TRACK 06 AUDIO
TITLE "Катюша"
PERFORMER "Катюша"
INDEX 00 04:21:41
FILE "06 - Катюша - Катюша.wav" WAVE
INDEX 01 00:00:00
TRACK 07 AUDIO
TITLE "Боярский танец"
PERFORMER "Боярский танец"
INDEX 00 02:31:72
FILE "07 - Боярский танец - Боярский танец.wav" WAVE
INDEX 01 00:00:00
TRACK 08 AUDIO
TITLE "Ухарь-купец"
PERFORMER "Ухарь-купец"
INDEX 00 02:26:27
FILE "08 - Ухарь-купец - Ухарь-купец.wav" WAVE
INDEX 01 00:00:00
TRACK 09 AUDIO
TITLE "Эй, ухнем!"
PERFORMER "Эй, ухнем!"
INDEX 00 01:37:27
FILE "09 - Эй, ухнем! - Эй, ухнем!.wav" WAVE
INDEX 01 00:00:00
TRACK 10 AUDIO
TITLE "Две гитары"
PERFORMER "Две гитары"
INDEX 00 03:19:72
FILE "10 - Две гитары - Две гитары.wav" WAVE
INDEX 01 00:00:00
TRACK 11 AUDIO
TITLE "Эх, яблочко! - Танец моряков"
PERFORMER "Эх, яблочко! - Танец моряков"
INDEX 00 06:15:54
FILE "11 - Эх, яблочко! - Танец моряков - Эх, яблочко! - Танец моряков.wav" WAVE
INDEX 01 00:00:00
TRACK 12 AUDIO
TITLE "Полянка"
PERFORMER "Полянка"
INDEX 00 04:08:07
FILE "12 - Полянка - Полянка.wav" WAVE
INDEX 01 00:00:00
TRACK 13 AUDIO
TITLE "Как нам жить друг без друга"
PERFORMER "Как нам жить друг без друга"
INDEX 00 02:56:38
FILE "13 - Как нам жить друг без друга - Как нам жить друг без друга.wav" WAVE
INDEX 01 00:00:00
TRACK 14 AUDIO
TITLE "Очи черные"
PERFORMER "Очи черные"
INDEX 00 04:14:58
FILE "14 - Очи черные - Очи черные.wav" WAVE
INDEX 01 00:00:00
TRACK 15 AUDIO
TITLE "Валенки"
PERFORMER "Валенки"
INDEX 00 03:30:24
FILE "15 - Валенки - Валенки.wav" WAVE
INDEX 01 00:00:00
TRACK 16 AUDIO
TITLE "На сопках Манчжурии"
PERFORMER "На сопках Манчжурии"
INDEX 00 02:15:29
FILE "16 - На сопках Манчжурии - На сопках Манчжурии.wav" WAVE
INDEX 01 00:00:00
TRACK 17 AUDIO
TITLE "Казачья наездная"
PERFORMER "Казачья наездная"
INDEX 00 02:27:35
FILE "17 - Казачья наездная - Казачья наездная.wav" WAVE
INDEX 01 00:00:00
TRACK 18 AUDIO
TITLE "Русский вальс"
PERFORMER "Русский вальс"
INDEX 00 03:32:66
FILE "18 - Русский вальс - Русский вальс.wav" WAVE
INDEX 01 00:00:00
TRACK 19 AUDIO
TITLE "Светит месяц"
PERFORMER "Светит месяц"
INDEX 00 03:35:56
FILE "19 - Светит месяц - Светит месяц.wav" WAVE
INDEX 01 00:00:00
TRACK 20 AUDIO
TITLE "Как молоды мы были"
PERFORMER "Как молоды мы были"
INDEX 00 03:03:40
FILE "20 - Как молоды мы были - Как молоды мы были.wav" WAVE
INDEX 01 00:00:00
TRACK 21 AUDIO
TITLE "Дорогой длинною"
PERFORMER "Дорогой длинною"
INDEX 00 03:34:69
FILE "21 - Дорогой длинною - Дорогой длинною.wav" WAVE
INDEX 01 00:00:00
"Лог Audiochecker"
AUDIOCHECKER v2.0 beta (build 457) - by Dester - [email protected]
~~~~~~~~~~~~~~~~~~~~~~~~~~~~~~~~~~
-=== НЕ РЕДАКТИРУЙТЕ ЭТОТ ФАЙЛ! ===-
Путь: ...\CD3 - Русская душа
01 -=- 01 - Калинка - Калинка.flac -=- CDDA (100%)
02 -=- 02 - Деревенская кадриль - Деревенская кадриль.flac -=- CDDA (100%)
03 -=- 03 - Подмосковные вечера - Подмосковные вечера.flac -=- CDDA (100%)
04 -=- 04 - Беловежская пуща - Беловежская пуща.flac -=- CDDA (100%)
05 -=- 05 - Березка - Березка.flac -=- CDDA (100%)
06 -=- 06 - Катюша - Катюша.flac -=- CDDA (100%)
07 -=- 07 - Боярский танец - Боярский танец.flac -=- CDDA (100%)
08 -=- 08 - Ухарь-купец - Ухарь-купец.flac -=- CDDA (100%)
09 -=- 09 - Эй, ухнем! - Эй, ухнем!.flac -=- CDDA (100%)
10 -=- 10 - Две гитары - Две гитары.flac -=- CDDA (100%)
11 -=- 11 - Эх, яблочко! - Танец моряков - Эх, яблочко! - Танец моряков.flac -=- CDDA (100%)
12 -=- 12 - Полянка - Полянка.flac -=- CDDA (100%)
13 -=- 13 - Как нам жить друг без друга - Как нам жить друг без друга.flac -=- CDDA (54%)
14 -=- 14 - Очи черные - Очи черные.flac -=- CDDA (100%)
15 -=- 15 - Валенки - Валенки.flac -=- CDDA (100%)
16 -=- 16 - На сопках Манчжурии - На сопках Манчжурии.flac -=- CDDA (99%)
17 -=- 17 - Казачья наездная - Казачья наездная.flac -=- CDDA (99%)
18 -=- 18 - Русский вальс - Русский вальс.flac -=- CDDA (58%)
19 -=- 19 - Светит месяц - Светит месяц.flac -=- CDDA (100%)
20 -=- 20 - Как молоды мы были - Как молоды мы были.flac -=- CDDA (100%)
21 -=- 21 - Дорогой длинною - Дорогой длинною.flac -=- CDDA (100%)
Сводка 95,71% CDDA
37234580
Мы помогаем людям, чтобы они, в свою очередь, помогли нам; таким образом, наши услуги сводятся просто к благодеяниям, которые мы загодя оказываем самим себе. (Франсуа де Ларошфуко)
Download / Скачать

Хотите скачать бесплатно? Зарегистрируйтесь на сайте (ссылка на регистрацию). Pirat.ca - самый быстрый торрент трекер в рунете!

Как скачивать  ·   Что такое торрент  ·   Рейтинг и ограничения

Показать сообщения:    
Ответить на тему

Текущее время: Сегодня 22:14

Часовой пояс: GMT + 4



Вы не можете начинать темы
Вы не можете отвечать на сообщения
Вы не можете редактировать свои сообщения
Вы не можете удалять свои сообщения
Вы не можете голосовать в опросах
Вы не можете прикреплять файлы к сообщениям
Вы не можете скачивать файлы

▼ Вниз