Уважаемый Гость!
Вы можете поддержать проект и зарегистрироваться у наших партнеров - онлайн-стратегия MyLands. При регистрации в игре Вы получите код, который сможете активировать после регистрации на pirat.ca и получить 1000 дублонов.

Ваш код:
bb89c71f188d723469a25713655e142c509aea56
 
     

(Alternative) СЛОТ - 2 Войны (переиздание с Nookie!) - 2007, APE (image+.cue), lossless

Ответить на тему
 
Автор
Сообщение

Пост 10-Ноя-2013 06:19

[Q] 

Kote Makaradze

СЛОТ - 2 Войны (переиздание с Nookie!)- -Жанр: Alternative
Год выпуска диска: 2007
Производитель диска: Россия
Аудио кодек: APE
Тип рипа: image+.cue
Битрейт аудио: lossless
Продолжительность: 00:59:53


01. In
02. 2 Войны
03. X-Stream
04. Пуля
05. 7 Звонков
06. Пластика
07. Колыбельная
08. Нет
09. Здесь и Теперь
10. Terrorist
11. День Закрытых Дверей
12. Воронка
13. Рисунок
14. Бумеранг (Live)
15. Хаос (Live)
16. Amadeus (feat. Кирилл Немоляев)
-
Код:
Exact Audio Copy V0.99 prebeta 4 from 23. January 2008
Отчёт EAC об извлечении, выполненном 9. октября 2009, 19:57
СЛОТ / 2 Войны (переиздание)
Дисковод: ASUS DRW-2014L1T Adapter: 3 ID: 0
Режим чтения : Достоверность
Использование точного потока : Да
Отключение кэша аудио : Да
Использование указателей C2 : Нет
Коррекция смещения при чтении : 6
Способность читать области Lead-in и Lead-out : Нет
Заполнение пропущенных сэмплов тишиной : Да
Удаление блоков с тишиной в начале и конце : Нет
При вычислениях CRC использовались нулевые сэмплы : Да
Интерфейс : Встроенный Win32-интерфейс для Win NT/2000
Выходной формат : Внутренние WAV-операции
Формат сэмплов : 44.100 Гц; 16 бит; стерео
TOC извлечённого CD
Трек | Старт | Длительность | Начальный сектор | Конечный сектор
---------------------------------------------------------------------
1 | 0:00.00 | 0:50.40 | 0 | 3789
2 | 0:50.40 | 3:44.23 | 3790 | 20612
3 | 4:34.63 | 3:51.56 | 20613 | 37993
4 | 8:26.44 | 3:14.72 | 37994 | 52615
5 | 11:41.41 | 4:44.09 | 52616 | 73924
6 | 16:25.50 | 3:36.52 | 73925 | 90176
7 | 20:02.27 | 3:30.35 | 90177 | 105961
8 | 23:32.62 | 4:11.74 | 105962 | 124860
9 | 27:44.61 | 3:04.49 | 124861 | 138709
10 | 30:49.35 | 3:55.34 | 138710 | 156368
11 | 34:44.69 | 4:02.32 | 156369 | 174550
12 | 38:47.26 | 3:54.12 | 174551 | 192112
13 | 42:41.38 | 6:04.42 | 192113 | 219454
14 | 48:46.05 | 3:53.24 | 219455 | 236953
15 | 52:39.29 | 3:20.33 | 236954 | 251986
16 | 55:59.62 | 3:53.52 | 251987 | 269513
Характеристики диапазона извлечения и сообщения об ошибках
Выбранный диапазон
Имя файла F:\Lossless\СЛОТ - 2 Войны (переиздание).wav
Пиковый уровень 100.0 %
Качество диапазона 100.0 %
CRC теста 94355603
CRC копии 94355603
Копирование... OK
Ошибок не произошло
AccurateRip: сводка
Трек 1 нет в базе данных
Трек 2 нет в базе данных
Трек 3 нет в базе данных
Трек 4 нет в базе данных
Трек 5 нет в базе данных
Трек 6 нет в базе данных
Трек 7 нет в базе данных
Трек 8 нет в базе данных
Трек 9 нет в базе данных
Трек 10 нет в базе данных
Трек 11 нет в базе данных
Трек 12 нет в базе данных
Трек 13 нет в базе данных
Трек 14 нет в базе данных
Трек 15 нет в базе данных
Трек 16 нет в базе данных
Ни одного трека нет в базе AccurateRip
Конец отчёта
-
Код:
REM GENRE Alternative
REM DATE 2006
REM DISCID D70E0910
REM COMMENT "ExactAudioCopy v0.99pb4"
PERFORMER "СЛОТ"
TITLE "2 Войны (переиздание)"
FILE "СЛОТ - 2 Войны (переиздание).APE" WAVE
  TRACK 01 AUDIO
    TITLE "Intro"
    PERFORMER "СЛОТ"
    INDEX 01 00:00:00
  TRACK 02 AUDIO
    TITLE "2 Войны"
    PERFORMER "СЛОТ"
    INDEX 01 00:50:40
  TRACK 03 AUDIO
    TITLE "X-Stream"
    PERFORMER "СЛОТ"
    INDEX 01 04:34:63
  TRACK 04 AUDIO
    TITLE "Пуля"
    PERFORMER "СЛОТ"
    INDEX 01 08:26:44
  TRACK 05 AUDIO
    TITLE "7 Звонков"
    PERFORMER "СЛОТ"
    INDEX 01 11:41:41
  TRACK 06 AUDIO
    TITLE "Пластика"
    PERFORMER "СЛОТ"
    INDEX 01 16:25:50
  TRACK 07 AUDIO
    TITLE "Колыбельная"
    PERFORMER "СЛОТ"
    INDEX 01 20:02:27
  TRACK 08 AUDIO
    TITLE "Нет"
    PERFORMER "СЛОТ"
    INDEX 01 23:32:62
  TRACK 09 AUDIO
    TITLE "Здесь и Теперь"
    PERFORMER "СЛОТ"
    INDEX 01 27:44:61
  TRACK 10 AUDIO
    TITLE "Terroreast"
    PERFORMER "СЛОТ"
    INDEX 01 30:49:35
  TRACK 11 AUDIO
    TITLE "День Закрытых Дверей"
    PERFORMER "СЛОТ"
    INDEX 01 34:44:69
  TRACK 12 AUDIO
    TITLE "Воронка"
    PERFORMER "СЛОТ"
    INDEX 01 38:47:26
  TRACK 13 AUDIO
    TITLE "Рисунок"
    PERFORMER "СЛОТ"
    INDEX 01 42:41:38
  TRACK 14 AUDIO
    TITLE "Бумеранг(Live)"
    PERFORMER "СЛОТ"
    INDEX 01 48:46:05
  TRACK 15 AUDIO
    TITLE "Хаос(Live)"
    PERFORMER "СЛОТ"
    INDEX 01 52:39:29
  TRACK 16 AUDIO
    TITLE "Amadeus(feat. Кирилл Немоляев)"
    PERFORMER "СЛОТ"
    INDEX 01 55:59:62
!Виктор 1964 писал(а):

Бан уже влепил. Хамство из оформления раздачи вычистил.
Download / Скачать

Хотите скачать бесплатно? Зарегистрируйтесь на сайте (ссылка на регистрацию). Pirat.ca - самый быстрый торрент трекер в рунете!

Как скачивать  ·   Что такое торрент  ·   Рейтинг и ограничения



Последний раз редактировалось: Kote Makaradze (2013-11-11 02:22), всего редактировалось 1 раз
Показать сообщения:    
Ответить на тему

Текущее время: Сегодня 11:31

Часовой пояс: GMT + 4



Вы не можете начинать темы
Вы не можете отвечать на сообщения
Вы не можете редактировать свои сообщения
Вы не можете удалять свои сообщения
Вы не можете голосовать в опросах
Вы не можете прикреплять файлы к сообщениям
Вы не можете скачивать файлы

▼ Вниз