Уважаемый Гость!
Вы можете поддержать проект и зарегистрироваться у наших партнеров - онлайн-стратегия MyLands. При регистрации в игре Вы получите код, который сможете активировать после регистрации на pirat.ca и получить 1000 дублонов.

Ваш код:
96655d23e625a911058ec0fcd7263f5bff78a048
 
     

(chant) Иеродиакон Герман (Рябцев) - Псалмы Давидовы - 2001 [FLAC, image+.cue, lossless]

Ответить на тему
 
Автор
Сообщение

Пост 06-Апр-2016 00:17

[Q] 

kema777

Корсар

-Иеродиакон Герман (Рябцев) / Псалмы Давидовы-- Год издания: 2001
Страна: Россия
Жанр: chant
Продолжительность: 05:37:30-Лейбл издания: Все тропари - малый знаменный распев, записано в келейной студии г. Приозёрска при иегумене Панкратии
Тип альбома: BOX SET
Страна-выпуска диска: Россия, 2001
Формат: FLAC
Битрейт аудио: lossless
Тип рипа: image+.cue
Наличие сканов в содержимом раздачи: нет-
Продолжительность: 01:10:42
01. Начало обычное (01:24)
02. Тропари, глас 6 (01:39)
03. Господи, помилуй. 40 (00:43)
04. Молитва (00:52)
05. Кафизма 1 (09:49)
06. Тропари, глас 1 (02:50)
07. Молитва (01:16)
08. Кафизма 2 (11:55)
09. Тропари, глас 2 (02:35)
10. Молитва (00:29)
11. Кафизма 3 (14:50)
12. Тропари, глас 3 (02:20)
13. Молитва (01:08)
14. Кафизма 4 (14:19)
15. Тропари, глас 7 (02:49)
16. Молитва (01:49)
Продолжительность: 01:07:38
17. Кафизма 5 (13:26)
18. Тропари, глас 5 (01:45)
19. Молитва (01:12)
20. Кафизма 6 (17:10)
21. Тропари, глас 3 (01:06)
22. Молитва (01:01)
23. Кафизма 7 (14:18)
24. Тропари, глас 5 (01:57)
25. Молитва (01:04)
26. Кафизма 8 (12:12)
Продолжительность: 01:12:00
27. Тропари, глас 5 (01:44)
28. Молитва (00:46)
29. Кафизма 9 (13:11)
30. Тропари, глас 6 (01:48)
31. Молитва (00:47)
32. Кафизма 10 (14:33)
33. Тропари, глас 6 (01:42)
34. Молитва (03:09)
35. Кафизма 11 (17:37)
36. Тропари, глас 7 (02:17)
37. Молитва (00:40)
38. Кафизма 12 (13:22)
39. Тропари, глас 7 (01:40)
40. Молитва (01:20)
Продолжительность: 01:03:14
41. Кафизма 13 (12:22)
42. Тропари, глас 8 (03:06)
43. Молитва (00:38)
44. Кафизма 14 (12:40)
45. Тропари, глас 8 (02:53)
46. Молитва (01:24)
47. Кафизма 15 (13:21)
48. Тропари, глас 1 (02:03)
49. Молитва (00:55)
50. Кафизма 16 (10:38)
51. Тропари, глас 1 (02:28)
52. Молитва (00:51)
Продолжительность: 01:03:58
53. Кафизма 17 (15:15)
54. Тропари, глас 2 (01:19)
55. Молитва (02:42)
56. Кафизма 18 (10:29)
57. Тропари, глас 2 (02:20)
58. Молитва (01:03)
59. Кафизма 19 (13:54)
60. Тропари, глас 7 (01:32)
61. Молитва (01:16)
62. Кафизма 20 (10:15)
63. Тропари, глас 8 (02:13)
64. Молитва (01:47)
Код:
Exact Audio Copy V0.99 prebeta 5 from 4. May 2009
Отчёт EAC об извлечении, выполненном 30. мая 2010, 19:22
Иеродиакон Герман (Рябцев) / Псалмы Давидовы (CD1)
Дисковод: ASUS    BC-08B1ST   Adapter: 0  ID: 2
Режим чтения                 : Достоверность
Использование точного потока : Да
Отключение кэша аудио        : Да
Использование указателей C2  : Нет
Коррекция смещения при чтении                     : 6
Способность читать области Lead-in и Lead-out     : Нет
Заполнение пропущенных сэмплов тишиной            : Да
Удаление блоков с тишиной в начале и конце        : Нет
При вычислениях CRC использовались нулевые сэмплы : Да
Интерфейс                                         : Встроенный Win32-интерфейс для Win NT/2000
Выходной формат          : Пользовательский кодировщик
Выбранный битрейт        : 128 kBit/s
Качество                 : Высокий
Добавление ID3-тэга      : Нет
Утилита сжатия           : C:\Program Files\Exact Audio Copy\FLAC\FLAC.EXE
Дополнительные параметры : -8 -V %s
TOC извлечённого CD
     Трек |   Старт  | Длительность | Начальный сектор | Конечный сектор
    ---------------------------------------------------------------------
       1  |  0:00.00 |    1:23.24   |           0      |       6248
       2  |  1:23.24 |    1:38.27   |        6249      |      13625
       3  |  3:01.51 |    0:42.53   |       13626      |      16828
       4  |  3:44.29 |    0:51.65   |       16829      |      20718
       5  |  4:36.19 |    9:48.70   |       20719      |      64888
       6  | 14:25.14 |    2:49.59   |       64889      |      77622
       7  | 17:14.73 |    1:15.57   |       77623      |      83304
       8  | 18:30.55 |   11:54.42   |       83305      |     136896
       9  | 30:25.22 |    2:34.38   |      136897      |     148484
      10  | 32:59.60 |    0:28.47   |      148485      |     150631
      11  | 33:28.32 |   14:49.48   |      150632      |     217354
      12  | 48:18.05 |    2:19.21   |      217355      |     227800
      13  | 50:37.26 |    1:07.74   |      227801      |     232899
      14  | 51:45.25 |   14:19.00   |      232900      |     297324
      15  | 66:04.25 |    2:48.14   |      297325      |     309938
      16  | 68:52.39 |    1:48.62   |      309939      |     318100
Характеристики диапазона извлечения и сообщения об ошибках
Выбранный диапазон
     Имя файла D:\lossless\Иеродиакон Герман (Рябцев) - Псалмы Давидовы (CD1).wav
     Пиковый уровень 98.8 %
     Качество диапазона 100.0 %
     CRC теста 5EA6A228
     CRC копии 5EA6A228
     Копирование... OK
Ошибок не произошло
AccurateRip: сводка
Трек  1  нет в базе данных
Трек  2  нет в базе данных
Трек  3  нет в базе данных
Трек  4  нет в базе данных
Трек  5  нет в базе данных
Трек  6  нет в базе данных
Трек  7  нет в базе данных
Трек  8  нет в базе данных
Трек  9  нет в базе данных
Трек 10  нет в базе данных
Трек 11  нет в базе данных
Трек 12  нет в базе данных
Трек 13  нет в базе данных
Трек 14  нет в базе данных
Трек 15  нет в базе данных
Трек 16  нет в базе данных
Ни одного трека нет в базе AccurateRip
Конец отчёта
Код:
Exact Audio Copy V0.99 prebeta 5 from 4. May 2009
Отчёт EAC об извлечении, выполненном 30. мая 2010, 20:17
Иеродиакон Герман (Рябцев) / Псалмы Давидовы (CD2)
Дисковод: ASUS    BC-08B1ST   Adapter: 0  ID: 2
Режим чтения                 : Достоверность
Использование точного потока : Да
Отключение кэша аудио        : Да
Использование указателей C2  : Нет
Коррекция смещения при чтении                     : 6
Способность читать области Lead-in и Lead-out     : Нет
Заполнение пропущенных сэмплов тишиной            : Да
Удаление блоков с тишиной в начале и конце        : Нет
При вычислениях CRC использовались нулевые сэмплы : Да
Интерфейс                                         : Встроенный Win32-интерфейс для Win NT/2000
Выходной формат          : Пользовательский кодировщик
Выбранный битрейт        : 128 kBit/s
Качество                 : Высокий
Добавление ID3-тэга      : Нет
Утилита сжатия           : C:\Program Files\Exact Audio Copy\FLAC\FLAC.EXE
Дополнительные параметры : -8 -V %s
TOC извлечённого CD
     Трек |   Старт  | Длительность | Начальный сектор | Конечный сектор
    ---------------------------------------------------------------------
       1  |  0:00.00 |   13:25.30   |           0      |      60404
       2  | 13:25.30 |    1:44.32   |       60405      |      68236
       3  | 15:09.62 |    1:11.52   |       68237      |      73613
       4  | 16:21.39 |   17:10.00   |       73614      |     150863
       5  | 33:31.39 |    1:05.70   |      150864      |     155808
       6  | 34:37.34 |    1:00.55   |      155809      |     160363
       7  | 35:38.14 |   14:17.71   |      160364      |     224709
       8  | 49:56.10 |    1:56.51   |      224710      |     233460
       9  | 51:52.61 |    1:03.72   |      233461      |     238257
      10  | 52:56.58 |   12:11.17   |      238258      |     293099
      11  | 65:08.00 |    1:43.69   |      293100      |     300893
      12  | 66:51.69 |    0:45.37   |      300894      |     304305
Характеристики диапазона извлечения и сообщения об ошибках
Выбранный диапазон
     Имя файла D:\lossless\Иеродиакон Герман (Рябцев) - Псалмы Давидовы (CD2).wav
     Пиковый уровень 98.9 %
     Качество диапазона 100.0 %
     CRC теста 93310F60
     CRC копии 93310F60
     Копирование... OK
Ошибок не произошло
AccurateRip: сводка
Трек  1  нет в базе данных
Трек  2  нет в базе данных
Трек  3  нет в базе данных
Трек  4  нет в базе данных
Трек  5  нет в базе данных
Трек  6  нет в базе данных
Трек  7  нет в базе данных
Трек  8  нет в базе данных
Трек  9  нет в базе данных
Трек 10  нет в базе данных
Трек 11  нет в базе данных
Трек 12  нет в базе данных
Ни одного трека нет в базе AccurateRip
Конец отчёта
Код:
Exact Audio Copy V0.99 prebeta 5 from 4. May 2009
Отчёт EAC об извлечении, выполненном 30. мая 2010, 21:38
Иеродиакон Герман (Рябцев) / Псалмы Давидовы (CD3)
Дисковод: ASUS    BC-08B1ST   Adapter: 0  ID: 2
Режим чтения                 : Достоверность
Использование точного потока : Да
Отключение кэша аудио        : Да
Использование указателей C2  : Нет
Коррекция смещения при чтении                     : 6
Способность читать области Lead-in и Lead-out     : Нет
Заполнение пропущенных сэмплов тишиной            : Да
Удаление блоков с тишиной в начале и конце        : Нет
При вычислениях CRC использовались нулевые сэмплы : Да
Интерфейс                                         : Встроенный Win32-интерфейс для Win NT/2000
Выходной формат          : Пользовательский кодировщик
Выбранный битрейт        : 128 kBit/s
Качество                 : Высокий
Добавление ID3-тэга      : Нет
Утилита сжатия           : C:\Program Files\Exact Audio Copy\FLAC\FLAC.EXE
Дополнительные параметры : -8 -V %s
TOC извлечённого CD
     Трек |   Старт  | Длительность | Начальный сектор | Конечный сектор
    ---------------------------------------------------------------------
       1  |  0:00.00 |   13:10.26   |           0      |      59275
       2  | 13:10.26 |    1:47.65   |       59276      |      67365
       3  | 14:58.16 |    0:46.09   |       67366      |      70824
       4  | 15:44.25 |   14:32.21   |       70825      |     136245
       5  | 30:16.46 |    1:41.21   |      136246      |     143841
       6  | 31:57.67 |    3:08.36   |      143842      |     157977
       7  | 35:06.28 |   17:36.17   |      157978      |     237194
       8  | 52:42.45 |    2:16.50   |      237195      |     247444
       9  | 54:59.20 |    0:39.36   |      247445      |     250405
      10  | 55:38.56 |   13:21.32   |      250406      |     310512
      11  | 69:00.13 |    1:39.59   |      310513      |     317996
      12  | 70:39.72 |    1:19.46   |      317997      |     323967
Характеристики диапазона извлечения и сообщения об ошибках
Выбранный диапазон
     Имя файла D:\lossless\Иеродиакон Герман (Рябцев) - Псалмы Давидовы (CD3).wav
     Пиковый уровень 98.9 %
     Качество диапазона 100.0 %
     CRC теста 15C1042E
     CRC копии 15C1042E
     Копирование... OK
Ошибок не произошло
AccurateRip: сводка
Трек  1  нет в базе данных
Трек  2  нет в базе данных
Трек  3  нет в базе данных
Трек  4  нет в базе данных
Трек  5  нет в базе данных
Трек  6  нет в базе данных
Трек  7  нет в базе данных
Трек  8  нет в базе данных
Трек  9  нет в базе данных
Трек 10  нет в базе данных
Трек 11  нет в базе данных
Трек 12  нет в базе данных
Ни одного трека нет в базе AccurateRip
Конец отчёта
Код:
Exact Audio Copy V0.99 prebeta 5 from 4. May 2009
Отчёт EAC об извлечении, выполненном 30. мая 2010, 22:17
Иеродиакон Герман (Рябцев) / Псалмы Давидовы (CD4)
Дисковод: ASUS    BC-08B1ST   Adapter: 0  ID: 2
Режим чтения                 : Достоверность
Использование точного потока : Да
Отключение кэша аудио        : Да
Использование указателей C2  : Нет
Коррекция смещения при чтении                     : 6
Способность читать области Lead-in и Lead-out     : Нет
Заполнение пропущенных сэмплов тишиной            : Да
Удаление блоков с тишиной в начале и конце        : Нет
При вычислениях CRC использовались нулевые сэмплы : Да
Интерфейс                                         : Встроенный Win32-интерфейс для Win NT/2000
Выходной формат          : Пользовательский кодировщик
Выбранный битрейт        : 128 kBit/s
Качество                 : Высокий
Добавление ID3-тэга      : Нет
Утилита сжатия           : C:\Program Files\Exact Audio Copy\FLAC\FLAC.EXE
Дополнительные параметры : -8 -V %s
TOC извлечённого CD
     Трек |   Старт  | Длительность | Начальный сектор | Конечный сектор
    ---------------------------------------------------------------------
       1  |  0:00.00 |   12:21.54   |           0      |      55628
       2  | 12:21.54 |    3:05.37   |       55629      |      69540
       3  | 15:27.16 |    0:37.67   |       69541      |      72382
       4  | 16:05.08 |   12:39.46   |       72383      |     129353
       5  | 28:44.54 |    2:52.28   |      129354      |     142281
       6  | 31:37.07 |    1:23.45   |      142282      |     148551
       7  | 33:00.52 |   13:20.40   |      148552      |     208591
       8  | 46:21.17 |    2:02.67   |      208592      |     217808
       9  | 48:24.09 |    0:54.56   |      217809      |     221914
      10  | 49:18.65 |   10:37.10   |      221915      |     269699
      11  | 59:56.00 |    2:27.13   |      269700      |     280737
      12  | 62:23.13 |    0:50.25   |      280738      |     284512
Характеристики диапазона извлечения и сообщения об ошибках
Выбранный диапазон
     Имя файла D:\lossless\Иеродиакон Герман (Рябцев) - Псалмы Давидовы (CD4).wav
     Пиковый уровень 98.8 %
     Качество диапазона 99.9 %
     CRC теста 706BC93C
     CRC копии 706BC93C
     Копирование... OK
Ошибок не произошло
AccurateRip: сводка
Трек  1  нет в базе данных
Трек  2  нет в базе данных
Трек  3  нет в базе данных
Трек  4  нет в базе данных
Трек  5  нет в базе данных
Трек  6  нет в базе данных
Трек  7  нет в базе данных
Трек  8  нет в базе данных
Трек  9  нет в базе данных
Трек 10  нет в базе данных
Трек 11  нет в базе данных
Трек 12  нет в базе данных
Ни одного трека нет в базе AccurateRip
Конец отчёта
Код:
Exact Audio Copy V0.99 prebeta 5 from 4. May 2009
Отчёт EAC об извлечении, выполненном 30. мая 2010, 22:48
Иеродиакон Герман (Рябцев) / Псалмы Давидовы (CD5)
Дисковод: ASUS    BC-08B1ST   Adapter: 0  ID: 2
Режим чтения                 : Достоверность
Использование точного потока : Да
Отключение кэша аудио        : Да
Использование указателей C2  : Нет
Коррекция смещения при чтении                     : 6
Способность читать области Lead-in и Lead-out     : Нет
Заполнение пропущенных сэмплов тишиной            : Да
Удаление блоков с тишиной в начале и конце        : Нет
При вычислениях CRC использовались нулевые сэмплы : Да
Интерфейс                                         : Встроенный Win32-интерфейс для Win NT/2000
Выходной формат          : Пользовательский кодировщик
Выбранный битрейт        : 128 kBit/s
Качество                 : Высокий
Добавление ID3-тэга      : Нет
Утилита сжатия           : C:\Program Files\Exact Audio Copy\FLAC\FLAC.EXE
Дополнительные параметры : -8 -V %s
TOC извлечённого CD
     Трек |   Старт  | Длительность | Начальный сектор | Конечный сектор
    ---------------------------------------------------------------------
       1  |  0:00.00 |   15:14.68   |           0      |      68617
       2  | 15:14.68 |    1:18.15   |       68618      |      74482
       3  | 16:33.08 |    2:41.21   |       74483      |      86578
       4  | 19:14.29 |   10:28.07   |       86579      |     133685
       5  | 29:42.36 |    2:19.46   |      133686      |     144156
       6  | 32:02.07 |    1:02.16   |      144157      |     148822
       7  | 33:04.23 |   13:53.50   |      148823      |     211347
       8  | 46:57.73 |    1:31.01   |      211348      |     218173
       9  | 48:28.74 |    1:15.10   |      218174      |     223808
      10  | 49:44.09 |   10:14.16   |      223809      |     269874
      11  | 59:58.25 |    2:12.22   |      269875      |     279796
      12  | 62:10.47 |    1:46.44   |      279797      |     287790
Характеристики диапазона извлечения и сообщения об ошибках
Выбранный диапазон
     Имя файла D:\lossless\Иеродиакон Герман (Рябцев) - Псалмы Давидовы (CD5).wav
     Пиковый уровень 98.8 %
     Качество диапазона 100.0 %
     CRC теста E929EF44
     CRC копии E929EF44
     Копирование... OK
Ошибок не произошло
AccurateRip: сводка
Трек  1  нет в базе данных
Трек  2  нет в базе данных
Трек  3  нет в базе данных
Трек  4  нет в базе данных
Трек  5  нет в базе данных
Трек  6  нет в базе данных
Трек  7  нет в базе данных
Трек  8  нет в базе данных
Трек  9  нет в базе данных
Трек 10  нет в базе данных
Трек 11  нет в базе данных
Трек 12  нет в базе данных
Ни одного трека нет в базе AccurateRip
Конец отчёта
Код:
REM GENRE "Православные песнопения"
REM DATE 2001
REM DISCID CB109110
REM COMMENT "ExactAudioCopy v0.99pb5"
PERFORMER "Иеродиакон Герман (Рябцев)"
TITLE "Псалмы Давидовы (CD1)"
FILE "Иеродиакон Герман (Рябцев) - Псалмы Давидовы (CD1).flac" WAVE
  TRACK 01 AUDIO
    TITLE "Начало обычное"
    PERFORMER "Иеродиакон Герман (Рябцев)"
    INDEX 01 00:00:00
  TRACK 02 AUDIO
    TITLE "Тропари, глас 6"
    PERFORMER "Иеродиакон Герман (Рябцев)"
    INDEX 01 01:23:24
  TRACK 03 AUDIO
    TITLE "Господи, помилуй. 40"
    PERFORMER "Иеродиакон Герман (Рябцев)"
    INDEX 01 03:01:51
  TRACK 04 AUDIO
    TITLE "Молитва"
    PERFORMER "Иеродиакон Герман (Рябцев)"
    INDEX 01 03:44:29
  TRACK 05 AUDIO
    TITLE "Кафизма 1"
    PERFORMER "Иеродиакон Герман (Рябцев)"
    INDEX 01 04:36:19
  TRACK 06 AUDIO
    TITLE "Тропари, глас 1"
    PERFORMER "Иеродиакон Герман (Рябцев)"
    INDEX 01 14:25:14
  TRACK 07 AUDIO
    TITLE "Молитва"
    PERFORMER "Иеродиакон Герман (Рябцев)"
    INDEX 01 17:14:73
  TRACK 08 AUDIO
    TITLE "Кафизма 2"
    PERFORMER "Иеродиакон Герман (Рябцев)"
    INDEX 01 18:30:55
  TRACK 09 AUDIO
    TITLE "Тропари, глас 2"
    PERFORMER "Иеродиакон Герман (Рябцев)"
    INDEX 01 30:25:22
  TRACK 10 AUDIO
    TITLE "Молитва"
    PERFORMER "Иеродиакон Герман (Рябцев)"
    INDEX 01 32:59:60
  TRACK 11 AUDIO
    TITLE "Кафизма 3"
    PERFORMER "Иеродиакон Герман (Рябцев)"
    INDEX 01 33:28:32
  TRACK 12 AUDIO
    TITLE "Тропари, глас 3"
    PERFORMER "Иеродиакон Герман (Рябцев)"
    INDEX 01 48:18:05
  TRACK 13 AUDIO
    TITLE "Молитва"
    PERFORMER "Иеродиакон Герман (Рябцев)"
    INDEX 01 50:37:26
  TRACK 14 AUDIO
    TITLE "Кафизма 4"
    PERFORMER "Иеродиакон Герман (Рябцев)"
    INDEX 01 51:45:25
  TRACK 15 AUDIO
    TITLE "Тропари, глас 7"
    PERFORMER "Иеродиакон Герман (Рябцев)"
    INDEX 01 66:04:25
  TRACK 16 AUDIO
    TITLE "Молитва"
    PERFORMER "Иеродиакон Герман (Рябцев)"
    INDEX 01 68:52:39
Код:
REM GENRE "Православные песнопения"
REM DATE 2001
REM DISCID 9C0FD90C
REM COMMENT "ExactAudioCopy v0.99pb5"
PERFORMER "Иеродиакон Герман (Рябцев)"
TITLE "Псалмы Давидовы (CD2)"
FILE "Иеродиакон Герман (Рябцев) - Псалмы Давидовы (CD2).flac" WAVE
  TRACK 01 AUDIO
    TITLE "Кафизма 5"
    PERFORMER "Иеродиакон Герман (Рябцев)"
    INDEX 01 00:00:00
  TRACK 02 AUDIO
    TITLE "Тропари, глас 5"
    PERFORMER "Иеродиакон Герман (Рябцев)"
    INDEX 01 13:25:30
  TRACK 03 AUDIO
    TITLE "Молитва"
    PERFORMER "Иеродиакон Герман (Рябцев)"
    INDEX 01 15:09:62
  TRACK 04 AUDIO
    TITLE "Кафизма 6"
    PERFORMER "Иеродиакон Герман (Рябцев)"
    INDEX 01 16:21:39
  TRACK 05 AUDIO
    TITLE "Тропари, глас 3"
    PERFORMER "Иеродиакон Герман (Рябцев)"
    INDEX 01 33:31:39
  TRACK 06 AUDIO
    TITLE "Молитва"
    PERFORMER "Иеродиакон Герман (Рябцев)"
    INDEX 01 34:37:34
  TRACK 07 AUDIO
    TITLE "Кафизма 7"
    PERFORMER "Иеродиакон Герман (Рябцев)"
    INDEX 01 35:38:14
  TRACK 08 AUDIO
    TITLE "Тропари, глас 5"
    PERFORMER "Иеродиакон Герман (Рябцев)"
    INDEX 01 49:56:10
  TRACK 09 AUDIO
    TITLE "Молитва"
    PERFORMER "Иеродиакон Герман (Рябцев)"
    INDEX 01 51:52:61
  TRACK 10 AUDIO
    TITLE "Кафизма 8"
    PERFORMER "Иеродиакон Герман (Рябцев)"
    INDEX 01 52:56:58
  TRACK 11 AUDIO
    TITLE "Тропари, глас 5"
    PERFORMER "Иеродиакон Герман (Рябцев)"
    INDEX 01 65:08:00
  TRACK 12 AUDIO
    TITLE "Молитва"
    PERFORMER "Иеродиакон Герман (Рябцев)"
    INDEX 01 66:51:69
Код:
REM GENRE "Православные песнопения"
REM DATE 2001
REM DISCID 9610DF0C
REM COMMENT "ExactAudioCopy v0.99pb5"
PERFORMER "Иеродиакон Герман (Рябцев)"
TITLE "Псалмы Давидовы (CD3)"
FILE "Иеродиакон Герман (Рябцев) - Псалмы Давидовы (CD3).flac" WAVE
  TRACK 01 AUDIO
    TITLE "Кафизма 9"
    PERFORMER "Иеродиакон Герман (Рябцев)"
    INDEX 01 00:00:00
  TRACK 02 AUDIO
    TITLE "Тропари, глас 6"
    PERFORMER "Иеродиакон Герман (Рябцев)"
    INDEX 01 13:10:26
  TRACK 03 AUDIO
    TITLE "Молитва"
    PERFORMER "Иеродиакон Герман (Рябцев)"
    INDEX 01 14:58:16
  TRACK 04 AUDIO
    TITLE "Кафизма 10"
    PERFORMER "Иеродиакон Герман (Рябцев)"
    INDEX 01 15:44:25
  TRACK 05 AUDIO
    TITLE "Тропари, глас 6"
    PERFORMER "Иеродиакон Герман (Рябцев)"
    INDEX 01 30:16:46
  TRACK 06 AUDIO
    TITLE "Молитва"
    PERFORMER "Иеродиакон Герман (Рябцев)"
    INDEX 01 31:57:67
  TRACK 07 AUDIO
    TITLE "Кафизма 11"
    PERFORMER "Иеродиакон Герман (Рябцев)"
    INDEX 01 35:06:28
  TRACK 08 AUDIO
    TITLE "Тропари, глас 7"
    PERFORMER "Иеродиакон Герман (Рябцев)"
    INDEX 01 52:42:45
  TRACK 09 AUDIO
    TITLE "Молитва"
    PERFORMER "Иеродиакон Герман (Рябцев)"
    INDEX 01 54:59:20
  TRACK 10 AUDIO
    TITLE "Кафизма 12"
    PERFORMER "Иеродиакон Герман (Рябцев)"
    INDEX 01 55:38:56
  TRACK 11 AUDIO
    TITLE "Тропари, глас 7"
    PERFORMER "Иеродиакон Герман (Рябцев)"
    INDEX 01 69:00:13
  TRACK 12 AUDIO
    TITLE "Молитва"
    PERFORMER "Иеродиакон Герман (Рябцев)"
    INDEX 01 70:39:72
Код:
REM GENRE "Православные песнопения"
REM DATE 2001
REM DISCID DB0ED10C
REM COMMENT "ExactAudioCopy v0.99pb5"
PERFORMER "Иеродиакон Герман (Рябцев)"
TITLE "Псалмы Давидовы (CD4)"
FILE "Иеродиакон Герман (Рябцев) - Псалмы Давидовы (CD4).flac" WAVE
  TRACK 01 AUDIO
    TITLE "Кафизма 13"
    PERFORMER "Иеродиакон Герман (Рябцев)"
    INDEX 01 00:00:00
  TRACK 02 AUDIO
    TITLE "Тропари, глас 8"
    PERFORMER "Иеродиакон Герман (Рябцев)"
    INDEX 01 12:21:54
  TRACK 03 AUDIO
    TITLE "Молитва"
    PERFORMER "Иеродиакон Герман (Рябцев)"
    INDEX 01 15:27:16
  TRACK 04 AUDIO
    TITLE "Кафизма 14"
    PERFORMER "Иеродиакон Герман (Рябцев)"
    INDEX 01 16:05:08
  TRACK 05 AUDIO
    TITLE "Тропари, глас 8"
    PERFORMER "Иеродиакон Герман (Рябцев)"
    INDEX 01 28:44:54
  TRACK 06 AUDIO
    TITLE "Молитва"
    PERFORMER "Иеродиакон Герман (Рябцев)"
    INDEX 01 31:37:07
  TRACK 07 AUDIO
    TITLE "Кафизма 15"
    PERFORMER "Иеродиакон Герман (Рябцев)"
    INDEX 01 33:00:52
  TRACK 08 AUDIO
    TITLE "Тропари, глас 1"
    PERFORMER "Иеродиакон Герман (Рябцев)"
    INDEX 01 46:21:17
  TRACK 09 AUDIO
    TITLE "Молитва"
    PERFORMER "Иеродиакон Герман (Рябцев)"
    INDEX 01 48:24:09
  TRACK 10 AUDIO
    TITLE "Кафизма 16"
    PERFORMER "Иеродиакон Герман (Рябцев)"
    INDEX 01 49:18:65
  TRACK 11 AUDIO
    TITLE "Тропари, глас 1"
    PERFORMER "Иеродиакон Герман (Рябцев)"
    INDEX 01 59:56:00
  TRACK 12 AUDIO
    TITLE "Молитва"
    PERFORMER "Иеродиакон Герман (Рябцев)"
    INDEX 01 62:23:13
Код:
REM GENRE "Православные песнопения"
REM DATE 2001
REM DISCID C30EFD0C
REM COMMENT "ExactAudioCopy v0.99pb5"
PERFORMER "Иеродиакон Герман (Рябцев)"
TITLE "Псалмы Давидовы (CD5)"
FILE "Иеродиакон Герман (Рябцев) - Псалмы Давидовы (CD5).flac" WAVE
  TRACK 01 AUDIO
    TITLE "Кафизма 17"
    PERFORMER "Иеродиакон Герман (Рябцев)"
    INDEX 01 00:00:00
  TRACK 02 AUDIO
    TITLE "Тропари, глас 2"
    PERFORMER "Иеродиакон Герман (Рябцев)"
    INDEX 01 15:14:68
  TRACK 03 AUDIO
    TITLE "Молитва"
    PERFORMER "Иеродиакон Герман (Рябцев)"
    INDEX 01 16:33:08
  TRACK 04 AUDIO
    TITLE "Кафизма 18"
    PERFORMER "Иеродиакон Герман (Рябцев)"
    INDEX 01 19:14:29
  TRACK 05 AUDIO
    TITLE "Тропари, глас 2"
    PERFORMER "Иеродиакон Герман (Рябцев)"
    INDEX 01 29:42:36
  TRACK 06 AUDIO
    TITLE "Молитва"
    PERFORMER "Иеродиакон Герман (Рябцев)"
    INDEX 01 32:02:07
  TRACK 07 AUDIO
    TITLE "Кафизма 19"
    PERFORMER "Иеродиакон Герман (Рябцев)"
    INDEX 01 33:04:23
  TRACK 08 AUDIO
    TITLE "Тропари, глас 7"
    PERFORMER "Иеродиакон Герман (Рябцев)"
    INDEX 01 46:57:73
  TRACK 09 AUDIO
    TITLE "Молитва"
    PERFORMER "Иеродиакон Герман (Рябцев)"
    INDEX 01 48:28:74
  TRACK 10 AUDIO
    TITLE "Кафизма 20"
    PERFORMER "Иеродиакон Герман (Рябцев)"
    INDEX 01 49:44:09
  TRACK 11 AUDIO
    TITLE "Тропари, глас 8"
    PERFORMER "Иеродиакон Герман (Рябцев)"
    INDEX 01 59:58:25
  TRACK 12 AUDIO
    TITLE "Молитва"
    PERFORMER "Иеродиакон Герман (Рябцев)"
    INDEX 01 62:10:47
Код:
-----------------------
DON'T MODIFY THIS FILE
-----------------------
PERFORMER: auCDtect Task Manager, ver. 1.6.0 RC1 build 1.6.0.1
Copyright (c) 2008-2010 y-soft. All rights reserved
http://y-soft.org
ANALYZER: auCDtect: CD records authenticity detector, version 0.8.2
Copyright (c) 2004 Oleg Berngardt. All rights reserved.
Copyright (c) 2004 Alexander Djourik. All rights reserved.
FILE: Иеродиакон Герман (Рябцев) - Псалмы Давидовы (CD1).flac
  Size: 414993629 Hash: C331D6814FD0639C1D862C64C8DF581B Accuracy: -m0
  Conclusion: CDDA 100%
  Signature: C80ADE3CE1C941567E0EB3204F1C65EFC84F6F43
Код:
-----------------------
DON'T MODIFY THIS FILE
-----------------------
PERFORMER: auCDtect Task Manager, ver. 1.6.0 RC1 build 1.6.0.1
Copyright (c) 2008-2010 y-soft. All rights reserved
http://y-soft.org
ANALYZER: auCDtect: CD records authenticity detector, version 0.8.2
Copyright (c) 2004 Oleg Berngardt. All rights reserved.
Copyright (c) 2004 Alexander Djourik. All rights reserved.
FILE: Иеродиакон Герман (Рябцев) - Псалмы Давидовы (CD2).flac
  Size: 392110211 Hash: 6D705B289A473C1ADADB537FAFF790FA Accuracy: -m0
  Conclusion: CDDA 100%
  Signature: 12AD2071CD04C2554947DCA02A42445CD37CEE4E
Код:
-----------------------
DON'T MODIFY THIS FILE
-----------------------
PERFORMER: auCDtect Task Manager, ver. 1.6.0 RC1 build 1.6.0.1
Copyright (c) 2008-2010 y-soft. All rights reserved
http://y-soft.org
ANALYZER: auCDtect: CD records authenticity detector, version 0.8.2
Copyright (c) 2004 Oleg Berngardt. All rights reserved.
Copyright (c) 2004 Alexander Djourik. All rights reserved.
FILE: Иеродиакон Герман (Рябцев) - Псалмы Давидовы (CD3).flac
  Size: 418676899 Hash: 6C02DDF3D88F7D3156FE100E9AE6F0D2 Accuracy: -m0
  Conclusion: CDDA 100%
  Signature: 7A74D69A0ACDA87C2C81923CCA2355192566562C
Код:
-----------------------
DON'T MODIFY THIS FILE
-----------------------
PERFORMER: auCDtect Task Manager, ver. 1.6.0 RC1 build 1.6.0.1
Copyright (c) 2008-2010 y-soft. All rights reserved
http://y-soft.org
ANALYZER: auCDtect: CD records authenticity detector, version 0.8.2
Copyright (c) 2004 Oleg Berngardt. All rights reserved.
Copyright (c) 2004 Alexander Djourik. All rights reserved.
FILE: Иеродиакон Герман (Рябцев) - Псалмы Давидовы (CD4).flac
  Size: 366704391 Hash: 3B5545C8F18EBE1B079EAEE592D51C68 Accuracy: -m0
  Conclusion: CDDA 99%
  Signature: F147EFBD48599E26C2ABFC59D96FBEA9A6EB979B
Код:
-----------------------
DON'T MODIFY THIS FILE
-----------------------
PERFORMER: auCDtect Task Manager, ver. 1.6.0 RC1 build 1.6.0.1
Copyright (c) 2008-2010 y-soft. All rights reserved
http://y-soft.org
ANALYZER: auCDtect: CD records authenticity detector, version 0.8.2
Copyright (c) 2004 Oleg Berngardt. All rights reserved.
Copyright (c) 2004 Alexander Djourik. All rights reserved.
FILE: Иеродиакон Герман (Рябцев) - Псалмы Давидовы (CD5).flac
  Size: 365444055 Hash: BEB9B73D92FF830491F5D05E30C7A527 Accuracy: -m0
  Conclusion: CDDA 100%
  Signature: 116AED6C048F86C8D32BEF24F4E732FAC5E27EF3
Download / Скачать

Хотите скачать бесплатно? Зарегистрируйтесь на сайте (ссылка на регистрацию). Pirat.ca - самый быстрый торрент трекер в рунете!

Как скачивать  ·   Что такое торрент  ·   Рейтинг и ограничения



Последний раз редактировалось: kema777 (2016-04-07 00:35), всего редактировалось 4 раз(а)

kema777 ®

Корсар

52

Пост 07-Апр-2016 00:36 (спустя 1 день)

[Q] 

Зарезервировано.
[Профиль]  [ЛС] 
Показать сообщения:    
Ответить на тему

Текущее время: Сегодня 15:41

Часовой пояс: GMT + 4



Вы не можете начинать темы
Вы не можете отвечать на сообщения
Вы не можете редактировать свои сообщения
Вы не можете удалять свои сообщения
Вы не можете голосовать в опросах
Вы не можете прикреплять файлы к сообщениям
Вы не можете скачивать файлы

▼ Вниз