Уважаемый Гость!
Вы можете поддержать проект и зарегистрироваться у наших партнеров - онлайн-стратегия MyLands. При регистрации в игре Вы получите код, который сможете активировать после регистрации на pirat.ca и получить 1000 дублонов.

Ваш код:
258f25b2f53ed6fb81a2190732ae94c6a36ff317
 
     

(Instrumental) В ритме танца - Фиеста (РД) (3CD), FLAC (tracks+cue) - 2011, lossless

Ответить на тему
 
Автор
Сообщение

Пост 07-Фев-2012 14:35

[Q] 

CHARLI2236

В ритме танца - Фиеста (РД) (3CD)
Год выпуска альбома: 2011
Страна: Россия
Жанр: Instrumental
Лейбл издания: ИД Ридерз Дайджест
Продолжительность: 3:17:21
Формат: FLAC
Битрейт аудио: lossless
Тип рипа: tracks+.cue
Наличие сканов в содержимом раздачи: да
Трэклист
01 - Trio Caribe - Cuando calienta el sol. (2:40)
02 - Francis Goya, his Guitar and Orchestra - Cuando, cuando, cuando. (2:30)
03 - Jacinta Hernбndez - Quizбs, quizбs, quizбs (Perhaps Perhaps Perhaps). (3:38)
04 - Juanito Romualdo and his Orchestra - Andalucia (The Breeze And I). (2:58)
05 - Maria Augusta - Vocй abusou. (3:56)
06 - Miguel-Angel Gamarra - Maria Isabel. (3:21)
07 - Carlos Romero - Burbujas de amor. (3:46)
08 - Miguel-Angel Gamarra - Pepita de Mallorca. (2:16)
09 - Havana Mambo - Un Rayo de Sol. (2:34)
10 - Jacinta Hernбndez - Pepito. (3:05)
11 - Don Cristobal and his Orchestra - La Malagueсa. (2:02)
12 - Mariachi Nuevo Jalisco - Cielito Lindo. (4:02)
13 - Luiz Rodrigues and his Orchestra - La Bikina. (2:49)
14 - Jacinta Hernбndez - Mi lindo bohio. (3:11)
15 - Orquesta Ritmo Tropical - El Bodeguero. (3:43)
16 - Havana Mambo - Mambo sinuendo. (2:21)
17 - Astrud Gilberto - Meu piao. (3:41)
18 - Havana Mambo - Oye como va. (3:45)
19 - Francis Goya, his Guitar and Orchestra - Blame It On The Bossa Nova. (3:31)
20 - Havana Mambo - Te quedaras. (3:03)
21 - Pietro Lacirignola, his Saxophone and Orchestra - Contigo en la distancia. (2:49)
22 - Carlos Romero - Frenesн. (3:07)
”Отчет ЕАС”
Отчёт EAC об извлечении, выполненном 4. февраля 2012, 16:38 для диска:
Various / В ритме танца - ФИЕСТА - Ласковое солнце. (РД)
Дисковод: Optiarc DVD RW AD-7203A Adapter: 0 ID: 0
Режим чтения: Достоверный (C2: нет, Точный поток: да, Отключение кэша: да)
Коррекция смещения при чтении: 48
Способность читать области Lead-in и Lead-out : Нет
Выходной формат: C:\Program Files (x86)\FLAC\flac.exe (Пользовательский кодировщик)
320 kBit/s
Дополнительные параметры: -8 -V -T "ARTIST=%a" -T "TITLE=%t" -T "ALBUM=%g" -T "DATE=%y" -T "TRACKNUMBER=%n" -T "GENRE=%m" -T "COMMENT=EAC FLAC -8" %s
Другие параметры:
Заполнение пропущенных сэмплов тишиной : Да
Удаление блоков с тишиной в начале и конце : Нет
Встроенный Win32-интерфейс для Win NT/2000
Трек 1
Имя файла C:\Sergei\новая папка\01 - Trio Caribe - Cuando calienta el sol.wav
Длина предзазора 0:00:02.00
Пиковый уровень 89.7 %
Качество трека 100.0 %
CRC теста B1855277
CRC копии B1855277
Копирование... OK
Трек 2
Имя файла C:\Sergei\новая папка\02 - Francis Goya, his Guitar and Orchestra - Cuando, cuando, cuando.wav
Длина предзазора 0:00:01.80
Пиковый уровень 93.9 %
Качество трека 100.0 %
CRC теста F8C3B1E2
CRC копии F8C3B1E2
Копирование... OK
Трек 3
Имя файла C:\Sergei\новая папка\03 - Jacinta Hernбndez - Quizбs, quizбs, quizбs (Perhaps Perhaps Perhaps).wav
Длина предзазора 0:00:01.80
Пиковый уровень 99.5 %
Качество трека 100.0 %
CRC теста FDD61F5C
CRC копии FDD61F5C
Копирование... OK
Трек 4
Имя файла C:\Sergei\новая папка\04 - Juanito Romualdo and his Orchestra - Andalucia (The Breeze And I).wav
Длина предзазора 0:00:01.80
Пиковый уровень 65.9 %
Качество трека 100.0 %
CRC теста DBD72EE5
CRC копии DBD72EE5
Копирование... OK
Трек 5
Имя файла C:\Sergei\новая папка\05 - Maria Augusta - Vocй abusou.wav
Длина предзазора 0:00:01.80
Пиковый уровень 53.5 %
Качество трека 100.0 %
CRC теста 08F63868
CRC копии 08F63868
Копирование... OK
Трек 6
Имя файла C:\Sergei\новая папка\06 - Miguel-Angel Gamarra - Maria Isabel.wav
Длина предзазора 0:00:01.80
Пиковый уровень 62.5 %
Качество трека 100.0 %
CRC теста CC5BF500
CRC копии CC5BF500
Копирование... OK
Трек 7
Имя файла C:\Sergei\новая папка\07 - Carlos Romero - Burbujas de amor.wav
Длина предзазора 0:00:01.80
Пиковый уровень 68.2 %
Качество трека 100.0 %
CRC теста 6803454E
CRC копии 6803454E
Копирование... OK
Трек 8
Имя файла C:\Sergei\новая папка\08 - Miguel-Angel Gamarra - Pepita de Mallorca.wav
Длина предзазора 0:00:01.80
Пиковый уровень 66.1 %
Качество трека 99.9 %
CRC теста 56C7689E
CRC копии 56C7689E
Копирование... OK
Трек 9
Имя файла C:\Sergei\новая папка\09 - Havana Mambo - Un Rayo de Sol.wav
Длина предзазора 0:00:01.80
Пиковый уровень 83.3 %
Качество трека 100.0 %
CRC теста 98BCC3C3
CRC копии 98BCC3C3
Копирование... OK
Трек 10
Имя файла C:\Sergei\новая папка\10 - Jacinta Hernбndez - Pepito.wav
Длина предзазора 0:00:01.80
Пиковый уровень 95.0 %
Качество трека 100.0 %
CRC теста 57768BF2
CRC копии 57768BF2
Копирование... OK
Трек 11
Имя файла C:\Sergei\новая папка\11 - Don Cristobal and his Orchestra - La Malagueсa.wav
Длина предзазора 0:00:01.80
Пиковый уровень 96.6 %
Качество трека 99.9 %
CRC теста 43DA638E
CRC копии 43DA638E
Копирование... OK
Трек 12
Имя файла C:\Sergei\новая папка\12 - Mariachi Nuevo Jalisco - Cielito Lindo.wav
Длина предзазора 0:00:01.80
Пиковый уровень 68.0 %
Качество трека 100.0 %
CRC теста 32949F28
CRC копии 32949F28
Копирование... OK
Трек 13
Имя файла C:\Sergei\новая папка\13 - Luiz Rodrigues and his Orchestra - La Bikina.wav
Длина предзазора 0:00:01.80
Пиковый уровень 60.3 %
Качество трека 100.0 %
CRC теста BCB34BB9
CRC копии BCB34BB9
Копирование... OK
Трек 14
Имя файла C:\Sergei\новая папка\14 - Jacinta Hernбndez - Mi lindo bohio.wav
Длина предзазора 0:00:01.80
Пиковый уровень 99.5 %
Качество трека 100.0 %
CRC теста 1DD876AC
CRC копии 1DD876AC
Копирование... OK
Трек 15
Имя файла C:\Sergei\новая папка\15 - Orquesta Ritmo Tropical - El Bodeguero.wav
Длина предзазора 0:00:01.80
Пиковый уровень 99.5 %
Качество трека 100.0 %
CRC теста 7C58F7B1
CRC копии 7C58F7B1
Копирование... OK
Трек 16
Имя файла C:\Sergei\новая папка\16 - Havana Mambo - Mambo sinuendo.wav
Длина предзазора 0:00:01.80
Пиковый уровень 81.1 %
Качество трека 100.0 %
CRC теста DF2803BF
CRC копии DF2803BF
Копирование... OK
Трек 17
Имя файла C:\Sergei\новая папка\17 - Astrud Gilberto - Meu piao.wav
Длина предзазора 0:00:01.80
Пиковый уровень 99.4 %
Качество трека 100.0 %
CRC теста 947990CF
CRC копии 947990CF
Копирование... OK
Трек 18
Имя файла C:\Sergei\новая папка\18 - Havana Mambo - Oye como va.wav
Длина предзазора 0:00:01.80
Пиковый уровень 68.2 %
Качество трека 100.0 %
CRC теста 2D139FF7
CRC копии 2D139FF7
Копирование... OK
Трек 19
Имя файла C:\Sergei\новая папка\19 - Francis Goya, his Guitar and Orchestra - Blame It On The Bossa Nova.wav
Длина предзазора 0:00:01.80
Пиковый уровень 72.8 %
Качество трека 100.0 %
CRC теста 43ACCE7F
CRC копии 43ACCE7F
Копирование... OK
Трек 20
Имя файла C:\Sergei\новая папка\20 - Havana Mambo - Te quedaras.wav
Длина предзазора 0:00:01.80
Пиковый уровень 75.5 %
Качество трека 99.9 %
CRC теста C2F75ABC
CRC копии C2F75ABC
Копирование... OK
Трек 21
Имя файла C:\Sergei\новая папка\21 - Pietro Lacirignola, his Saxophone and Orchestra - Contigo en la distancia.wav
Длина предзазора 0:00:01.80
Пиковый уровень 66.2 %
Качество трека 100.0 %
CRC теста 77B81E86
CRC копии 77B81E86
Копирование... OK
Трек 22
Имя файла C:\Sergei\новая папка\22 - Carlos Romero - Frenesн.wav
Длина предзазора 0:00:01.80
Пиковый уровень 67.8 %
Качество трека 100.0 %
CRC теста D023670D
CRC копии D023670D
Копирование... OK
Ошибок не произошло
Конец отчёта
"Non-compilant CUE"
REM GENRE Instrumental
REM DATE 2011
REM DISCID 30102B16
REM COMMENT "ExactAudioCopy v0.95b3"
PERFORMER "Various"
TITLE "В ритме танца - ФИЕСТА. (РД)"
FILE "01 - Trio Caribe - Cuando calienta el sol.wav" WAVE
TRACK 01 AUDIO
TITLE "Cuando calienta el sol"
PERFORMER "Trio Caribe"
INDEX 01 00:00:00
TRACK 02 AUDIO
TITLE "Cuando, cuando, cuando"
PERFORMER "Francis Goya, his Guitar and Orchestra"
INDEX 00 02:39:06
FILE "02 - Francis Goya, his Guitar and Orchestra - Cuando, cuando, cuando.wav" WAVE
INDEX 01 00:00:00
TRACK 03 AUDIO
TITLE "Quizбs, quizбs, quizбs (Perhaps Perhaps Perhaps)"
PERFORMER "Jacinta Hernбndez"
INDEX 00 02:28:37
FILE "03 - Jacinta Hernбndez - Quizбs, quizбs, quizбs (Perhaps Perhaps Perhaps).wav" WAVE
INDEX 01 00:00:00
TRACK 04 AUDIO
TITLE "Andalucia (The Breeze And I)"
PERFORMER "Juanito Romualdo and his Orchestra"
INDEX 00 03:36:59
FILE "04 - Juanito Romualdo and his Orchestra - Andalucia (The Breeze And I).wav" WAVE
INDEX 01 00:00:00
TRACK 05 AUDIO
TITLE "Vocй abusou"
PERFORMER "Maria Augusta"
INDEX 00 02:56:50
FILE "05 - Maria Augusta - Vocй abusou.wav" WAVE
INDEX 01 00:00:00
TRACK 06 AUDIO
TITLE "Maria Isabel"
PERFORMER "Miguel-Angel Gamarra"
INDEX 00 03:54:60
FILE "06 - Miguel-Angel Gamarra - Maria Isabel.wav" WAVE
INDEX 01 00:00:00
TRACK 07 AUDIO
TITLE "Burbujas de amor"
PERFORMER "Carlos Romero"
INDEX 00 03:19:59
FILE "07 - Carlos Romero - Burbujas de amor.wav" WAVE
INDEX 01 00:00:00
TRACK 08 AUDIO
TITLE "Pepita de Mallorca"
PERFORMER "Miguel-Angel Gamarra"
INDEX 00 03:44:28
FILE "08 - Miguel-Angel Gamarra - Pepita de Mallorca.wav" WAVE
INDEX 01 00:00:00
TRACK 09 AUDIO
TITLE "Un Rayo de Sol"
PERFORMER "Havana Mambo"
INDEX 00 02:14:50
FILE "09 - Havana Mambo - Un Rayo de Sol.wav" WAVE
INDEX 01 00:00:00
TRACK 10 AUDIO
TITLE "Pepito"
PERFORMER "Jacinta Hernбndez"
INDEX 00 02:32:59
FILE "10 - Jacinta Hernбndez - Pepito.wav" WAVE
INDEX 01 00:00:00
TRACK 11 AUDIO
TITLE "La Malagueсa"
PERFORMER "Don Cristobal and his Orchestra"
INDEX 00 03:03:23
FILE "11 - Don Cristobal and his Orchestra - La Malagueсa.wav" WAVE
INDEX 01 00:00:00
TRACK 12 AUDIO
TITLE "Cielito Lindo"
PERFORMER "Mariachi Nuevo Jalisco"
INDEX 00 02:01:05
FILE "12 - Mariachi Nuevo Jalisco - Cielito Lindo.wav" WAVE
INDEX 01 00:00:00
TRACK 13 AUDIO
TITLE "La Bikina"
PERFORMER "Luiz Rodrigues and his Orchestra"
INDEX 00 04:00:27
FILE "13 - Luiz Rodrigues and his Orchestra - La Bikina.wav" WAVE
INDEX 01 00:00:00
TRACK 14 AUDIO
TITLE "Mi lindo bohio"
PERFORMER "Jacinta Hernбndez"
INDEX 00 02:47:70
FILE "14 - Jacinta Hernбndez - Mi lindo bohio.wav" WAVE
INDEX 01 00:00:00
TRACK 15 AUDIO
TITLE "El Bodeguero"
PERFORMER "Orquesta Ritmo Tropical"
INDEX 00 03:10:14
FILE "15 - Orquesta Ritmo Tropical - El Bodeguero.wav" WAVE
INDEX 01 00:00:00
TRACK 16 AUDIO
TITLE "Mambo sinuendo"
PERFORMER "Havana Mambo"
INDEX 00 03:42:07
FILE "16 - Havana Mambo - Mambo sinuendo.wav" WAVE
INDEX 01 00:00:00
TRACK 17 AUDIO
TITLE "Meu piao"
PERFORMER "Astrud Gilberto"
INDEX 00 02:19:60
FILE "17 - Astrud Gilberto - Meu piao.wav" WAVE
INDEX 01 00:00:00
TRACK 18 AUDIO
TITLE "Oye como va"
PERFORMER "Havana Mambo"
INDEX 00 03:39:70
FILE "18 - Havana Mambo - Oye como va.wav" WAVE
INDEX 01 00:00:00
TRACK 19 AUDIO
TITLE "Blame It On The Bossa Nova"
PERFORMER "Francis Goya, his Guitar and Orchestra"
INDEX 00 03:43:43
FILE "19 - Francis Goya, his Guitar and Orchestra - Blame It On The Bossa Nova.wav" WAVE
INDEX 01 00:00:00
TRACK 20 AUDIO
TITLE "Te quedaras"
PERFORMER "Havana Mambo"
INDEX 00 03:29:66
FILE "20 - Havana Mambo - Te quedaras.wav" WAVE
INDEX 01 00:00:00
TRACK 21 AUDIO
TITLE "Contigo en la distancia"
PERFORMER "Pietro Lacirignola, his Saxophone and Orchestra"
INDEX 00 03:01:34
FILE "21 - Pietro Lacirignola, his Saxophone and Orchestra - Contigo en la distancia.wav" WAVE
INDEX 01 00:00:00
TRACK 22 AUDIO
TITLE "Frenesн"
PERFORMER "Carlos Romero"
INDEX 00 02:47:22
FILE "22 - Carlos Romero - Frenesн.wav" WAVE
INDEX 01 00:00:00
Трэклист
01 - Claude Blouin and his Orchestra - Cherry Pink And Apple Blossom White. (3:17)
02 - Havana Mambo - Patricia. (2:26)
03 - Mario Ruiz Armengol and his Orchestra - Cachito. (3:07)
04 - Havana Mambo - Mambo No.5. (2:38)
05 - Juanito Fernandez and his Orchestra - Perfidia. (2:08)
06 - Hill Bowen and his Orchestra - Cachita. (3:06)
07 - Gordon Langford and his Orchestra - Cucurucucъ Paloma. (2:51)
08 - Havana Mambo - Eso es el Amor. (3:07)
09 - Tito Lecuona and his Orchestra - Oye negra. (2:13)
10 - Pablo Beltran Ruiz and his Orchestra - Moliendo cafй. (2:35)
11 - Luiz Gonzalez Perez and his Orchestra - El son de la loma. (2:50)
12 - Alberto Ruiz and his Orchestra - Come To The Mardi Gras (Nгo tenho lбgrimas). (2:17)
13 - Tito Lecuona and his Orchestra - Carioca. (2:19)
14 - Alvaro Gomez-Orozco - La Rumba. (4:39)
15 - Mongo Santamaria - Bonita. (4:41)
16 - Havana Mambo - Mбs que un sueсo. (3:37)
17 - Juanito Romualdo and his Orchestra - Canciуn Cubana (Cuban Love Song). (2:49)
18 - Havana Mambo - Rumbah Tumbah. (3:11)
19 - Tito Puente and his Orchestra - Baqueteo. (3:51)
20 - Havana Mambo - Mambo No. 8. (3:05)
”Отчет ЕАС”
Отчёт EAC об извлечении, выполненном 4. февраля 2012, 17:31 для диска:
Various / В ритме танца - Фиеста - Мамбо № 5. (РД)
Дисковод: Optiarc DVD RW AD-7203A Adapter: 0 ID: 0
Режим чтения: Достоверный (C2: нет, Точный поток: да, Отключение кэша: да)
Коррекция смещения при чтении: 48
Способность читать области Lead-in и Lead-out : Нет
Выходной формат: C:\Program Files (x86)\FLAC\flac.exe (Пользовательский кодировщик)
320 kBit/s
Дополнительные параметры: -8 -V -T "ARTIST=%a" -T "TITLE=%t" -T "ALBUM=%g" -T "DATE=%y" -T "TRACKNUMBER=%n" -T "GENRE=%m" -T "COMMENT=EAC FLAC -8" %s
Другие параметры:
Заполнение пропущенных сэмплов тишиной : Да
Удаление блоков с тишиной в начале и конце : Нет
Встроенный Win32-интерфейс для Win NT/2000
Трек 1
Имя файла C:\Sergei\новая папка\01 - Claude Blouin and his Orchestra - Cherry Pink And Apple Blossom White.wav
Длина предзазора 0:00:02.00
Пиковый уровень 80.2 %
Качество трека 100.0 %
CRC теста 3F468B82
CRC копии 3F468B82
Копирование... OK
Трек 2
Имя файла C:\Sergei\новая папка\02 - Havana Mambo - Patricia.wav
Длина предзазора 0:00:01.80
Пиковый уровень 73.4 %
Качество трека 99.9 %
CRC теста 97DF66C6
CRC копии 97DF66C6
Копирование... OK
Трек 3
Имя файла C:\Sergei\новая папка\03 - Mario Ruiz Armengol and his Orchestra - Cachito.wav
Длина предзазора 0:00:01.80
Пиковый уровень 99.4 %
Качество трека 100.0 %
CRC теста 345D0DC8
CRC копии 345D0DC8
Копирование... OK
Трек 4
Имя файла C:\Sergei\новая папка\04 - Havana Mambo - Mambo No.5.wav
Длина предзазора 0:00:01.80
Пиковый уровень 76.9 %
Качество трека 100.0 %
CRC теста 4EED3D36
CRC копии 4EED3D36
Копирование... OK
Трек 5
Имя файла C:\Sergei\новая папка\05 - Juanito Fernandez and his Orchestra - Perfidia.wav
Длина предзазора 0:00:01.80
Пиковый уровень 99.5 %
Качество трека 100.0 %
CRC теста D1A4335F
CRC копии D1A4335F
Копирование... OK
Трек 6
Имя файла C:\Sergei\новая папка\06 - Hill Bowen and his Orchestra - Cachita.wav
Длина предзазора 0:00:01.80
Пиковый уровень 99.0 %
Качество трека 100.0 %
CRC теста CC652A0B
CRC копии CC652A0B
Копирование... OK
Трек 7
Имя файла C:\Sergei\новая папка\07 - Gordon Langford and his Orchestra - Cucurucucъ Paloma.wav
Длина предзазора 0:00:01.80
Пиковый уровень 99.5 %
Качество трека 100.0 %
CRC теста E5EA1365
CRC копии E5EA1365
Копирование... OK
Трек 8
Имя файла C:\Sergei\новая папка\08 - Havana Mambo - Eso es el Amor.wav
Длина предзазора 0:00:01.80
Пиковый уровень 99.5 %
Качество трека 100.0 %
CRC теста ED42315A
CRC копии ED42315A
Копирование... OK
Трек 9
Имя файла C:\Sergei\новая папка\09 - Tito Lecuona and his Orchestra - Oye negra.wav
Длина предзазора 0:00:01.80
Пиковый уровень 99.0 %
Качество трека 100.0 %
CRC теста E3C8091A
CRC копии E3C8091A
Копирование... OK
Трек 10
Имя файла C:\Sergei\новая папка\10 - Pablo Beltran Ruiz and his Orchestra - Moliendo cafй.wav
Длина предзазора 0:00:01.80
Пиковый уровень 99.5 %
Качество трека 100.0 %
CRC теста AA6C08D9
CRC копии AA6C08D9
Копирование... OK
Трек 11
Имя файла C:\Sergei\новая папка\11 - Luiz Gonzalez Perez and his Orchestra - El son de la loma.wav
Длина предзазора 0:00:01.80
Пиковый уровень 67.9 %
Качество трека 100.0 %
CRC теста 1FBC2583
CRC копии 1FBC2583
Копирование... OK
Трек 12
Имя файла C:\Sergei\новая папка\12 - Alberto Ruiz and his Orchestra - Come To The Mardi Gras (Nгo tenho lбgrimas).wav
Длина предзазора 0:00:01.80
Пиковый уровень 99.0 %
Качество трека 100.0 %
CRC теста 9D3F6611
CRC копии 9D3F6611
Копирование... OK
Трек 13
Имя файла C:\Sergei\новая папка\13 - Tito Lecuona and his Orchestra - Carioca.wav
Длина предзазора 0:00:01.80
Пиковый уровень 99.5 %
Качество трека 100.0 %
CRC теста 46A0C38D
CRC копии 46A0C38D
Копирование... OK
Трек 14
Имя файла C:\Sergei\новая папка\14 - Alvaro Gomez-Orozco - La Rumba.wav
Длина предзазора 0:00:01.80
Пиковый уровень 71.3 %
Качество трека 100.0 %
CRC теста 30D9EC1D
CRC копии 30D9EC1D
Копирование... OK
Трек 15
Имя файла C:\Sergei\новая папка\15 - Mongo Santamaria - Bonita.wav
Длина предзазора 0:00:01.80
Пиковый уровень 99.0 %
Качество трека 100.0 %
CRC теста FF97E782
CRC копии FF97E782
Копирование... OK
Трек 16
Имя файла C:\Sergei\новая папка\16 - Havana Mambo - Mбs que un sueсo.wav
Длина предзазора 0:00:01.80
Пиковый уровень 83.9 %
Качество трека 100.0 %
CRC теста B278C82B
CRC копии B278C82B
Копирование... OK
Трек 17
Имя файла C:\Sergei\новая папка\17 - Juanito Romualdo and his Orchestra - Canciуn Cubana (Cuban Love Song).wav
Длина предзазора 0:00:01.80
Пиковый уровень 56.8 %
Качество трека 100.0 %
CRC теста E11CA3DC
CRC копии E11CA3DC
Копирование... OK
Трек 18
Имя файла C:\Sergei\новая папка\18 - Havana Mambo - Rumbah Tumbah.wav
Длина предзазора 0:00:01.80
Пиковый уровень 76.9 %
Качество трека 99.9 %
CRC теста 97CAE5AC
CRC копии 97CAE5AC
Копирование... OK
Трек 19
Имя файла C:\Sergei\новая папка\19 - Tito Puente and his Orchestra - Baqueteo.wav
Длина предзазора 0:00:01.80
Пиковый уровень 97.2 %
Качество трека 100.0 %
CRC теста 28EE7219
CRC копии 28EE7219
Копирование... OK
Трек 20
Имя файла C:\Sergei\новая папка\20 - Havana Mambo - Mambo No. 8.wav
Длина предзазора 0:00:01.80
Пиковый уровень 65.2 %
Качество трека 100.0 %
CRC теста 2FF78A6D
CRC копии 2FF78A6D
Копирование... OK
Ошибок не произошло
Конец отчёта
"Non-compilant CUE"
REM GENRE Instrumental
REM DATE 2011
REM DISCID 190E4814
REM COMMENT "ExactAudioCopy v0.95b3"
PERFORMER "Various"
TITLE "В ритме танца - Фиеста - Мамбо № 5. (РД)"
FILE "01 - Claude Blouin and his Orchestra - Cherry Pink And Apple Blossom White.wav" WAVE
TRACK 01 AUDIO
TITLE "Cherry Pink And Apple Blossom White"
PERFORMER "Claude Blouin and his Orchestra"
INDEX 01 00:00:00
TRACK 02 AUDIO
TITLE "Patricia"
PERFORMER "Havana Mambo"
INDEX 00 03:15:35
FILE "02 - Havana Mambo - Patricia.wav" WAVE
INDEX 01 00:00:00
TRACK 03 AUDIO
TITLE "Cachito"
PERFORMER "Mario Ruiz Armengol and his Orchestra"
INDEX 00 02:24:74
FILE "03 - Mario Ruiz Armengol and his Orchestra - Cachito.wav" WAVE
INDEX 01 00:00:00
TRACK 04 AUDIO
TITLE "Mambo No.5"
PERFORMER "Havana Mambo"
INDEX 00 03:05:50
FILE "04 - Havana Mambo - Mambo No.5.wav" WAVE
INDEX 01 00:00:00
TRACK 05 AUDIO
TITLE "Perfidia"
PERFORMER "Juanito Fernandez and his Orchestra"
INDEX 00 02:37:14
FILE "05 - Juanito Fernandez and his Orchestra - Perfidia.wav" WAVE
INDEX 01 00:00:00
TRACK 06 AUDIO
TITLE "Cachita"
PERFORMER "Hill Bowen and his Orchestra"
INDEX 00 02:06:18
FILE "06 - Hill Bowen and his Orchestra - Cachita.wav" WAVE
INDEX 01 00:00:00
TRACK 07 AUDIO
TITLE "Cucurucucъ Paloma"
PERFORMER "Gordon Langford and his Orchestra"
INDEX 00 03:04:63
FILE "07 - Gordon Langford and his Orchestra - Cucurucucъ Paloma.wav" WAVE
INDEX 01 00:00:00
TRACK 08 AUDIO
TITLE "Eso es el Amor"
PERFORMER "Havana Mambo"
INDEX 00 02:49:42
FILE "08 - Havana Mambo - Eso es el Amor.wav" WAVE
INDEX 01 00:00:00
TRACK 09 AUDIO
TITLE "Oye negra"
PERFORMER "Tito Lecuona and his Orchestra"
INDEX 00 03:05:40
FILE "09 - Tito Lecuona and his Orchestra - Oye negra.wav" WAVE
INDEX 01 00:00:00
TRACK 10 AUDIO
TITLE "Moliendo cafй"
PERFORMER "Pablo Beltran Ruiz and his Orchestra"
INDEX 00 02:12:11
FILE "10 - Pablo Beltran Ruiz and his Orchestra - Moliendo cafй.wav" WAVE
INDEX 01 00:00:00
TRACK 11 AUDIO
TITLE "El son de la loma"
PERFORMER "Luiz Gonzalez Perez and his Orchestra"
INDEX 00 02:33:59
FILE "11 - Luiz Gonzalez Perez and his Orchestra - El son de la loma.wav" WAVE
INDEX 01 00:00:00
TRACK 12 AUDIO
TITLE "Come To The Mardi Gras (Nгo tenho lбgrimas)"
PERFORMER "Alberto Ruiz and his Orchestra"
INDEX 00 02:48:49
FILE "12 - Alberto Ruiz and his Orchestra - Come To The Mardi Gras (Nгo tenho lбgrimas).wav" WAVE
INDEX 01 00:00:00
TRACK 13 AUDIO
TITLE "Carioca"
PERFORMER "Tito Lecuona and his Orchestra"
INDEX 00 02:15:17
FILE "13 - Tito Lecuona and his Orchestra - Carioca.wav" WAVE
INDEX 01 00:00:00
TRACK 14 AUDIO
TITLE "La Rumba"
PERFORMER "Alvaro Gomez-Orozco"
INDEX 00 02:17:42
FILE "14 - Alvaro Gomez-Orozco - La Rumba.wav" WAVE
INDEX 01 00:00:00
TRACK 15 AUDIO
TITLE "Bonita"
PERFORMER "Mongo Santamaria"
INDEX 00 04:37:52
FILE "15 - Mongo Santamaria - Bonita.wav" WAVE
INDEX 01 00:00:00
TRACK 16 AUDIO
TITLE "Mбs que un sueсo"
PERFORMER "Havana Mambo"
INDEX 00 04:39:15
FILE "16 - Havana Mambo - Mбs que un sueсo.wav" WAVE
INDEX 01 00:00:00
TRACK 17 AUDIO
TITLE "Canciуn Cubana (Cuban Love Song)"
PERFORMER "Juanito Romualdo and his Orchestra"
INDEX 00 03:35:60
FILE "17 - Juanito Romualdo and his Orchestra - Canciуn Cubana (Cuban Love Song).wav" WAVE
INDEX 01 00:00:00
TRACK 18 AUDIO
TITLE "Rumbah Tumbah"
PERFORMER "Havana Mambo"
INDEX 00 02:47:30
FILE "18 - Havana Mambo - Rumbah Tumbah.wav" WAVE
INDEX 01 00:00:00
TRACK 19 AUDIO
TITLE "Baqueteo"
PERFORMER "Tito Puente and his Orchestra"
INDEX 00 03:09:34
FILE "19 - Tito Puente and his Orchestra - Baqueteo.wav" WAVE
INDEX 01 00:00:00
TRACK 20 AUDIO
TITLE "Mambo No. 8"
PERFORMER "Havana Mambo"
INDEX 00 03:50:12
FILE "20 - Havana Mambo - Mambo No. 8.wav" WAVE
INDEX 01 00:00:00
Трэклист
01 - Francis Goya, his Guitar and Singers - Brazil. (2:56)
02 - Jairo Pereira - Pais Tropical. (3:00)
03 - Sambistas do Brasil - Lambada (Llorando se fue). (4:04)
04 - Los Mangos - Macarena. (3:52)
05 - Mariachi Vargas de Tecalitlan - La Raspa. (2:55)
06 - Havana Mambo - Tipiton. (2:50)
07 - Miguel Castro - Soca pa tн. (4:01)
08 - Mъsica Latina - Abusadora. (3:57)
09 - Los Cubaztecas - Merengue Hi. (1:44)
10 - Joгo Pastinha and his Orchestra - Madureira chorou (Si tu vas а Rio). (2:36)
11 - Los Garcia - La Colegiala. (3:00)
12 - Benny Morй - Maracaibo oriental. (4:46)
13 - Miguel-Angel Gamarra - Managua Nicaragua. (3:07)
14 - Havana Mambo - Fiesta tropical. (4:48)
15 - Jairo Pereira - Tristeza. (2:57)
16 - Jacinta Hernбndez - La Feria de las flores. (3:04)
17 - Juanito Fernandez and his Orchestra - Mamгe eu quero (Mamб yo quiero). (2:28)
18 - Sambistas do Brasil - Ciranda. (5:23)
19 - Tito Puente and his Orchestra - El Timbalon. (2:52)
20 - Josй Feliciano - La Bamba. (2:57)
”Отчет ЕАС”
Отчёт EAC об извлечении, выполненном 4. февраля 2012, 18:30 для диска:
Various / В ритме танца - Фиеста - Тропическая фиеста. (РД)
Дисковод: Optiarc DVD RW AD-7203A Adapter: 0 ID: 0
Режим чтения: Достоверный (C2: нет, Точный поток: да, Отключение кэша: да)
Коррекция смещения при чтении: 48
Способность читать области Lead-in и Lead-out : Нет
Выходной формат: C:\Program Files (x86)\FLAC\flac.exe (Пользовательский кодировщик)
320 kBit/s
Дополнительные параметры: -8 -V -T "ARTIST=%a" -T "TITLE=%t" -T "ALBUM=%g" -T "DATE=%y" -T "TRACKNUMBER=%n" -T "GENRE=%m" -T "COMMENT=EAC FLAC -8" %s
Другие параметры:
Заполнение пропущенных сэмплов тишиной : Да
Удаление блоков с тишиной в начале и конце : Нет
Встроенный Win32-интерфейс для Win NT/2000
Трек 1
Имя файла C:\Sergei\новая папка\01 - Francis Goya, his Guitar and Singers - Brazil.wav
Длина предзазора 0:00:02.00
Пиковый уровень 89.5 %
Качество трека 99.9 %
CRC теста 8EA39172
CRC копии 8EA39172
Копирование... OK
Трек 2
Имя файла C:\Sergei\новая папка\02 - Jairo Pereira - Pais Tropical.wav
Длина предзазора 0:00:01.80
Пиковый уровень 98.7 %
Качество трека 99.9 %
CRC теста 2CDB77EB
CRC копии 2CDB77EB
Копирование... OK
Трек 3
Имя файла C:\Sergei\новая папка\03 - Sambistas do Brasil - Lambada (Llorando se fue).wav
Длина предзазора 0:00:01.80
Пиковый уровень 98.2 %
Качество трека 100.0 %
CRC теста A59AFAE4
CRC копии A59AFAE4
Копирование... OK
Трек 4
Имя файла C:\Sergei\новая папка\04 - Los Mangos - Macarena.wav
Длина предзазора 0:00:01.80
Пиковый уровень 79.2 %
Качество трека 100.0 %
CRC теста FBDA389A
CRC копии FBDA389A
Копирование... OK
Трек 5
Имя файла C:\Sergei\новая папка\05 - Mariachi Vargas de Tecalitlan - La Raspa.wav
Длина предзазора 0:00:01.80
Пиковый уровень 99.5 %
Качество трека 99.9 %
CRC теста 796906EE
CRC копии 796906EE
Копирование... OK
Трек 6
Имя файла C:\Sergei\новая папка\06 - Havana Mambo - Tipiton.wav
Длина предзазора 0:00:01.80
Пиковый уровень 99.3 %
Качество трека 99.9 %
CRC теста B16E325C
CRC копии B16E325C
Копирование... OK
Трек 7
Имя файла C:\Sergei\новая папка\07 - Miguel Castro - Soca pa tн.wav
Длина предзазора 0:00:01.80
Пиковый уровень 74.5 %
Качество трека 100.0 %
CRC теста B4D95BC9
CRC копии B4D95BC9
Копирование... OK
Трек 8
Имя файла C:\Sergei\новая папка\08 - Mъsica Latina - Abusadora.wav
Длина предзазора 0:00:01.80
Пиковый уровень 97.7 %
Качество трека 100.0 %
CRC теста E86FE29E
CRC копии E86FE29E
Копирование... OK
Трек 9
Имя файла C:\Sergei\новая папка\09 - Los Cubaztecas - Merengue Hi.wav
Длина предзазора 0:00:01.80
Пиковый уровень 86.4 %
Качество трека 100.0 %
CRC теста B58D8F59
CRC копии B58D8F59
Копирование... OK
Трек 10
Имя файла C:\Sergei\новая папка\10 - Joгo Pastinha and his Orchestra - Madureira chorou (Si tu vas а Rio).wav
Длина предзазора 0:00:01.80
Пиковый уровень 73.6 %
Качество трека 100.0 %
CRC теста 492C0205
CRC копии 492C0205
Копирование... OK
Трек 11
Имя файла C:\Sergei\новая папка\11 - Los Garcia - La Colegiala.wav
Длина предзазора 0:00:01.80
Пиковый уровень 89.8 %
Качество трека 100.0 %
CRC теста BEB58F6E
CRC копии BEB58F6E
Копирование... OK
Трек 12
Имя файла C:\Sergei\новая папка\12 - Benny Morй - Maracaibo oriental.wav
Длина предзазора 0:00:01.80
Пиковый уровень 99.5 %
Качество трека 100.0 %
CRC теста 0890B546
CRC копии 0890B546
Копирование... OK
Трек 13
Имя файла C:\Sergei\новая папка\13 - Miguel-Angel Gamarra - Managua Nicaragua.wav
Длина предзазора 0:00:01.80
Пиковый уровень 55.5 %
Качество трека 100.0 %
CRC теста 5B082095
CRC копии 5B082095
Копирование... OK
Трек 14
Имя файла C:\Sergei\новая папка\14 - Havana Mambo - Fiesta tropical.wav
Длина предзазора 0:00:01.80
Пиковый уровень 59.6 %
Качество трека 99.9 %
CRC теста 5CE7AA81
CRC копии 5CE7AA81
Копирование... OK
Трек 15
Имя файла C:\Sergei\новая папка\15 - Jairo Pereira - Tristeza.wav
Длина предзазора 0:00:01.80
Пиковый уровень 78.6 %
Качество трека 100.0 %
CRC теста 6DE1A5A3
CRC копии 6DE1A5A3
Копирование... OK
Трек 16
Имя файла C:\Sergei\новая папка\16 - Jacinta Hernбndez - La Feria de las flores.wav
Длина предзазора 0:00:01.80
Пиковый уровень 98.7 %
Качество трека 100.0 %
CRC теста EE0D0142
CRC копии EE0D0142
Копирование... OK
Трек 17
Имя файла C:\Sergei\новая папка\17 - Juanito Fernandez and his Orchestra - Mamгe eu quero (Mamб yo quiero).wav
Длина предзазора 0:00:01.80
Пиковый уровень 99.5 %
Качество трека 100.0 %
CRC теста 243A7E0D
CRC копии 243A7E0D
Копирование... OK
Трек 18
Имя файла C:\Sergei\новая папка\18 - Sambistas do Brasil - Ciranda.wav
Длина предзазора 0:00:01.80
Пиковый уровень 99.4 %
Качество трека 100.0 %
CRC теста 3D8385E5
CRC копии 3D8385E5
Копирование... OK
Трек 19
Имя файла C:\Sergei\новая папка\19 - Tito Puente and his Orchestra - El Timbalon.wav
Длина предзазора 0:00:01.80
Пиковый уровень 93.9 %
Качество трека 100.0 %
CRC теста 0A70FDA0
CRC копии 0A70FDA0
Копирование... OK
Трек 20
Имя файла C:\Sergei\новая папка\20 - Josй Feliciano - La Bamba.wav
Длина предзазора 0:00:01.80
Пиковый уровень 69.8 %
Качество трека 100.0 %
CRC теста B6767348
CRC копии B6767348
Копирование... OK
Ошибок не произошло
Конец отчёта
"Non-compilant CUE"
REM GENRE Instrumental
REM DATE 2011
REM DISCID 200FCE14
REM COMMENT "ExactAudioCopy v0.95b3"
PERFORMER "Various"
TITLE "В ритме танца - Фиеста - Тропическая фиеста. (РД)"
FILE "01 - Francis Goya, his Guitar and Singers - Brazil.wav" WAVE
TRACK 01 AUDIO
TITLE "Brazil"
PERFORMER "Francis Goya, his Guitar and Singers"
INDEX 01 00:00:00
TRACK 02 AUDIO
TITLE "Pais Tropical"
PERFORMER "Jairo Pereira"
INDEX 00 02:54:62
FILE "02 - Jairo Pereira - Pais Tropical.wav" WAVE
INDEX 01 00:00:00
TRACK 03 AUDIO
TITLE "Lambada (Llorando se fue)"
PERFORMER "Sambistas do Brasil"
INDEX 00 02:59:12
FILE "03 - Sambistas do Brasil - Lambada (Llorando se fue).wav" WAVE
INDEX 01 00:00:00
TRACK 04 AUDIO
TITLE "Macarena"
PERFORMER "Los Mangos"
INDEX 00 04:02:27
FILE "04 - Los Mangos - Macarena.wav" WAVE
INDEX 01 00:00:00
TRACK 05 AUDIO
TITLE "La Raspa"
PERFORMER "Mariachi Vargas de Tecalitlan"
INDEX 00 03:50:34
FILE "05 - Mariachi Vargas de Tecalitlan - La Raspa.wav" WAVE
INDEX 01 00:00:00
TRACK 06 AUDIO
TITLE "Tipiton"
PERFORMER "Havana Mambo"
INDEX 00 02:54:13
FILE "06 - Havana Mambo - Tipiton.wav" WAVE
INDEX 01 00:00:00
TRACK 07 AUDIO
TITLE "Soca pa tн"
PERFORMER "Miguel Castro"
INDEX 00 02:48:64
FILE "07 - Miguel Castro - Soca pa tн.wav" WAVE
INDEX 01 00:00:00
TRACK 08 AUDIO
TITLE "Abusadora"
PERFORMER "Mъsica Latina"
INDEX 00 04:00:13
FILE "08 - Mъsica Latina - Abusadora.wav" WAVE
INDEX 01 00:00:00
TRACK 09 AUDIO
TITLE "Merengue Hi"
PERFORMER "Los Cubaztecas"
INDEX 00 03:55:15
FILE "09 - Los Cubaztecas - Merengue Hi.wav" WAVE
INDEX 01 00:00:00
TRACK 10 AUDIO
TITLE "Madureira chorou (Si tu vas а Rio)"
PERFORMER "Joгo Pastinha and his Orchestra"
INDEX 00 01:42:22
FILE "10 - Joгo Pastinha and his Orchestra - Madureira chorou (Si tu vas а Rio).wav" WAVE
INDEX 01 00:00:00
TRACK 11 AUDIO
TITLE "La Colegiala"
PERFORMER "Los Garcia"
INDEX 00 02:34:56
FILE "11 - Los Garcia - La Colegiala.wav" WAVE
INDEX 01 00:00:00
TRACK 12 AUDIO
TITLE "Maracaibo oriental"
PERFORMER "Benny Morй"
INDEX 00 02:58:57
FILE "12 - Benny Morй - Maracaibo oriental.wav" WAVE
INDEX 01 00:00:00
TRACK 13 AUDIO
TITLE "Managua Nicaragua"
PERFORMER "Miguel-Angel Gamarra"
INDEX 00 04:44:62
FILE "13 - Miguel-Angel Gamarra - Managua Nicaragua.wav" WAVE
INDEX 01 00:00:00
TRACK 14 AUDIO
TITLE "Fiesta tropical"
PERFORMER "Havana Mambo"
INDEX 00 03:05:25
FILE "14 - Havana Mambo - Fiesta tropical.wav" WAVE
INDEX 01 00:00:00
TRACK 15 AUDIO
TITLE "Tristeza"
PERFORMER "Jairo Pereira"
INDEX 00 04:47:05
FILE "15 - Jairo Pereira - Tristeza.wav" WAVE
INDEX 01 00:00:00
TRACK 16 AUDIO
TITLE "La Feria de las flores"
PERFORMER "Jacinta Hernбndez"
INDEX 00 02:55:24
FILE "16 - Jacinta Hernбndez - La Feria de las flores.wav" WAVE
INDEX 01 00:00:00
TRACK 17 AUDIO
TITLE "Mamгe eu quero (Mamб yo quiero)"
PERFORMER "Juanito Fernandez and his Orchestra"
INDEX 00 03:02:25
FILE "17 - Juanito Fernandez and his Orchestra - Mamгe eu quero (Mamб yo quiero).wav" WAVE
INDEX 01 00:00:00
TRACK 18 AUDIO
TITLE "Ciranda"
PERFORMER "Sambistas do Brasil"
INDEX 00 02:26:65
FILE "18 - Sambistas do Brasil - Ciranda.wav" WAVE
INDEX 01 00:00:00
TRACK 19 AUDIO
TITLE "El Timbalon"
PERFORMER "Tito Puente and his Orchestra"
INDEX 00 05:21:27
FILE "19 - Tito Puente and his Orchestra - El Timbalon.wav" WAVE
INDEX 01 00:00:00
TRACK 20 AUDIO
TITLE "La Bamba"
PERFORMER "Josй Feliciano"
INDEX 00 02:50:71
FILE "20 - Josй Feliciano - La Bamba.wav" WAVE
INDEX 01 00:00:00
Мы помогаем людям, чтобы они, в свою очередь, помогли нам; таким образом, наши услуги сводятся просто к благодеяниям, которые мы загодя оказываем самим себе. (Франсуа де Ларошфуко)
Download / Скачать

Хотите скачать бесплатно? Зарегистрируйтесь на сайте (ссылка на регистрацию). Pirat.ca - самый быстрый торрент трекер в рунете!

Как скачивать  ·   Что такое торрент  ·   Рейтинг и ограничения



Последний раз редактировалось: CHARLI2236 (2012-06-30 20:45), всего редактировалось 2 раз(а)

ficus42

Корсар

Пост 09-Фев-2012 12:30 (спустя 1 день 21 час)

[Q] 

Будем танцевать
[Профиль]  [ЛС] 

kucha11

Корсар

Пост 21-Мар-2015 22:01 (спустя 3 года 1 месяц)

[Q] 

Автору респект!!!
[Профиль]  [ЛС] 
Показать сообщения:    
Ответить на тему

Текущее время: Сегодня 22:51

Часовой пояс: GMT + 4



Вы не можете начинать темы
Вы не можете отвечать на сообщения
Вы не можете редактировать свои сообщения
Вы не можете удалять свои сообщения
Вы не можете голосовать в опросах
Вы не можете прикреплять файлы к сообщениям
Вы не можете скачивать файлы

▼ Вниз