Уважаемый Гость!
Вы можете поддержать проект и зарегистрироваться у наших партнеров - онлайн-стратегия MyLands. При регистрации в игре Вы получите код, который сможете активировать после регистрации на pirat.ca и получить 1000 дублонов.

Ваш код:
bb89c71f188d723469a25713655e142c509aea56
 
     

(Instrumental) В ритме танца - Движение чувств (РД) (3CD), FLAC (tracks+cue) - 2011, lossless

Ответить на тему
 
Автор
Сообщение

Пост 07-Фев-2012 22:48

[Q] 

CHARLI2236

В ритме танца - Движение чувств (РД) (3CD)
Год выпуска альбома: 2011
Страна: Россия
Жанр: Instrumental
Лейбл издания: ИД Ридерз Дайджест
Продолжительность: 3:17:50
Формат: FLAC
Битрейт аудио: lossless
Тип рипа: tracks+.cue
Источник (релизер): диск CDDA
Наличие сканов в содержимом раздачи: да
Трэклист
01 - Claude Blouin and his Orchestra - Siboney. (3:46)
02 - Gary Hughes and his Orchestra - Amapola. (2:56)
03 - Hill Bowen and his Orchestra - Doin' The Cha Cha Cha. (2:37)
04 - Havana Mambo - Sucu Sucu. (2:53)
05 - Claude Blouin and his Orchestra - Just A Gigolo-Ain't Got Nobody. (3:30)
06 - Ambros Seelos and his Orchestra - Mack The Knife. (3:12)
07 - Pablo Mendez and his Orchestra - Guaglione. (2:33)
08 - Claude Blouin and his Orchestra - The Wedding Mambo. (3:03)
09 - Pablo Mendez and his Orchestra - Tico-Tico. (2:47)
10 - Claude Blouin, his Orchestra and Singers - Amor. (3:23)
11 - Ambros Seelos and his Orchestra - Tango del amor. (3:37)
12 - The Accordeonicas - Tango di Garda. (2:32)
13 - Ambros Seelos and his Orchestra - Luxemburg Waltz. (2:37)
14 - Raymond Lefиvre and his Orchestra - Oh Lady Mary. (2:31)
15 - Ambros Seelos and his Orchestra - Top Of The World. (2:48)
16 - Frank Chacksfield and his Orchestra - Give Me The Simple Life. (2:21)
17 - Hill Bowen and his Orchestra - Miami Beach Rumba. (2:47)
18 - Ralph Benatar and his Orchestra - Oh! Carol. (2:52)
19 - Ambros Seelos and his Orchestra - Jeepers Creepers. (2:10)
20 - Claude Blouin and his Orchestra - Lulu's Back In Town. (1:47)
21 - Kenny Ball and his Jazzmen - Georgia Swing. (2:38)
22 - Kenny King and his Orchestra - Trumpet Swing. (2:37)
23 - Claude Blouin and his Orchestra - St. Louis Blues. (3:28)
24 - Billy Vaughn and his Orchestra - When. (2:30)
”Отчет ЕАС”
Отчёт EAC об извлечении, выполненном 7. февраля 2012, 16:45 для диска:
Various / В ритме танца - Движение чувств
Дисковод: Optiarc DVD RW AD-7203A Adapter: 0 ID: 0
Режим чтения: Достоверный (C2: нет, Точный поток: да, Отключение кэша: да)
Коррекция смещения при чтении: 48
Способность читать области Lead-in и Lead-out : Нет
Выходной формат: C:\Program Files (x86)\FLAC\flac.exe (Пользовательский кодировщик)
320 kBit/s
Дополнительные параметры: -8 -V -T "ARTIST=%a" -T "TITLE=%t" -T "ALBUM=%g" -T "DATE=%y" -T "TRACKNUMBER=%n" -T "GENRE=%m" -T "COMMENT=EAC FLAC -8" %s
Другие параметры:
Заполнение пропущенных сэмплов тишиной : Да
Удаление блоков с тишиной в начале и конце : Нет
Встроенный Win32-интерфейс для Win NT/2000
Трек 1
Имя файла C:\Sergei\новая папка\01 - Claude Blouin and his Orchestra - Siboney.wav
Длина предзазора 0:00:02.00
Пиковый уровень 82.0 %
Качество трека 99.9 %
CRC теста C83ADB74
CRC копии C83ADB74
Копирование... OK
Трек 2
Имя файла C:\Sergei\новая папка\02 - Gary Hughes and his Orchestra - Amapola.wav
Длина предзазора 0:00:01.80
Пиковый уровень 66.4 %
Качество трека 100.0 %
CRC теста 64E4FD78
CRC копии 64E4FD78
Копирование... OK
Трек 3
Имя файла C:\Sergei\новая папка\03 - Hill Bowen and his Orchestra - Doin' The Cha Cha Cha.wav
Длина предзазора 0:00:01.80
Пиковый уровень 65.4 %
Качество трека 100.0 %
CRC теста 4DEBDDE8
CRC копии 4DEBDDE8
Копирование... OK
Трек 4
Имя файла C:\Sergei\новая папка\04 - Havana Mambo - Sucu Sucu.wav
Длина предзазора 0:00:01.80
Пиковый уровень 62.8 %
Качество трека 100.0 %
CRC теста CD7FF92B
CRC копии CD7FF92B
Копирование... OK
Трек 5
Имя файла C:\Sergei\новая папка\05 - Claude Blouin and his Orchestra - Just A Gigolo-Ain't Got Nobody.wav
Длина предзазора 0:00:01.80
Пиковый уровень 90.6 %
Качество трека 100.0 %
CRC теста 514807E3
CRC копии 514807E3
Копирование... OK
Трек 6
Имя файла C:\Sergei\новая папка\06 - Ambros Seelos and his Orchestra - Mack The Knife.wav
Длина предзазора 0:00:01.80
Пиковый уровень 71.6 %
Качество трека 100.0 %
CRC теста D2901150
CRC копии D2901150
Копирование... OK
Трек 7
Имя файла C:\Sergei\новая папка\07 - Pablo Mendez and his Orchestra - Guaglione.wav
Длина предзазора 0:00:01.80
Пиковый уровень 72.9 %
Качество трека 100.0 %
CRC теста 8D038C39
CRC копии 8D038C39
Копирование... OK
Трек 8
Имя файла C:\Sergei\новая папка\08 - Claude Blouin and his Orchestra - The Wedding Mambo.wav
Длина предзазора 0:00:01.80
Пиковый уровень 44.2 %
Качество трека 100.0 %
CRC теста 5B339504
CRC копии 5B339504
Копирование... OK
Трек 9
Имя файла C:\Sergei\новая папка\09 - Pablo Mendez and his Orchestra - Tico-Tico.wav
Длина предзазора 0:00:01.80
Пиковый уровень 96.1 %
Качество трека 100.0 %
CRC теста 22CFA47B
CRC копии 22CFA47B
Копирование... OK
Трек 10
Имя файла C:\Sergei\новая папка\10 - Claude Blouin, his Orchestra and Singers - Amor.wav
Длина предзазора 0:00:01.80
Пиковый уровень 89.6 %
Качество трека 99.9 %
CRC теста DFFB16DD
CRC копии DFFB16DD
Копирование... OK
Трек 11
Имя файла C:\Sergei\новая папка\11 - Ambros Seelos and his Orchestra - Tango del amor.wav
Длина предзазора 0:00:01.78
Пиковый уровень 99.0 %
Качество трека 100.0 %
CRC теста F11BBA20
CRC копии F11BBA20
Копирование... OK
Трек 12
Имя файла C:\Sergei\новая папка\12 - The Accordeonicas - Tango di Garda.wav
Длина предзазора 0:00:01.80
Пиковый уровень 61.1 %
Качество трека 99.9 %
CRC теста 851A3EBC
CRC копии 851A3EBC
Копирование... OK
Трек 13
Имя файла C:\Sergei\новая папка\13 - Ambros Seelos and his Orchestra - Luxemburg Waltz.wav
Длина предзазора 0:00:01.80
Пиковый уровень 87.4 %
Качество трека 100.0 %
CRC теста 9B2259CC
CRC копии 9B2259CC
Копирование... OK
Трек 14
Имя файла C:\Sergei\новая папка\14 - Raymond Lefиvre and his Orchestra - Oh Lady Mary.wav
Длина предзазора 0:00:01.80
Пиковый уровень 64.4 %
Качество трека 100.0 %
CRC теста 71B68154
CRC копии 71B68154
Копирование... OK
Трек 15
Имя файла C:\Sergei\новая папка\15 - Ambros Seelos and his Orchestra - Top Of The World.wav
Длина предзазора 0:00:01.80
Пиковый уровень 72.2 %
Качество трека 100.0 %
CRC теста 7B51C2EF
CRC копии 7B51C2EF
Копирование... OK
Трек 16
Имя файла C:\Sergei\новая папка\16 - Frank Chacksfield and his Orchestra - Give Me The Simple Life.wav
Длина предзазора 0:00:01.80
Пиковый уровень 68.1 %
Качество трека 99.9 %
CRC теста BEA39066
CRC копии BEA39066
Копирование... OK
Трек 17
Имя файла C:\Sergei\новая папка\17 - Hill Bowen and his Orchestra - Miami Beach Rumba.wav
Длина предзазора 0:00:01.80
Пиковый уровень 66.0 %
Качество трека 100.0 %
CRC теста 4715DDB8
CRC копии 4715DDB8
Копирование... OK
Трек 18
Имя файла C:\Sergei\новая папка\18 - Ralph Benatar and his Orchestra - Oh! Carol.wav
Длина предзазора 0:00:01.80
Пиковый уровень 86.9 %
Качество трека 100.0 %
CRC теста 711BC48A
CRC копии 711BC48A
Копирование... OK
Трек 19
Имя файла C:\Sergei\новая папка\19 - Ambros Seelos and his Orchestra - Jeepers Creepers.wav
Длина предзазора 0:00:01.80
Пиковый уровень 91.2 %
Качество трека 100.0 %
CRC теста 426D4F58
CRC копии 426D4F58
Копирование... OK
Трек 20
Имя файла C:\Sergei\новая папка\20 - Claude Blouin and his Orchestra - Lulu's Back In Town.wav
Длина предзазора 0:00:01.80
Пиковый уровень 59.1 %
Качество трека 100.0 %
CRC теста 2356A0DB
CRC копии 2356A0DB
Копирование... OK
Трек 21
Имя файла C:\Sergei\новая папка\21 - Kenny Ball and his Jazzmen - Georgia Swing.wav
Длина предзазора 0:00:01.80
Пиковый уровень 71.3 %
Качество трека 100.0 %
CRC теста 7B9411D1
CRC копии 7B9411D1
Копирование... OK
Трек 22
Имя файла C:\Sergei\новая папка\22 - Kenny King and his Orchestra - Trumpet Swing.wav
Длина предзазора 0:00:01.80
Пиковый уровень 99.5 %
Качество трека 99.9 %
CRC теста C81298CA
CRC копии C81298CA
Копирование... OK
Трек 23
Имя файла C:\Sergei\новая папка\23 - Claude Blouin and his Orchestra - St. Louis Blues.wav
Длина предзазора 0:00:01.80
Пиковый уровень 67.3 %
Качество трека 99.9 %
CRC теста 81E22163
CRC копии 81E22163
Копирование... OK
Трек 24
Имя файла C:\Sergei\новая папка\24 - Billy Vaughn and his Orchestra - When.wav
Длина предзазора 0:00:01.80
Пиковый уровень 94.2 %
Качество трека 99.9 %
CRC теста E99C6D35
CRC копии E99C6D35
Копирование... OK
Ошибок не произошло
Конец отчёта
"Non-compilant CUE"
REM GENRE Instrumental
REM DATE 2011
REM DISCID 590FF518
REM COMMENT "ExactAudioCopy v0.95b3"
PERFORMER "Various"
TITLE "В ритме танца - Движение чувств"
FILE "01 - Claude Blouin and his Orchestra - Siboney.wav" WAVE
TRACK 01 AUDIO
TITLE "Siboney"
PERFORMER "Claude Blouin and his Orchestra"
INDEX 01 00:00:00
TRACK 02 AUDIO
TITLE "Amapola"
PERFORMER "Gary Hughes and his Orchestra"
INDEX 00 03:44:72
FILE "02 - Gary Hughes and his Orchestra - Amapola.wav" WAVE
INDEX 01 00:00:00
TRACK 03 AUDIO
TITLE "Doin' The Cha Cha Cha"
PERFORMER "Hill Bowen and his Orchestra"
INDEX 00 02:54:21
FILE "03 - Hill Bowen and his Orchestra - Doin' The Cha Cha Cha.wav" WAVE
INDEX 01 00:00:00
TRACK 04 AUDIO
TITLE "Sucu Sucu"
PERFORMER "Havana Mambo"
INDEX 00 02:36:12
FILE "04 - Havana Mambo - Sucu Sucu.wav" WAVE
INDEX 01 00:00:00
TRACK 05 AUDIO
TITLE "Just A Gigolo\Ain't Got Nobody"
PERFORMER "Claude Blouin and his Orchestra"
INDEX 00 02:51:26
FILE "05 - Claude Blouin and his Orchestra - Just A Gigolo-Ain't Got Nobody.wav" WAVE
INDEX 01 00:00:00
TRACK 06 AUDIO
TITLE "Mack The Knife"
PERFORMER "Ambros Seelos and his Orchestra"
INDEX 00 03:29:12
FILE "06 - Ambros Seelos and his Orchestra - Mack The Knife.wav" WAVE
INDEX 01 00:00:00
TRACK 07 AUDIO
TITLE "Guaglione"
PERFORMER "Pablo Mendez and his Orchestra"
INDEX 00 03:11:03
FILE "07 - Pablo Mendez and his Orchestra - Guaglione.wav" WAVE
INDEX 01 00:00:00
TRACK 08 AUDIO
TITLE "The Wedding Mambo"
PERFORMER "Claude Blouin and his Orchestra"
INDEX 00 02:31:53
FILE "08 - Claude Blouin and his Orchestra - The Wedding Mambo.wav" WAVE
INDEX 01 00:00:00
TRACK 09 AUDIO
TITLE "Tico-Tico"
PERFORMER "Pablo Mendez and his Orchestra"
INDEX 00 03:01:68
FILE "09 - Pablo Mendez and his Orchestra - Tico-Tico.wav" WAVE
INDEX 01 00:00:00
TRACK 10 AUDIO
TITLE "Amor"
PERFORMER "Claude Blouin, his Orchestra and Singers"
INDEX 00 02:45:55
FILE "10 - Claude Blouin, his Orchestra and Singers - Amor.wav" WAVE
INDEX 01 00:00:00
TRACK 11 AUDIO
TITLE "Tango del amor"
PERFORMER "Ambros Seelos and his Orchestra"
INDEX 00 03:21:29
FILE "11 - Ambros Seelos and his Orchestra - Tango del amor.wav" WAVE
INDEX 01 00:00:00
TRACK 12 AUDIO
TITLE "Tango di Garda"
PERFORMER "The Accordeonicas"
INDEX 00 03:35:53
FILE "12 - The Accordeonicas - Tango di Garda.wav" WAVE
INDEX 01 00:00:00
TRACK 13 AUDIO
TITLE "Luxemburg Waltz"
PERFORMER "Ambros Seelos and his Orchestra"
INDEX 00 02:30:21
FILE "13 - Ambros Seelos and his Orchestra - Luxemburg Waltz.wav" WAVE
INDEX 01 00:00:00
TRACK 14 AUDIO
TITLE "Oh Lady Mary"
PERFORMER "Raymond Lefиvre and his Orchestra"
INDEX 00 02:35:52
FILE "14 - Raymond Lefиvre and his Orchestra - Oh Lady Mary.wav" WAVE
INDEX 01 00:00:00
TRACK 15 AUDIO
TITLE "Top Of The World"
PERFORMER "Ambros Seelos and his Orchestra"
INDEX 00 02:29:40
FILE "15 - Ambros Seelos and his Orchestra - Top Of The World.wav" WAVE
INDEX 01 00:00:00
TRACK 16 AUDIO
TITLE "Give Me The Simple Life"
PERFORMER "Frank Chacksfield and his Orchestra"
INDEX 00 02:46:47
FILE "16 - Frank Chacksfield and his Orchestra - Give Me The Simple Life.wav" WAVE
INDEX 01 00:00:00
TRACK 17 AUDIO
TITLE "Miami Beach Rumba"
PERFORMER "Hill Bowen and his Orchestra"
INDEX 00 02:19:23
FILE "17 - Hill Bowen and his Orchestra - Miami Beach Rumba.wav" WAVE
INDEX 01 00:00:00
TRACK 18 AUDIO
TITLE "Oh! Carol"
PERFORMER "Ralph Benatar and his Orchestra"
INDEX 00 02:45:21
FILE "18 - Ralph Benatar and his Orchestra - Oh! Carol.wav" WAVE
INDEX 01 00:00:00
TRACK 19 AUDIO
TITLE "Jeepers Creepers"
PERFORMER "Ambros Seelos and his Orchestra"
INDEX 00 02:50:20
FILE "19 - Ambros Seelos and his Orchestra - Jeepers Creepers.wav" WAVE
INDEX 01 00:00:00
TRACK 20 AUDIO
TITLE "Lulu's Back In Town"
PERFORMER "Claude Blouin and his Orchestra"
INDEX 00 02:09:07
FILE "20 - Claude Blouin and his Orchestra - Lulu's Back In Town.wav" WAVE
INDEX 01 00:00:00
TRACK 21 AUDIO
TITLE "Georgia Swing"
PERFORMER "Kenny Ball and his Jazzmen"
INDEX 00 01:45:17
FILE "21 - Kenny Ball and his Jazzmen - Georgia Swing.wav" WAVE
INDEX 01 00:00:00
TRACK 22 AUDIO
TITLE "Trumpet Swing"
PERFORMER "Kenny King and his Orchestra"
INDEX 00 02:36:34
FILE "22 - Kenny King and his Orchestra - Trumpet Swing.wav" WAVE
INDEX 01 00:00:00
TRACK 23 AUDIO
TITLE "St. Louis Blues"
PERFORMER "Claude Blouin and his Orchestra"
INDEX 00 02:35:45
FILE "23 - Claude Blouin and his Orchestra - St. Louis Blues.wav" WAVE
INDEX 01 00:00:00
TRACK 24 AUDIO
TITLE "When"
PERFORMER "Billy Vaughn and his Orchestra"
INDEX 00 03:27:03
FILE "24 - Billy Vaughn and his Orchestra - When.wav" WAVE
INDEX 01 00:00:00
"Лог Audiochecker"
AUDIOCHECKER v2.0 beta (build 457) - by Dester - [email protected]
~~~~~~~~~~~~~~~~~~~~~~~~~~~~~~~~~~
-=== НЕ РЕДАКТИРУЙТЕ ЭТОТ ФАЙЛ! ===-
Путь: ...\Движение чувств
01 -=- 01 - Claude Blouin and his Orchestra - Siboney.flac -=- CDDA (100%)
02 -=- 02 - Gary Hughes and his Orchestra - Amapola.flac -=- CDDA (100%)
03 -=- 03 - Hill Bowen and his Orchestra - Doin' The Cha Cha Cha.flac -=- CDDA (100%)
04 -=- 04 - Havana Mambo - Sucu Sucu.flac -=- CDDA (100%)
05 -=- 05 - Claude Blouin and his Orchestra - Just A Gigolo-Ain't Got Nobody.flac -=- CDDA (99%)
06 -=- 06 - Ambros Seelos and his Orchestra - Mack The Knife.flac -=- CDDA (100%)
07 -=- 07 - Pablo Mendez and his Orchestra - Guaglione.flac -=- CDDA (100%)
08 -=- 08 - Claude Blouin and his Orchestra - The Wedding Mambo.flac -=- CDDA (100%)
09 -=- 09 - Pablo Mendez and his Orchestra - Tico-Tico.flac -=- CDDA (100%)
10 -=- 10 - Claude Blouin, his Orchestra and Singers - Amor.flac -=- CDDA (99%)
11 -=- 11 - Ambros Seelos and his Orchestra - Tango del amor.flac -=- CDDA (100%)
12 -=- 12 - The Accordeonicas - Tango di Garda.flac -=- CDDA (100%)
13 -=- 13 - Ambros Seelos and his Orchestra - Luxemburg Waltz.flac -=- CDDA (100%)
14 -=- 14 - Raymond Lefиvre and his Orchestra - Oh Lady Mary.flac -=- MPEG (95%)
15 -=- 15 - Ambros Seelos and his Orchestra - Top Of The World.flac -=- CDDA (100%)
16 -=- 16 - Frank Chacksfield and his Orchestra - Give Me The Simple Life.flac -=- CDDA (100%)
17 -=- 17 - Hill Bowen and his Orchestra - Miami Beach Rumba.flac -=- CDDA (99%)
18 -=- 18 - Ralph Benatar and his Orchestra - Oh! Carol.flac -=- CDDA (100%)
19 -=- 19 - Ambros Seelos and his Orchestra - Jeepers Creepers.flac -=- CDDA (100%)
20 -=- 20 - Claude Blouin and his Orchestra - Lulu's Back In Town.flac -=- CDDA (99%)
21 -=- 21 - Kenny Ball and his Jazzmen - Georgia Swing.flac -=- CDDA (100%)
22 -=- 22 - Kenny King and his Orchestra - Trumpet Swing.flac -=- CDDA (100%)
23 -=- 23 - Claude Blouin and his Orchestra - St. Louis Blues.flac -=- CDDA (100%)
24 -=- 24 - Billy Vaughn and his Orchestra - When.flac -=- CDDA (100%)
Сводка 95,88% CDDA
219074004
Трэклист
01 - Luiz Rodriguez and his Orchestra - Esperanza. (3:35)
02 - Gordon Langford and his Orchestra - La Cucaracha. (2:28)
03 - Georges Jouvin and his Orchestra - Mambo Italiano. (2:01)
04 - Claude Blouin and his Orchestra - Mambo Jambo. (2:48)
05 - Ken Thorne and his Orchestra - Delicado. (3:26)
06 - Ralph Benatar and his Orchestra - Maria no mбs. (3:04)
07 - Gordon Langford and his Orchestra - El Relicario. (2:34)
08 - Nino Nardini and his Orchestra - El Porompompero. (2:40)
09 - Orquestra Tabajara - Samba do Aviгo. (3:27)
10 - Victor Buchino and his Orchestra - Brazil moreno. (2:50)
11 - Manu Comtй with the Brussels Philharmonic- Dirk Brossй, conducto - Mi Buenos Aires querido. (3:11)
12 - Tito Lecuona and his Orchestra - El Negro zumbуn (Anna Rumba). (2:12)
13 - Luis Gonzalez Perez and his Tropical Orchestra - Canciуn de la Serrania. (2:28)
14 - Kenny King and his Orchestra - El Gato Montйs. (3:08)
15 - Carlos Tercero and his Orchestra - En er mundo. (2:08)
16 - Ambros Seelos and his Orchestra - Mambo Fever. (2:33)
17 - Claude Blouin and his Orchestra - Papa Loves Mambo. (2:57)
18 - Claude Blouin and his Orchestra - Mambo No. 5. (2:20)
19 - Vic Flick and his Orchestra - Calido. (2:49)
20 - Ambros Seelos and his Orchestra - Espaсa Caсi. (2:06)
21 - Diego Lopez-Diaz and his Orchestra - South Of The Border. (2:53)
22 - Havana Mambo - Quiйn sera (Sway). (2:31)
”Отчет ЕАС”
Отчёт EAC об извлечении, выполненном 7. февраля 2012, 21:53 для диска:
Various / В ритме танца - В ритме латино
Дисковод: Optiarc DVD RW AD-7203A Adapter: 0 ID: 0
Режим чтения: Достоверный (C2: нет, Точный поток: да, Отключение кэша: да)
Коррекция смещения при чтении: 48
Способность читать области Lead-in и Lead-out : Нет
Выходной формат: C:\Program Files (x86)\FLAC\flac.exe (Пользовательский кодировщик)
320 kBit/s
Дополнительные параметры: -8 -V -T "ARTIST=%a" -T "TITLE=%t" -T "ALBUM=%g" -T "DATE=%y" -T "TRACKNUMBER=%n" -T "GENRE=%m" -T "COMMENT=EAC FLAC -8" %s
Другие параметры:
Заполнение пропущенных сэмплов тишиной : Да
Удаление блоков с тишиной в начале и конце : Нет
Встроенный Win32-интерфейс для Win NT/2000
Трек 1
Имя файла C:\Sergei\новая папка\01 - Luiz Rodriguez and his Orchestra - Esperanza.wav
Длина предзазора 0:00:02.00
Пиковый уровень 69.1 %
Качество трека 100.0 %
CRC теста 6A7ACED9
CRC копии 6A7ACED9
Копирование... OK
Трек 2
Имя файла C:\Sergei\новая папка\02 - Gordon Langford and his Orchestra - La Cucaracha.wav
Длина предзазора 0:00:01.80
Пиковый уровень 88.8 %
Качество трека 100.0 %
CRC теста 5C3C5451
CRC копии 5C3C5451
Копирование... OK
Трек 3
Имя файла C:\Sergei\новая папка\03 - Georges Jouvin and his Orchestra - Mambo Italiano.wav
Длина предзазора 0:00:01.80
Пиковый уровень 99.5 %
Качество трека 100.0 %
CRC теста FB63FC1D
CRC копии FB63FC1D
Копирование... OK
Трек 4
Имя файла C:\Sergei\новая папка\04 - Claude Blouin and his Orchestra - Mambo Jambo.wav
Длина предзазора 0:00:01.80
Пиковый уровень 98.7 %
Качество трека 100.0 %
CRC теста 7124512D
CRC копии 7124512D
Копирование... OK
Трек 5
Имя файла C:\Sergei\новая папка\05 - Ken Thorne and his Orchestra - Delicado.wav
Длина предзазора 0:00:01.80
Пиковый уровень 81.1 %
Качество трека 100.0 %
CRC теста A65C1B2A
CRC копии A65C1B2A
Копирование... OK
Трек 6
Имя файла C:\Sergei\новая папка\06 - Ralph Benatar and his Orchestra - Maria no mбs.wav
Длина предзазора 0:00:01.80
Пиковый уровень 99.0 %
Качество трека 100.0 %
CRC теста 0F5B28A9
CRC копии 0F5B28A9
Копирование... OK
Трек 7
Имя файла C:\Sergei\новая папка\07 - Gordon Langford and his Orchestra - El Relicario.wav
Длина предзазора 0:00:01.80
Пиковый уровень 99.1 %
Качество трека 99.9 %
CRC теста EA08C121
CRC копии EA08C121
Копирование... OK
Трек 8
Имя файла C:\Sergei\новая папка\08 - Nino Nardini and his Orchestra - El Porompompero.wav
Длина предзазора 0:00:01.80
Пиковый уровень 87.8 %
Качество трека 100.0 %
CRC теста 71E071BE
CRC копии 71E071BE
Копирование... OK
Трек 9
Имя файла C:\Sergei\новая папка\09 - Orquestra Tabajara - Samba do Aviгo.wav
Длина предзазора 0:00:01.80
Пиковый уровень 72.5 %
Качество трека 100.0 %
CRC теста 9A903A20
CRC копии 9A903A20
Копирование... OK
Трек 10
Имя файла C:\Sergei\новая папка\10 - Victor Buchino and his Orchestra - Brazil moreno.wav
Длина предзазора 0:00:01.80
Пиковый уровень 92.8 %
Качество трека 100.0 %
CRC теста 6E5756F1
CRC копии 6E5756F1
Копирование... OK
Трек 11
Имя файла C:\Sergei\новая папка\11 - Manu Comtй with the Brussels Philharmonic- Dirk Brossй, conducto - Mi Buenos Aires querido.wav
Длина предзазора 0:00:01.80
Пиковый уровень 52.2 %
Качество трека 99.9 %
CRC теста 97DFFA72
CRC копии 97DFFA72
Копирование... OK
Трек 12
Имя файла C:\Sergei\новая папка\12 - Tito Lecuona and his Orchestra - El Negro zumbуn (Anna Rumba).wav
Длина предзазора 0:00:01.80
Пиковый уровень 79.5 %
Качество трека 100.0 %
CRC теста 3CB29B9F
CRC копии 3CB29B9F
Копирование... OK
Трек 13
Имя файла C:\Sergei\новая папка\13 - Luis Gonzalez Perez and his Tropical Orchestra - Canciуn de la Serrania.wav
Длина предзазора 0:00:01.80
Пиковый уровень 96.3 %
Качество трека 100.0 %
CRC теста 029BE107
CRC копии 029BE107
Копирование... OK
Трек 14
Имя файла C:\Sergei\новая папка\14 - Kenny King and his Orchestra - El Gato Montйs.wav
Длина предзазора 0:00:01.80
Пиковый уровень 99.5 %
Качество трека 100.0 %
CRC теста AA5C463C
CRC копии AA5C463C
Копирование... OK
Трек 15
Имя файла C:\Sergei\новая папка\15 - Carlos Tercero and his Orchestra - En er mundo.wav
Длина предзазора 0:00:01.80
Пиковый уровень 74.6 %
Качество трека 100.0 %
CRC теста 86EA165D
CRC копии 86EA165D
Копирование... OK
Трек 16
Имя файла C:\Sergei\новая папка\16 - Ambros Seelos and his Orchestra - Mambo Fever.wav
Длина предзазора 0:00:01.80
Пиковый уровень 80.2 %
Качество трека 100.0 %
CRC теста E14653C1
CRC копии E14653C1
Копирование... OK
Трек 17
Имя файла C:\Sergei\новая папка\17 - Claude Blouin and his Orchestra - Papa Loves Mambo.wav
Длина предзазора 0:00:01.78
Пиковый уровень 80.3 %
Качество трека 99.9 %
CRC теста 50EB744D
CRC копии 50EB744D
Копирование... OK
Трек 18
Имя файла C:\Sergei\новая папка\18 - Claude Blouin and his Orchestra - Mambo No. 5.wav
Длина предзазора 0:00:01.80
Пиковый уровень 96.0 %
Качество трека 100.0 %
CRC теста B294D0AB
CRC копии B294D0AB
Копирование... OK
Трек 19
Имя файла C:\Sergei\новая папка\19 - Vic Flick and his Orchestra - Calido.wav
Длина предзазора 0:00:01.80
Пиковый уровень 65.6 %
Качество трека 100.0 %
CRC теста CA1871B2
CRC копии CA1871B2
Копирование... OK
Трек 20
Имя файла C:\Sergei\новая папка\20 - Ambros Seelos and his Orchestra - Espaсa Caсi.wav
Длина предзазора 0:00:01.78
Пиковый уровень 88.6 %
Качество трека 100.0 %
CRC теста 3CC36148
CRC копии 3CC36148
Копирование... OK
Трек 21
Имя файла C:\Sergei\новая папка\21 - Diego Lopez-Diaz and his Orchestra - South Of The Border.wav
Длина предзазора 0:00:01.80
Пиковый уровень 99.5 %
Качество трека 100.0 %
CRC теста EE4FC4AF
CRC копии EE4FC4AF
Копирование... OK
Трек 22
Имя файла C:\Sergei\новая папка\22 - Havana Mambo - Quiйn sera (Sway).wav
Длина предзазора 0:00:01.80
Пиковый уровень 72.6 %
Качество трека 100.0 %
CRC теста 58D81682
CRC копии 58D81682
Копирование... OK
Ошибок не произошло
Конец отчёта
"Non-compilant CUE"
REM GENRE Instrumental
REM DATE 2011
REM DISCID 580E2216
REM COMMENT "ExactAudioCopy v0.95b3"
PERFORMER "Various"
TITLE "В ритме танца - В ритме латино"
FILE "01 - Luiz Rodriguez and his Orchestra - Esperanza.wav" WAVE
TRACK 01 AUDIO
TITLE "Esperanza"
PERFORMER "Luiz Rodriguez and his Orchestra"
INDEX 01 00:00:00
TRACK 02 AUDIO
TITLE "La Cucaracha"
PERFORMER "Gordon Langford and his Orchestra"
INDEX 00 03:33:68
FILE "02 - Gordon Langford and his Orchestra - La Cucaracha.wav" WAVE
INDEX 01 00:00:00
TRACK 03 AUDIO
TITLE "Mambo Italiano"
PERFORMER "Georges Jouvin and his Orchestra"
INDEX 00 02:27:04
FILE "03 - Georges Jouvin and his Orchestra - Mambo Italiano.wav" WAVE
INDEX 01 00:00:00
TRACK 04 AUDIO
TITLE "Mambo Jambo"
PERFORMER "Claude Blouin and his Orchestra"
INDEX 00 02:00:08
FILE "04 - Claude Blouin and his Orchestra - Mambo Jambo.wav" WAVE
INDEX 01 00:00:00
TRACK 05 AUDIO
TITLE "Delicado"
PERFORMER "Ken Thorne and his Orchestra"
INDEX 00 02:46:30
FILE "05 - Ken Thorne and his Orchestra - Delicado.wav" WAVE
INDEX 01 00:00:00
TRACK 06 AUDIO
TITLE "Maria no mбs"
PERFORMER "Ralph Benatar and his Orchestra"
INDEX 00 03:24:32
FILE "06 - Ralph Benatar and his Orchestra - Maria no mбs.wav" WAVE
INDEX 01 00:00:00
TRACK 07 AUDIO
TITLE "El Relicario"
PERFORMER "Gordon Langford and his Orchestra"
INDEX 00 03:02:15
FILE "07 - Gordon Langford and his Orchestra - El Relicario.wav" WAVE
INDEX 01 00:00:00
TRACK 08 AUDIO
TITLE "El Porompompero"
PERFORMER "Nino Nardini and his Orchestra"
INDEX 00 02:32:17
FILE "08 - Nino Nardini and his Orchestra - El Porompompero.wav" WAVE
INDEX 01 00:00:00
TRACK 09 AUDIO
TITLE "Samba do Aviгo"
PERFORMER "Orquestra Tabajara"
INDEX 00 02:38:61
FILE "09 - Orquestra Tabajara - Samba do Aviгo.wav" WAVE
INDEX 01 00:00:00
TRACK 10 AUDIO
TITLE "Brazil moreno"
PERFORMER "Victor Buchino and his Orchestra"
INDEX 00 03:25:15
FILE "10 - Victor Buchino and his Orchestra - Brazil moreno.wav" WAVE
INDEX 01 00:00:00
TRACK 11 AUDIO
TITLE "Mi Buenos Aires querido"
PERFORMER "Manu Comtй with the Brussels Philharmonic\ Dirk Brossй, conducto"
INDEX 00 02:48:59
FILE "11 - Manu Comtй with the Brussels Philharmonic- Dirk Brossй, conducto - Mi Buenos Aires querido.wav" WAVE
INDEX 01 00:00:00
TRACK 12 AUDIO
TITLE "El Negro zumbуn (Anna Rumba)"
PERFORMER "Tito Lecuona and his Orchestra"
INDEX 00 03:09:58
FILE "12 - Tito Lecuona and his Orchestra - El Negro zumbуn (Anna Rumba).wav" WAVE
INDEX 01 00:00:00
TRACK 13 AUDIO
TITLE "Canciуn de la Serrania"
PERFORMER "Luis Gonzalez Perez and his Tropical Orchestra"
INDEX 00 02:11:11
FILE "13 - Luis Gonzalez Perez and his Tropical Orchestra - Canciуn de la Serrania.wav" WAVE
INDEX 01 00:00:00
TRACK 14 AUDIO
TITLE "El Gato Montйs"
PERFORMER "Kenny King and his Orchestra"
INDEX 00 02:26:32
FILE "14 - Kenny King and his Orchestra - El Gato Montйs.wav" WAVE
INDEX 01 00:00:00
TRACK 15 AUDIO
TITLE "En er mundo"
PERFORMER "Carlos Tercero and his Orchestra"
INDEX 00 03:06:19
FILE "15 - Carlos Tercero and his Orchestra - En er mundo.wav" WAVE
INDEX 01 00:00:00
TRACK 16 AUDIO
TITLE "Mambo Fever"
PERFORMER "Ambros Seelos and his Orchestra"
INDEX 00 02:06:41
FILE "16 - Ambros Seelos and his Orchestra - Mambo Fever.wav" WAVE
INDEX 01 00:00:00
TRACK 17 AUDIO
TITLE "Papa Loves Mambo"
PERFORMER "Claude Blouin and his Orchestra"
INDEX 00 02:31:16
FILE "17 - Claude Blouin and his Orchestra - Papa Loves Mambo.wav" WAVE
INDEX 01 00:00:00
TRACK 18 AUDIO
TITLE "Mambo No. 5"
PERFORMER "Claude Blouin and his Orchestra"
INDEX 00 02:55:38
FILE "18 - Claude Blouin and his Orchestra - Mambo No. 5.wav" WAVE
INDEX 01 00:00:00
TRACK 19 AUDIO
TITLE "Calido"
PERFORMER "Vic Flick and his Orchestra"
INDEX 00 02:18:68
FILE "19 - Vic Flick and his Orchestra - Calido.wav" WAVE
INDEX 01 00:00:00
TRACK 20 AUDIO
TITLE "Espaсa Caсi"
PERFORMER "Ambros Seelos and his Orchestra"
INDEX 00 02:47:50
FILE "20 - Ambros Seelos and his Orchestra - Espaсa Caсi.wav" WAVE
INDEX 01 00:00:00
TRACK 21 AUDIO
TITLE "South Of The Border"
PERFORMER "Diego Lopez-Diaz and his Orchestra"
INDEX 00 02:05:06
FILE "21 - Diego Lopez-Diaz and his Orchestra - South Of The Border.wav" WAVE
INDEX 01 00:00:00
TRACK 22 AUDIO
TITLE "Quiйn sera (Sway)"
PERFORMER "Havana Mambo"
INDEX 00 02:51:47
FILE "22 - Havana Mambo - Quiйn sera (Sway).wav" WAVE
INDEX 01 00:00:00
"Лог Audiochecker"
AUDIOCHECKER v2.0 beta (build 457) - by Dester - [email protected]
~~~~~~~~~~~~~~~~~~~~~~~~~~~~~~~~~~
-=== НЕ РЕДАКТИРУЙТЕ ЭТОТ ФАЙЛ! ===-
Путь: ...\В ритме латино
01 -=- 01 - Luiz Rodriguez and his Orchestra - Esperanza.flac -=- CDDA (100%)
02 -=- 02 - Gordon Langford and his Orchestra - La Cucaracha.flac -=- ERROR
03 -=- 03 - Georges Jouvin and his Orchestra - Mambo Italiano.flac -=- MPEG (79%)
04 -=- 04 - Claude Blouin and his Orchestra - Mambo Jambo.flac -=- CDDA (100%)
05 -=- 05 - Ken Thorne and his Orchestra - Delicado.flac -=- CDDA (99%)
06 -=- 06 - Ralph Benatar and his Orchestra - Maria no mбs.flac -=- CDDA (100%)
07 -=- 07 - Gordon Langford and his Orchestra - El Relicario.flac -=- CDDA (100%)
08 -=- 08 - Nino Nardini and his Orchestra - El Porompompero.flac -=- CDDA (100%)
09 -=- 09 - Orquestra Tabajara - Samba do Aviгo.flac -=- CDDA (100%)
10 -=- 10 - Victor Buchino and his Orchestra - Brazil moreno.flac -=- CDDA (100%)
11 -=- 11 - Manu Comtй with the Brussels Philharmonic- Dirk Brossй, conducto - Mi Buenos Aires querido.flac -=- MPEG (89%)
12 -=- 12 - Tito Lecuona and his Orchestra - El Negro zumbуn (Anna Rumba).flac -=- CDDA (100%)
13 -=- 13 - Luis Gonzalez Perez and his Tropical Orchestra - Canciуn de la Serrania.flac -=- CDDA (100%)
14 -=- 14 - Kenny King and his Orchestra - El Gato Montйs.flac -=- CDDA (100%)
15 -=- 15 - Carlos Tercero and his Orchestra - En er mundo.flac -=- CDDA (99%)
16 -=- 16 - Ambros Seelos and his Orchestra - Mambo Fever.flac -=- CDDA (100%)
17 -=- 17 - Claude Blouin and his Orchestra - Papa Loves Mambo.flac -=- CDDA (100%)
18 -=- 18 - Claude Blouin and his Orchestra - Mambo No. 5.flac -=- CDDA (100%)
19 -=- 19 - Vic Flick and his Orchestra - Calido.flac -=- CDDA (99%)
20 -=- 20 - Ambros Seelos and his Orchestra - Espaсa Caсi.flac -=- CDDA (100%)
21 -=- 21 - Diego Lopez-Diaz and his Orchestra - South Of The Border.flac -=- CDDA (100%)
22 -=- 22 - Havana Mambo - Quiйn sera (Sway).flac -=- CDDA (100%)
Сводка 91,86% CDDA
197741396
Трэклист
01 - Claude Blouin and his Orchestra - My Prayer. (3:00)
02 - Ambros Seelos and his Orchestra - Yours (Quiйreme mucho). (2:42)
03 - Peter Hope and his Orchestra - Mexicali Rose. (2:28)
04 - Claude Blouin and his Orchestra - Silver Moon. (2:58)
05 - Alberto Mendez and his Orchestra - Spanish Eyes. (2:55)
06 - Gordon Langford and his Orchestra - Stars Fell On Alabama. (2:59)
07 - The Victor Silvester Orchestra - Romantica. (3:17)
08 - Ray Davis and his Orchestra - It Was A Very Good Year. (2:50)
09 - Claude Blouin and his Orchestra - Poinciana. (3:29)
10 - Ambros Seelos and his Orchestra - Memory. (3:12)
11 - Roberto Delgado and his Orchestra - Schneewalzer (Snow Waltz). (2:55)
12 - Hill Bowen and his Orchestra - Under Paris Skies. (3:01)
13 - Roberto Menescal and his Orchestra - Mбs que nada. (3:07)
14 - Ambros Seelos and his Orchestra - Limelight. (2:47)
15 - David Alexander and his Orchestra - Silver Threads Among The Gold. (3:23)
16 - Georges Jouvin and his Orchestra - Tea For Two. (2:11)
17 - Harry James and his Orchestra - Time After Tilme. (2:10)
18 - Claude Blouin, his Orchestra and Singers - Pour vivre ensemble (Il faut savoir aimer). (3:37)
19 - Brusssels Philharmonic- Dirk Brossй, conductor - My Resistance Is Low. (2:52)
20 - Claude Blouin and his Orchestra - Till. (3:30)
21 - Claude Blouin, his Orchestra and Singers - Wish You Were Here. (3:34)
22 - Frank Chacksfield and his Orchestra - I'll Be With You In Apple Blossom Time. (1:55)
23 - Ambros Seelos and his Orchestra - Greensleeves. (2:29)
24 - Joe 'Mr. Piano' Henderson and Singers - Let The Rest Of The World Go By. (1:55)
”Отчет ЕАС”
Отчёт EAC об извлечении, выполненном 7. февраля 2012, 20:00 для диска:
Various / В ритме танца - Я буду помнить
Дисковод: Optiarc DVD RW AD-7203A Adapter: 0 ID: 0
Режим чтения: Достоверный (C2: нет, Точный поток: да, Отключение кэша: да)
Коррекция смещения при чтении: 48
Способность читать области Lead-in и Lead-out : Нет
Выходной формат: C:\Program Files (x86)\FLAC\flac.exe (Пользовательский кодировщик)
320 kBit/s
Дополнительные параметры: -8 -V -T "ARTIST=%a" -T "TITLE=%t" -T "ALBUM=%g" -T "DATE=%y" -T "TRACKNUMBER=%n" -T "GENRE=%m" -T "COMMENT=EAC FLAC -8" %s
Другие параметры:
Заполнение пропущенных сэмплов тишиной : Да
Удаление блоков с тишиной в начале и конце : Нет
Встроенный Win32-интерфейс для Win NT/2000
Трек 1
Имя файла C:\Sergei\новая папка\01 - Claude Blouin and his Orchestra - My Prayer.wav
Длина предзазора 0:00:02.00
Пиковый уровень 64.3 %
Качество трека 99.9 %
CRC теста 73CE7EC0
CRC копии 73CE7EC0
Копирование... OK
Трек 2
Имя файла C:\Sergei\новая папка\02 - Ambros Seelos and his Orchestra - Yours (Quiйreme mucho).wav
Длина предзазора 0:00:01.80
Пиковый уровень 87.5 %
Качество трека 100.0 %
CRC теста CA751554
CRC копии CA751554
Копирование... OK
Трек 3
Имя файла C:\Sergei\новая папка\03 - Peter Hope and his Orchestra - Mexicali Rose.wav
Длина предзазора 0:00:01.80
Пиковый уровень 95.7 %
Качество трека 100.0 %
CRC теста 4BB4E99A
CRC копии 4BB4E99A
Копирование... OK
Трек 4
Имя файла C:\Sergei\новая папка\04 - Claude Blouin and his Orchestra - Silver Moon.wav
Длина предзазора 0:00:01.80
Пиковый уровень 61.3 %
Качество трека 100.0 %
CRC теста 24E7D57B
CRC копии 24E7D57B
Копирование... OK
Трек 5
Имя файла C:\Sergei\новая папка\05 - Alberto Mendez and his Orchestra - Spanish Eyes.wav
Длина предзазора 0:00:01.80
Пиковый уровень 71.1 %
Качество трека 100.0 %
CRC теста DEBE9448
CRC копии DEBE9448
Копирование... OK
Трек 6
Имя файла C:\Sergei\новая папка\06 - Gordon Langford and his Orchestra - Stars Fell On Alabama.wav
Длина предзазора 0:00:01.80
Пиковый уровень 78.5 %
Качество трека 100.0 %
CRC теста 03372CAD
CRC копии 03372CAD
Копирование... OK
Трек 7
Имя файла C:\Sergei\новая папка\07 - The Victor Silvester Orchestra - Romantica.wav
Длина предзазора 0:00:01.80
Пиковый уровень 73.4 %
Качество трека 100.0 %
CRC теста 3593F88B
CRC копии 3593F88B
Копирование... OK
Трек 8
Имя файла C:\Sergei\новая папка\08 - Ray Davis and his Orchestra - It Was A Very Good Year.wav
Длина предзазора 0:00:01.80
Пиковый уровень 82.9 %
Качество трека 100.0 %
CRC теста 13F8D4AE
CRC копии 13F8D4AE
Копирование... OK
Трек 9
Имя файла C:\Sergei\новая папка\09 - Claude Blouin and his Orchestra - Poinciana.wav
Длина предзазора 0:00:01.80
Пиковый уровень 57.9 %
Качество трека 100.0 %
CRC теста 98E33EEE
CRC копии 98E33EEE
Копирование... OK
Трек 10
Имя файла C:\Sergei\новая папка\10 - Ambros Seelos and his Orchestra - Memory.wav
Длина предзазора 0:00:01.80
Пиковый уровень 94.2 %
Качество трека 99.9 %
CRC теста 1BA97011
CRC копии 1BA97011
Копирование... OK
Трек 11
Имя файла C:\Sergei\новая папка\11 - Roberto Delgado and his Orchestra - Schneewalzer (Snow Waltz).wav
Длина предзазора 0:00:01.80
Пиковый уровень 84.4 %
Качество трека 100.0 %
CRC теста 059B8701
CRC копии 059B8701
Копирование... OK
Трек 12
Имя файла C:\Sergei\новая папка\12 - Hill Bowen and his Orchestra - Under Paris Skies.wav
Длина предзазора 0:00:01.80
Пиковый уровень 82.1 %
Качество трека 100.0 %
CRC теста A9FAEA79
CRC копии A9FAEA79
Копирование... OK
Трек 13
Имя файла C:\Sergei\новая папка\13 - Roberto Menescal and his Orchestra - Mбs que nada.wav
Длина предзазора 0:00:01.80
Пиковый уровень 54.8 %
Качество трека 100.0 %
CRC теста 14CDCA4D
CRC копии 14CDCA4D
Копирование... OK
Трек 14
Имя файла C:\Sergei\новая папка\14 - Ambros Seelos and his Orchestra - Limelight.wav
Длина предзазора 0:00:01.80
Пиковый уровень 79.8 %
Качество трека 100.0 %
CRC теста E1664EB7
CRC копии E1664EB7
Копирование... OK
Трек 15
Имя файла C:\Sergei\новая папка\15 - David Alexander and his Orchestra - Silver Threads Among The Gold.wav
Длина предзазора 0:00:01.80
Пиковый уровень 66.0 %
Качество трека 100.0 %
CRC теста 596AF9BE
CRC копии 596AF9BE
Копирование... OK
Трек 16
Имя файла C:\Sergei\новая папка\16 - Georges Jouvin and his Orchestra - Tea For Two.wav
Длина предзазора 0:00:01.80
Пиковый уровень 90.3 %
Качество трека 100.0 %
CRC теста 233CCD23
CRC копии 233CCD23
Копирование... OK
Трек 17
Имя файла C:\Sergei\новая папка\17 - Harry James and his Orchestra - Time After Tilme.wav
Длина предзазора 0:00:01.80
Пиковый уровень 68.5 %
Качество трека 100.0 %
CRC теста 45ED0AEA
CRC копии 45ED0AEA
Копирование... OK
Трек 18
Имя файла C:\Sergei\новая папка\18 - Claude Blouin, his Orchestra and Singers - Pour vivre ensemble (Il faut savoir aimer).wav
Длина предзазора 0:00:01.80
Пиковый уровень 85.1 %
Качество трека 100.0 %
CRC теста 92B064E6
CRC копии 92B064E6
Копирование... OK
Трек 19
Имя файла C:\Sergei\новая папка\19 - Brusssels Philharmonic- Dirk Brossй, conductor - My Resistance Is Low.wav
Длина предзазора 0:00:01.80
Пиковый уровень 98.8 %
Качество трека 100.0 %
CRC теста 77ADDECD
CRC копии 77ADDECD
Копирование... OK
Трек 20
Имя файла C:\Sergei\новая папка\20 - Claude Blouin and his Orchestra - Till.wav
Длина предзазора 0:00:01.80
Пиковый уровень 66.1 %
Качество трека 100.0 %
CRC теста EFBDF0C0
CRC копии EFBDF0C0
Копирование... OK
Трек 21
Имя файла C:\Sergei\новая папка\21 - Claude Blouin, his Orchestra and Singers - Wish You Were Here.wav
Длина предзазора 0:00:01.80
Пиковый уровень 69.9 %
Качество трека 100.0 %
CRC теста 57FDDBB6
CRC копии 57FDDBB6
Копирование... OK
Трек 22
Имя файла C:\Sergei\новая папка\22 - Frank Chacksfield and his Orchestra - I'll Be With You In Apple Blossom Time.wav
Длина предзазора 0:00:01.80
Пиковый уровень 96.3 %
Качество трека 100.0 %
CRC теста 1E32C5C2
CRC копии 1E32C5C2
Копирование... OK
Трек 23
Имя файла C:\Sergei\новая папка\23 - Ambros Seelos and his Orchestra - Greensleeves.wav
Длина предзазора 0:00:01.80
Пиковый уровень 81.7 %
Качество трека 100.0 %
CRC теста B84D6D17
CRC копии B84D6D17
Копирование... OK
Трек 24
Имя файла C:\Sergei\новая папка\24 - Joe 'Mr. Piano' Henderson and Singers - Let The Rest Of The World Go By.wav
Длина предзазора 0:00:01.80
Пиковый уровень 82.9 %
Качество трека 100.0 %
CRC теста 6BB3C499
CRC копии 6BB3C499
Копирование... OK
Ошибок не произошло
Конец отчёта
"Non-compilant CUE"
REM GENRE Instrumental
REM DATE 2011
REM DISCID 69104718
REM COMMENT "ExactAudioCopy v0.95b3"
PERFORMER "Various"
TITLE "В ритме танца - Я буду помнить"
FILE "01 - Claude Blouin and his Orchestra - My Prayer.wav" WAVE
TRACK 01 AUDIO
TITLE "My Prayer"
PERFORMER "Claude Blouin and his Orchestra"
INDEX 01 00:00:00
TRACK 02 AUDIO
TITLE "Yours (Quiйreme mucho)"
PERFORMER "Ambros Seelos and his Orchestra"
INDEX 00 02:58:38
FILE "02 - Ambros Seelos and his Orchestra - Yours (Quiйreme mucho).wav" WAVE
INDEX 01 00:00:00
TRACK 03 AUDIO
TITLE "Mexicali Rose"
PERFORMER "Peter Hope and his Orchestra"
INDEX 00 02:40:62
FILE "03 - Peter Hope and his Orchestra - Mexicali Rose.wav" WAVE
INDEX 01 00:00:00
TRACK 04 AUDIO
TITLE "Silver Moon"
PERFORMER "Claude Blouin and his Orchestra"
INDEX 00 02:26:43
FILE "04 - Claude Blouin and his Orchestra - Silver Moon.wav" WAVE
INDEX 01 00:00:00
TRACK 05 AUDIO
TITLE "Spanish Eyes"
PERFORMER "Alberto Mendez and his Orchestra"
INDEX 00 02:56:66
FILE "05 - Alberto Mendez and his Orchestra - Spanish Eyes.wav" WAVE
INDEX 01 00:00:00
TRACK 06 AUDIO
TITLE "Stars Fell On Alabama"
PERFORMER "Gordon Langford and his Orchestra"
INDEX 00 02:54:03
FILE "06 - Gordon Langford and his Orchestra - Stars Fell On Alabama.wav" WAVE
INDEX 01 00:00:00
TRACK 07 AUDIO
TITLE "Romantica"
PERFORMER "The Victor Silvester Orchestra"
INDEX 00 02:57:44
FILE "07 - The Victor Silvester Orchestra - Romantica.wav" WAVE
INDEX 01 00:00:00
TRACK 08 AUDIO
TITLE "It Was A Very Good Year"
PERFORMER "Ray Davis and his Orchestra"
INDEX 00 03:15:49
FILE "08 - Ray Davis and his Orchestra - It Was A Very Good Year.wav" WAVE
INDEX 01 00:00:00
TRACK 09 AUDIO
TITLE "Poinciana"
PERFORMER "Claude Blouin and his Orchestra"
INDEX 00 02:48:60
FILE "09 - Claude Blouin and his Orchestra - Poinciana.wav" WAVE
INDEX 01 00:00:00
TRACK 10 AUDIO
TITLE "Memory"
PERFORMER "Ambros Seelos and his Orchestra"
INDEX 00 03:27:74
FILE "10 - Ambros Seelos and his Orchestra - Memory.wav" WAVE
INDEX 01 00:00:00
TRACK 11 AUDIO
TITLE "Schneewalzer (Snow Waltz)"
PERFORMER "Roberto Delgado and his Orchestra"
INDEX 00 03:10:59
FILE "11 - Roberto Delgado and his Orchestra - Schneewalzer (Snow Waltz).wav" WAVE
INDEX 01 00:00:00
TRACK 12 AUDIO
TITLE "Under Paris Skies"
PERFORMER "Hill Bowen and his Orchestra"
INDEX 00 02:53:24
FILE "12 - Hill Bowen and his Orchestra - Under Paris Skies.wav" WAVE
INDEX 01 00:00:00
TRACK 13 AUDIO
TITLE "Mбs que nada"
PERFORMER "Roberto Menescal and his Orchestra"
INDEX 00 02:59:69
FILE "13 - Roberto Menescal and his Orchestra - Mбs que nada.wav" WAVE
INDEX 01 00:00:00
TRACK 14 AUDIO
TITLE "Limelight"
PERFORMER "Ambros Seelos and his Orchestra"
INDEX 00 03:05:52
FILE "14 - Ambros Seelos and his Orchestra - Limelight.wav" WAVE
INDEX 01 00:00:00
TRACK 15 AUDIO
TITLE "Silver Threads Among The Gold"
PERFORMER "David Alexander and his Orchestra"
INDEX 00 02:45:31
FILE "15 - David Alexander and his Orchestra - Silver Threads Among The Gold.wav" WAVE
INDEX 01 00:00:00
TRACK 16 AUDIO
TITLE "Tea For Two"
PERFORMER "Georges Jouvin and his Orchestra"
INDEX 00 03:21:17
FILE "16 - Georges Jouvin and his Orchestra - Tea For Two.wav" WAVE
INDEX 01 00:00:00
TRACK 17 AUDIO
TITLE "Time After Tilme"
PERFORMER "Harry James and his Orchestra"
INDEX 00 02:10:04
FILE "17 - Harry James and his Orchestra - Time After Tilme.wav" WAVE
INDEX 01 00:00:00
TRACK 18 AUDIO
TITLE "Pour vivre ensemble (Il faut savoir aimer)"
PERFORMER "Claude Blouin, his Orchestra and Singers"
INDEX 00 02:08:66
FILE "18 - Claude Blouin, his Orchestra and Singers - Pour vivre ensemble (Il faut savoir aimer).wav" WAVE
INDEX 01 00:00:00
TRACK 19 AUDIO
TITLE "My Resistance Is Low"
PERFORMER "Brusssels Philharmonic\ Dirk Brossй, conductor"
INDEX 00 03:35:31
FILE "19 - Brusssels Philharmonic- Dirk Brossй, conductor - My Resistance Is Low.wav" WAVE
INDEX 01 00:00:00
TRACK 20 AUDIO
TITLE "Till"
PERFORMER "Claude Blouin and his Orchestra"
INDEX 00 02:50:29
FILE "20 - Claude Blouin and his Orchestra - Till.wav" WAVE
INDEX 01 00:00:00
TRACK 21 AUDIO
TITLE "Wish You Were Here"
PERFORMER "Claude Blouin, his Orchestra and Singers"
INDEX 00 03:28:41
FILE "21 - Claude Blouin, his Orchestra and Singers - Wish You Were Here.wav" WAVE
INDEX 01 00:00:00
TRACK 22 AUDIO
TITLE "I'll Be With You In Apple Blossom Time"
PERFORMER "Frank Chacksfield and his Orchestra"
INDEX 00 03:33:07
FILE "22 - Frank Chacksfield and his Orchestra - I'll Be With You In Apple Blossom Time.wav" WAVE
INDEX 01 00:00:00
TRACK 23 AUDIO
TITLE "Greensleeves"
PERFORMER "Ambros Seelos and his Orchestra"
INDEX 00 01:53:33
FILE "23 - Ambros Seelos and his Orchestra - Greensleeves.wav" WAVE
INDEX 01 00:00:00
TRACK 24 AUDIO
TITLE "Let The Rest Of The World Go By"
PERFORMER "Joe 'Mr. Piano' Henderson and Singers"
INDEX 00 02:28:12
FILE "24 - Joe 'Mr. Piano' Henderson and Singers - Let The Rest Of The World Go By.wav" WAVE
INDEX 01 00:00:00
"Лог Audiochecker"
AUDIOCHECKER v2.0 beta (build 457) - by Dester - [email protected]
~~~~~~~~~~~~~~~~~~~~~~~~~~~~~~~~~~
-=== НЕ РЕДАКТИРУЙТЕ ЭТОТ ФАЙЛ! ===-
Путь: ...\Я буду помнить
01 -=- 01 - Claude Blouin and his Orchestra - My Prayer.flac -=- CDDA (99%)
02 -=- 02 - Ambros Seelos and his Orchestra - Yours (Quiйreme mucho).flac -=- CDDA (99%)
03 -=- 03 - Peter Hope and his Orchestra - Mexicali Rose.flac -=- CDDA (100%)
04 -=- 04 - Claude Blouin and his Orchestra - Silver Moon.flac -=- CDDA (100%)
05 -=- 05 - Alberto Mendez and his Orchestra - Spanish Eyes.flac -=- CDDA (100%)
06 -=- 06 - Gordon Langford and his Orchestra - Stars Fell On Alabama.flac -=- CDDA (100%)
07 -=- 07 - The Victor Silvester Orchestra - Romantica.flac -=- CDDA (100%)
08 -=- 08 - Ray Davis and his Orchestra - It Was A Very Good Year.flac -=- CDDA (100%)
09 -=- 09 - Claude Blouin and his Orchestra - Poinciana.flac -=- CDDA (99%)
10 -=- 10 - Ambros Seelos and his Orchestra - Memory.flac -=- CDDA (100%)
11 -=- 11 - Roberto Delgado and his Orchestra - Schneewalzer (Snow Waltz).flac -=- CDDA (100%)
12 -=- 12 - Hill Bowen and his Orchestra - Under Paris Skies.flac -=- CDDA (100%)
13 -=- 13 - Roberto Menescal and his Orchestra - Mбs que nada.flac -=- CDDA (100%)
14 -=- 14 - Ambros Seelos and his Orchestra - Limelight.flac -=- CDDA (100%)
15 -=- 15 - David Alexander and his Orchestra - Silver Threads Among The Gold.flac -=- CDDA (100%)
16 -=- 16 - Georges Jouvin and his Orchestra - Tea For Two.flac -=- CDDA (100%)
17 -=- 17 - Harry James and his Orchestra - Time After Tilme.flac -=- CDDA (100%)
18 -=- 18 - Claude Blouin, his Orchestra and Singers - Pour vivre ensemble (Il faut savoir aimer).flac -=- CDDA (100%)
19 -=- 19 - Brusssels Philharmonic- Dirk Brossй, conductor - My Resistance Is Low.flac -=- CDDA (42%)
20 -=- 20 - Claude Blouin and his Orchestra - Till.flac -=- CDDA (100%)
21 -=- 21 - Claude Blouin, his Orchestra and Singers - Wish You Were Here.flac -=- CDDA (100%)
22 -=- 22 - Frank Chacksfield and his Orchestra - I'll Be With You In Apple Blossom Time.flac -=- CDDA (100%)
23 -=- 23 - Ambros Seelos and his Orchestra - Greensleeves.flac -=- CDDA (100%)
24 -=- 24 - Joe 'Mr. Piano' Henderson and Singers - Let The Rest Of The World Go By.flac -=- CDDA (100%)
Сводка 97,46% CDDA
184632836
Мы помогаем людям, чтобы они, в свою очередь, помогли нам; таким образом, наши услуги сводятся просто к благодеяниям, которые мы загодя оказываем самим себе. (Франсуа де Ларошфуко)
Download / Скачать

Хотите скачать бесплатно? Зарегистрируйтесь на сайте (ссылка на регистрацию). Pirat.ca - самый быстрый торрент трекер в рунете!

Как скачивать  ·   Что такое торрент  ·   Рейтинг и ограничения



Последний раз редактировалось: CHARLI2236 (2012-06-30 20:36), всего редактировалось 2 раз(а)

Vulkankor

Корсар

Пост 08-Фев-2012 17:16 (спустя 18 часов)

[Q] 

Люблю инструментал , спасибо
[Профиль]  [ЛС] 

ficus42

Корсар

Пост 09-Фев-2012 12:27 (спустя 19 часов)

[Q] 

Будем послушать
[Профиль]  [ЛС] 
Показать сообщения:    
Ответить на тему

Текущее время: Сегодня 11:21

Часовой пояс: GMT + 4



Вы не можете начинать темы
Вы не можете отвечать на сообщения
Вы не можете редактировать свои сообщения
Вы не можете удалять свои сообщения
Вы не можете голосовать в опросах
Вы не можете прикреплять файлы к сообщениям
Вы не можете скачивать файлы

▼ Вниз