Уважаемый Гость!
Вы можете поддержать проект и зарегистрироваться у наших партнеров - онлайн-стратегия MyLands. При регистрации в игре Вы получите код, который сможете активировать после регистрации на pirat.ca и получить 1000 дублонов.

Ваш код:
96655d23e625a911058ec0fcd7263f5bff78a048
 
     

(Instrumental) В ритме танца - Сентиментальное настроение (РД) (3CD), FLAC (tracks+cue) - 2011, lossless

Ответить на тему
 
Автор
Сообщение

Пост 04-Мар-2012 12:34

[Q] 

CHARLI2236

В ритме танца - Сентиментальное настроение (РД) (3CD)
Год выпуска альбома: 2011
Страна: Россия
Жанр: Instrumental
Лейбл издания: ИД Ридерз Дайджест
Продолжительность: 3:12:23
Формат: FLAC
Битрейт аудио: lossless
Тип рипа: tracks+.cue
Источник (релизер): диск CDDA
Наличие сканов в содержимом раздачи: да
Трэклист
01 - Henry Mancini, his Piano and Orchestra - Tenderly. (2:33)
02 - Francis Goya, his Guitar and Orchestra - Mona Lisa. (3:08)
03 - Mary Carewe - Try A Little Tenderness. (3:40)
04 - Larry Dalton and his Orchestra - Love Me Tender. (3:06)
05 - Floyd Cramer, his Piano and Orchestra - Forever In Love. (4:13)
06 - Nelson Riddle and his Orchestra - I Love How You Love Me. (2:35)
07 - The San Remo Strings - Catch A Falling Star. (2:01)
08 - Ken Barrie with Johnny Gibbs and his Orchestra - Sweet Leilani. (2:46)
09 - Hill Bowen and his Orchestra - Night And Day. (2:28)
10 - Engelbert Humperdinck - In The Still Of The Night. (4:17)
11 - Warren Covington, his Trombone and Orchestra - The Shadow Of Your Smile. (2:50)
12 - Richard Alden, his Piano and Orchestra - Two Sleepy People. (3:31)
13 - Des O'Connor - Strangers In The Night. (3:13)
14 - Larry Dalton and his Orchestra - Are You Lonesome Tonight. (3:08)
15 - Floyd Cramer, his Piano and Orchestra - Have I Told You Lately. (3:24)
16 - Francis Goya, his Guitar and Orchestra - Heavenly. (3:39)
17 - Larry Dalton and his Orchestra - All I Have To Do Is Dream. (3:50)
18 - Billy Vaughn and his Orchestra - Melody Of Love. (2:41)
19 - Vic Damone - A Time For Us. (3:25)
20 - Floyd Cramer, his Piano and Orchestra - Morning Has Broken. (3:17)
”Отчет ЕАС”
Отчёт EAC об извлечении, выполненном 27. февраля 2012, 1:33 для диска:
Various / В ритме танца - В тишине ночи
Дисковод: TSSTcorpCDDVDW SH-222AB Adapter: 0 ID: 0
Режим чтения: Достоверный (C2: нет, Точный поток: да, Отключение кэша: да)
Коррекция смещения при чтении: 6
Способность читать области Lead-in и Lead-out : Нет
Выходной формат: C:\Program Files (x86)\FLAC\flac.exe (Пользовательский кодировщик)
192 kBit/s
Дополнительные параметры: -8 -V -T "ARTIST=%a" -T "TITLE=%t" -T "ALBUM=%g" -T "DATE=%y" -T "TRACKNUMBER=%n" -T "GENRE=%m" -T "COMMENT=EAC FLAC -8" %s
Другие параметры:
Заполнение пропущенных сэмплов тишиной : Да
Удаление блоков с тишиной в начале и конце : Нет
Встроенный Win32-интерфейс для Win NT/2000
Трек 1
Имя файла C:\Sergei\новая папка\01 - Henry Mancini, his Piano and Orchestra - Tenderly.wav
Длина предзазора 0:00:02.00
Пиковый уровень 98.7 %
Качество трека 100.0 %
CRC теста FBDB98A9
CRC копии FBDB98A9
Копирование... OK
Трек 2
Имя файла C:\Sergei\новая папка\02 - Francis Goya, his Guitar and Orchestra - Mona Lisa.wav
Длина предзазора 0:00:01.60
Пиковый уровень 58.4 %
Качество трека 100.0 %
CRC теста 27CE88B8
CRC копии 27CE88B8
Копирование... OK
Трек 3
Имя файла C:\Sergei\новая папка\03 - Mary Carewe - Try A Little Tenderness.wav
Длина предзазора 0:00:01.60
Пиковый уровень 66.9 %
Качество трека 100.0 %
CRC теста BBF63E62
CRC копии BBF63E62
Копирование... OK
Трек 4
Имя файла C:\Sergei\новая папка\04 - Larry Dalton and his Orchestra - Love Me Tender.wav
Длина предзазора 0:00:01.60
Пиковый уровень 81.3 %
Качество трека 100.0 %
CRC теста A76F8D92
CRC копии A76F8D92
Копирование... OK
Трек 5
Имя файла C:\Sergei\новая папка\05 - Floyd Cramer, his Piano and Orchestra - Forever In Love.wav
Длина предзазора 0:00:01.60
Пиковый уровень 65.3 %
Качество трека 99.9 %
CRC теста 4F6305B8
CRC копии 4F6305B8
Копирование... OK
Трек 6
Имя файла C:\Sergei\новая папка\06 - Nelson Riddle and his Orchestra - I Love How You Love Me.wav
Длина предзазора 0:00:01.60
Пиковый уровень 86.2 %
Качество трека 99.9 %
CRC теста 4D13065A
CRC копии 4D13065A
Копирование... OK
Трек 7
Имя файла C:\Sergei\новая папка\07 - The San Remo Strings - Catch A Falling Star.wav
Длина предзазора 0:00:01.60
Пиковый уровень 96.2 %
Качество трека 100.0 %
CRC теста D59E6D95
CRC копии D59E6D95
Копирование... OK
Трек 8
Имя файла C:\Sergei\новая папка\08 - Ken Barrie with Johnny Gibbs and his Orchestra - Sweet Leilani.wav
Длина предзазора 0:00:01.60
Пиковый уровень 66.3 %
Качество трека 100.0 %
CRC теста B0142494
CRC копии B0142494
Копирование... OK
Трек 9
Имя файла C:\Sergei\новая папка\09 - Hill Bowen and his Orchestra - Night And Day.wav
Длина предзазора 0:00:01.60
Пиковый уровень 92.8 %
Качество трека 100.0 %
CRC теста EDC69B83
CRC копии EDC69B83
Копирование... OK
Трек 10
Имя файла C:\Sergei\новая папка\10 - Engelbert Humperdinck - In The Still Of The Night.wav
Длина предзазора 0:00:01.60
Пиковый уровень 98.2 %
Качество трека 100.0 %
CRC теста 175A98EC
CRC копии 175A98EC
Копирование... OK
Трек 11
Имя файла C:\Sergei\новая папка\11 - Warren Covington, his Trombone and Orchestra - The Shadow Of Your Smile.wav
Длина предзазора 0:00:01.60
Пиковый уровень 99.2 %
Качество трека 99.9 %
CRC теста 2928E390
CRC копии 2928E390
Копирование... OK
Трек 12
Имя файла C:\Sergei\новая папка\12 - Richard Alden, his Piano and Orchestra - Two Sleepy People.wav
Длина предзазора 0:00:01.60
Пиковый уровень 93.1 %
Качество трека 100.0 %
CRC теста 999FF35E
CRC копии 999FF35E
Копирование... OK
Трек 13
Имя файла C:\Sergei\новая папка\13 - Des O'Connor - Strangers In The Night.wav
Длина предзазора 0:00:01.60
Пиковый уровень 92.9 %
Качество трека 100.0 %
CRC теста 0998E8D3
CRC копии 0998E8D3
Копирование... OK
Трек 14
Имя файла C:\Sergei\новая папка\14 - Larry Dalton and his Orchestra - Are You Lonesome Tonight.wav
Длина предзазора 0:00:01.60
Пиковый уровень 97.8 %
Качество трека 100.0 %
CRC теста AF9D9921
CRC копии AF9D9921
Копирование... OK
Трек 15
Имя файла C:\Sergei\новая папка\15 - Floyd Cramer, his Piano and Orchestra - Have I Told You Lately.wav
Длина предзазора 0:00:01.60
Пиковый уровень 63.8 %
Качество трека 100.0 %
CRC теста 39E30AD3
CRC копии 39E30AD3
Копирование... OK
Трек 16
Имя файла C:\Sergei\новая папка\16 - Francis Goya, his Guitar and Orchestra - Heavenly.wav
Длина предзазора 0:00:01.60
Пиковый уровень 64.8 %
Качество трека 100.0 %
CRC теста 6BDC2416
CRC копии 6BDC2416
Копирование... OK
Трек 17
Имя файла C:\Sergei\новая папка\17 - Larry Dalton and his Orchestra - All I Have To Do Is Dream.wav
Длина предзазора 0:00:01.60
Пиковый уровень 87.8 %
Качество трека 100.0 %
CRC теста ECDC6D11
CRC копии ECDC6D11
Копирование... OK
Трек 18
Имя файла C:\Sergei\новая папка\18 - Billy Vaughn and his Orchestra - Melody Of Love.wav
Длина предзазора 0:00:01.60
Пиковый уровень 99.3 %
Качество трека 100.0 %
CRC теста 6533764A
CRC копии 6533764A
Копирование... OK
Трек 19
Имя файла C:\Sergei\новая папка\19 - Vic Damone - A Time For Us.wav
Длина предзазора 0:00:01.60
Пиковый уровень 94.5 %
Качество трека 100.0 %
CRC теста 1643CCB5
CRC копии 1643CCB5
Копирование... OK
Трек 20
Имя файла C:\Sergei\новая папка\20 - Floyd Cramer, his Piano and Orchestra - Morning Has Broken.wav
Длина предзазора 0:00:01.60
Пиковый уровень 67.1 %
Качество трека 100.0 %
CRC теста 309B2818
CRC копии 309B2818
Копирование... OK
Ошибок не произошло
Конец отчёта
"Non-compilant CUE"
REM GENRE Instrumental
REM DATE 2011
REM DISCID 080EF714
REM COMMENT "ExactAudioCopy v0.95b3"
PERFORMER "Various"
TITLE "В ритме танца - В тишине ночи"
FILE "01 - Henry Mancini, his Piano and Orchestra - Tenderly.wav" WAVE
TRACK 01 AUDIO
TITLE "Tenderly"
PERFORMER "Henry Mancini, his Piano and Orchestra"
INDEX 01 00:00:00
TRACK 02 AUDIO
TITLE "Mona Lisa"
PERFORMER "Francis Goya, his Guitar and Orchestra"
INDEX 00 02:31:24
FILE "02 - Francis Goya, his Guitar and Orchestra - Mona Lisa.wav" WAVE
INDEX 01 00:00:00
TRACK 03 AUDIO
TITLE "Try A Little Tenderness"
PERFORMER "Mary Carewe"
INDEX 00 03:06:24
FILE "03 - Mary Carewe - Try A Little Tenderness.wav" WAVE
INDEX 01 00:00:00
TRACK 04 AUDIO
TITLE "Love Me Tender"
PERFORMER "Larry Dalton and his Orchestra"
INDEX 00 03:38:15
FILE "04 - Larry Dalton and his Orchestra - Love Me Tender.wav" WAVE
INDEX 01 00:00:00
TRACK 05 AUDIO
TITLE "Forever In Love"
PERFORMER "Floyd Cramer, his Piano and Orchestra"
INDEX 00 03:04:56
FILE "05 - Floyd Cramer, his Piano and Orchestra - Forever In Love.wav" WAVE
INDEX 01 00:00:00
TRACK 06 AUDIO
TITLE "I Love How You Love Me"
PERFORMER "Nelson Riddle and his Orchestra"
INDEX 00 04:11:42
FILE "06 - Nelson Riddle and his Orchestra - I Love How You Love Me.wav" WAVE
INDEX 01 00:00:00
TRACK 07 AUDIO
TITLE "Catch A Falling Star"
PERFORMER "The San Remo Strings"
INDEX 00 02:33:17
FILE "07 - The San Remo Strings - Catch A Falling Star.wav" WAVE
INDEX 01 00:00:00
TRACK 08 AUDIO
TITLE "Sweet Leilani"
PERFORMER "Ken Barrie with Johnny Gibbs and his Orchestra"
INDEX 00 01:59:39
FILE "08 - Ken Barrie with Johnny Gibbs and his Orchestra - Sweet Leilani.wav" WAVE
INDEX 01 00:00:00
TRACK 09 AUDIO
TITLE "Night And Day"
PERFORMER "Hill Bowen and his Orchestra"
INDEX 00 02:44:23
FILE "09 - Hill Bowen and his Orchestra - Night And Day.wav" WAVE
INDEX 01 00:00:00
TRACK 10 AUDIO
TITLE "In The Still Of The Night"
PERFORMER "Engelbert Humperdinck"
INDEX 00 02:26:29
FILE "10 - Engelbert Humperdinck - In The Still Of The Night.wav" WAVE
INDEX 01 00:00:00
TRACK 11 AUDIO
TITLE "The Shadow Of Your Smile"
PERFORMER "Warren Covington, his Trombone and Orchestra"
INDEX 00 04:15:27
FILE "11 - Warren Covington, his Trombone and Orchestra - The Shadow Of Your Smile.wav" WAVE
INDEX 01 00:00:00
TRACK 12 AUDIO
TITLE "Two Sleepy People"
PERFORMER "Richard Alden, his Piano and Orchestra"
INDEX 00 02:48:40
FILE "12 - Richard Alden, his Piano and Orchestra - Two Sleepy People.wav" WAVE
INDEX 01 00:00:00
TRACK 13 AUDIO
TITLE "Strangers In The Night"
PERFORMER "Des O'Connor"
INDEX 00 03:29:17
FILE "13 - Des O'Connor - Strangers In The Night.wav" WAVE
INDEX 01 00:00:00
TRACK 14 AUDIO
TITLE "Are You Lonesome Tonight"
PERFORMER "Larry Dalton and his Orchestra"
INDEX 00 03:11:61
FILE "14 - Larry Dalton and his Orchestra - Are You Lonesome Tonight.wav" WAVE
INDEX 01 00:00:00
TRACK 15 AUDIO
TITLE "Have I Told You Lately"
PERFORMER "Floyd Cramer, his Piano and Orchestra"
INDEX 00 03:06:52
FILE "15 - Floyd Cramer, his Piano and Orchestra - Have I Told You Lately.wav" WAVE
INDEX 01 00:00:00
TRACK 16 AUDIO
TITLE "Heavenly"
PERFORMER "Francis Goya, his Guitar and Orchestra"
INDEX 00 03:22:40
FILE "16 - Francis Goya, his Guitar and Orchestra - Heavenly.wav" WAVE
INDEX 01 00:00:00
TRACK 17 AUDIO
TITLE "All I Have To Do Is Dream"
PERFORMER "Larry Dalton and his Orchestra"
INDEX 00 03:38:08
FILE "17 - Larry Dalton and his Orchestra - All I Have To Do Is Dream.wav" WAVE
INDEX 01 00:00:00
TRACK 18 AUDIO
TITLE "Melody Of Love"
PERFORMER "Billy Vaughn and his Orchestra"
INDEX 00 03:48:64
FILE "18 - Billy Vaughn and his Orchestra - Melody Of Love.wav" WAVE
INDEX 01 00:00:00
TRACK 19 AUDIO
TITLE "A Time For Us"
PERFORMER "Vic Damone"
INDEX 00 02:39:72
FILE "19 - Vic Damone - A Time For Us.wav" WAVE
INDEX 01 00:00:00
TRACK 20 AUDIO
TITLE "Morning Has Broken"
PERFORMER "Floyd Cramer, his Piano and Orchestra"
INDEX 00 03:23:35
FILE "20 - Floyd Cramer, his Piano and Orchestra - Morning Has Broken.wav" WAVE
INDEX 01 00:00:00
"Лог Audiochecker"
AUDIOCHECKER v2.0 beta (build 457) - by Dester - [email protected]
~~~~~~~~~~~~~~~~~~~~~~~~~~~~~~~~~~
-=== НЕ РЕДАКТИРУЙТЕ ЭТОТ ФАЙЛ! ===-
Путь: ...\В тишине ночи
01 -=- 01 - Henry Mancini, his Piano and Orchestra - Tenderly.flac -=- CDDA (100%)
02 -=- 02 - Francis Goya, his Guitar and Orchestra - Mona Lisa.flac -=- CDDA (100%)
03 -=- 03 - Mary Carewe - Try A Little Tenderness.flac -=- CDDA (100%)
04 -=- 04 - Larry Dalton and his Orchestra - Love Me Tender.flac -=- CDDA (99%)
05 -=- 05 - Floyd Cramer, his Piano and Orchestra - Forever In Love.flac -=- CDDA (100%)
06 -=- 06 - Nelson Riddle and his Orchestra - I Love How You Love Me.flac -=- CDDA (99%)
07 -=- 07 - The San Remo Strings - Catch A Falling Star.flac -=- CDDA (100%)
08 -=- 08 - Ken Barrie with Johnny Gibbs and his Orchestra - Sweet Leilani.flac -=- CDDA (99%)
09 -=- 09 - Hill Bowen and his Orchestra - Night And Day.flac -=- CDDA (100%)
10 -=- 10 - Engelbert Humperdinck - In The Still Of The Night.flac -=- CDDA (100%)
11 -=- 11 - Warren Covington, his Trombone and Orchestra - The Shadow Of Your Smile.flac -=- CDDA (100%)
12 -=- 12 - Richard Alden, his Piano and Orchestra - Two Sleepy People.flac -=- CDDA (100%)
13 -=- 13 - Des O'Connor - Strangers In The Night.flac -=- CDDA (99%)
14 -=- 14 - Larry Dalton and his Orchestra - Are You Lonesome Tonight.flac -=- CDDA (100%)
15 -=- 15 - Floyd Cramer, his Piano and Orchestra - Have I Told You Lately.flac -=- CDDA (100%)
16 -=- 16 - Francis Goya, his Guitar and Orchestra - Heavenly.flac -=- CDDA (100%)
17 -=- 17 - Larry Dalton and his Orchestra - All I Have To Do Is Dream.flac -=- CDDA (100%)
18 -=- 18 - Billy Vaughn and his Orchestra - Melody Of Love.flac -=- CDDA (100%)
19 -=- 19 - Vic Damone - A Time For Us.flac -=- CDDA (100%)
20 -=- 20 - Floyd Cramer, his Piano and Orchestra - Morning Has Broken.flac -=- CDDA (100%)
Сводка 99,80% CDDA
190579348
Трэклист
01 - Billy Vaughn and his Orchestra - Sail Along Silv'ry Moon. (2:13)
02 - Johnny Gibbs and his Orchestra - Isn't It Romantic. (2:32)
03 - Ken Barrie - Does Your Heart Beat For Me . (2:30)
04 - Tony Ross and his Orchestra - Linger Awhile. (3:16)
05 - Nelson Riddle and his Orchestra - I Wish You Love. (2:46)
06 - Ben Cramer - In The Chapel In The Moonlight. (2:33)
07 - Henry Mancini, his Piano and Orchestra - Moon River. (2:19)
08 - Luca Olivieri - Non dimenticar. (2:52)
09 - Acker Bilk, his Clarinet and Orchestra - Stranger On The Shore. (2:51)
10 - Henry Mancini, his Piano and Orchestra - Days Of Wine And Roses. (3:17)
11 - Lance Ellington - A House Is Not A Home. (3:11)
12 - Ralph Benatar and his Orchestra - Emmиne-moi danser ce soir. (3:31)
13 - Vic Damone - It's Impossible. (4:30)
14 - Gheorghe Zamfir, Pan Flute and Orchestra - The French Waltz. (3:34)
15 - Acker Bilk, his Clarinet and Orchestra - Eres tъ. (3:14)
16 - Dominique Chatelain, his Piano and Orchestra - This Melody. (4:10)
17 - Herman Schoonderwalt, his Saxohone and Orchestra - Just When I Needed You Most. (3:50)
18 - Richard Clayderman, Piano, and Francis Goya, Guitar, with Orches - Ballade pour Adeilne '99 . (2:29)
19 - Vic Damone - These Foolish Things. (3:46)
20 - Henry Mancini, Piano, and his Orchestra - Misty. (3:15)
”Отчет ЕАС”
Отчёт EAC об извлечении, выполненном 27. февраля 2012, 7:20 для диска:
Various / В ритме танца - Под луной
Дисковод: TSSTcorpCDDVDW SH-222AB Adapter: 0 ID: 0
Режим чтения: Достоверный (C2: нет, Точный поток: да, Отключение кэша: да)
Коррекция смещения при чтении: 6
Способность читать области Lead-in и Lead-out : Нет
Выходной формат: C:\Program Files (x86)\FLAC\flac.exe (Пользовательский кодировщик)
192 kBit/s
Дополнительные параметры: -8 -V -T "ARTIST=%a" -T "TITLE=%t" -T "ALBUM=%g" -T "DATE=%y" -T "TRACKNUMBER=%n" -T "GENRE=%m" -T "COMMENT=EAC FLAC -8" %s
Другие параметры:
Заполнение пропущенных сэмплов тишиной : Да
Удаление блоков с тишиной в начале и конце : Нет
Встроенный Win32-интерфейс для Win NT/2000
Трек 1
Имя файла C:\Sergei\новая папка\01 - Billy Vaughn and his Orchestra - Sail Along Silv'ry Moon.wav
Длина предзазора 0:00:02.00
Пиковый уровень 90.4 %
Качество трека 100.0 %
CRC теста E0E0FFCF
CRC копии E0E0FFCF
Копирование... OK
Трек 2
Имя файла C:\Sergei\новая папка\02 - Johnny Gibbs and his Orchestra - Isn't It Romantic.wav
Длина предзазора 0:00:01.60
Пиковый уровень 97.7 %
Качество трека 100.0 %
CRC теста C54A085A
CRC копии C54A085A
Копирование... OK
Трек 3
Имя файла C:\Sergei\новая папка\03 - Ken Barrie - Does Your Heart Beat For Me .wav
Длина предзазора 0:00:01.60
Пиковый уровень 99.1 %
Качество трека 100.0 %
CRC теста 2FC6A9BB
CRC копии 2FC6A9BB
Копирование... OK
Трек 4
Имя файла C:\Sergei\новая папка\04 - Tony Ross and his Orchestra - Linger Awhile.wav
Длина предзазора 0:00:01.60
Пиковый уровень 55.8 %
Качество трека 100.0 %
CRC теста F6353EEC
CRC копии F6353EEC
Копирование... OK
Трек 5
Имя файла C:\Sergei\новая папка\05 - Nelson Riddle and his Orchestra - I Wish You Love.wav
Длина предзазора 0:00:01.60
Пиковый уровень 67.8 %
Качество трека 100.0 %
CRC теста D1D8E761
CRC копии D1D8E761
Копирование... OK
Трек 6
Имя файла C:\Sergei\новая папка\06 - Ben Cramer - In The Chapel In The Moonlight.wav
Длина предзазора 0:00:01.60
Пиковый уровень 73.7 %
Качество трека 100.0 %
CRC теста ED2DA128
CRC копии ED2DA128
Копирование... OK
Трек 7
Имя файла C:\Sergei\новая папка\07 - Henry Mancini, his Piano and Orchestra - Moon River.wav
Длина предзазора 0:00:01.60
Пиковый уровень 90.9 %
Качество трека 100.0 %
CRC теста 7DEE188E
CRC копии 7DEE188E
Копирование... OK
Трек 8
Имя файла C:\Sergei\новая папка\08 - Luca Olivieri - Non dimenticar.wav
Длина предзазора 0:00:01.60
Пиковый уровень 48.0 %
Качество трека 100.0 %
CRC теста 85128901
CRC копии 85128901
Копирование... OK
Трек 9
Имя файла C:\Sergei\новая папка\09 - Acker Bilk, his Clarinet and Orchestra - Stranger On The Shore.wav
Длина предзазора 0:00:01.60
Пиковый уровень 76.1 %
Качество трека 100.0 %
CRC теста 63C9E11F
CRC копии 63C9E11F
Копирование... OK
Трек 10
Имя файла C:\Sergei\новая папка\10 - Henry Mancini, his Piano and Orchestra - Days Of Wine And Roses.wav
Длина предзазора 0:00:01.60
Пиковый уровень 80.6 %
Качество трека 100.0 %
CRC теста 514727DA
CRC копии 514727DA
Копирование... OK
Трек 11
Имя файла C:\Sergei\новая папка\11 - Lance Ellington - A House Is Not A Home.wav
Длина предзазора 0:00:01.60
Пиковый уровень 47.4 %
Качество трека 100.0 %
CRC теста A766CE2C
CRC копии A766CE2C
Копирование... OK
Трек 12
Имя файла C:\Sergei\новая папка\12 - Ralph Benatar and his Orchestra - Emmиne-moi danser ce soir.wav
Длина предзазора 0:00:01.60
Пиковый уровень 49.8 %
Качество трека 100.0 %
CRC теста 14161787
CRC копии 14161787
Копирование... OK
Трек 13
Имя файла C:\Sergei\новая папка\13 - Vic Damone - It's Impossible.wav
Длина предзазора 0:00:01.60
Пиковый уровень 60.4 %
Качество трека 100.0 %
CRC теста 1E0A6FEB
CRC копии 1E0A6FEB
Копирование... OK
Трек 14
Имя файла C:\Sergei\новая папка\14 - Gheorghe Zamfir, Pan Flute and Orchestra - The French Waltz.wav
Длина предзазора 0:00:01.60
Пиковый уровень 68.0 %
Качество трека 100.0 %
CRC теста 1D70B588
CRC копии 1D70B588
Копирование... OK
Трек 15
Имя файла C:\Sergei\новая папка\15 - Acker Bilk, his Clarinet and Orchestra - Eres tъ.wav
Длина предзазора 0:00:01.61
Пиковый уровень 85.6 %
Качество трека 100.0 %
CRC теста 3D8D2DB2
CRC копии 3D8D2DB2
Копирование... OK
Трек 16
Имя файла C:\Sergei\новая папка\16 - Dominique Chatelain, his Piano and Orchestra - This Melody.wav
Длина предзазора 0:00:01.60
Пиковый уровень 64.2 %
Качество трека 100.0 %
CRC теста 9DCE000E
CRC копии 9DCE000E
Копирование... OK
Трек 17
Имя файла C:\Sergei\новая папка\17 - Herman Schoonderwalt, his Saxohone and Orchestra - Just When I Needed You Most.wav
Длина предзазора 0:00:01.60
Пиковый уровень 54.9 %
Качество трека 100.0 %
CRC теста 95FE3D0E
CRC копии 95FE3D0E
Копирование... OK
Трек 18
Имя файла C:\Sergei\новая папка\18 - Richard Clayderman, Piano, and Francis Goya, Guitar, with Orches - Ballade pour Adeilne '99 x.wav
Длина предзазора 0:00:01.60
Пиковый уровень 85.1 %
Качество трека 100.0 %
CRC теста D85B289A
CRC копии D85B289A
Копирование... OK
Трек 19
Имя файла C:\Sergei\новая папка\19 - Vic Damone - These Foolish Things.wav
Длина предзазора 0:00:01.60
Пиковый уровень 52.6 %
Качество трека 100.0 %
CRC теста 7E0BEB1C
CRC копии 7E0BEB1C
Копирование... OK
Трек 20
Имя файла C:\Sergei\новая папка\20 - Henry Mancini, Piano, and his Orchestra - Misty.wav
Длина предзазора 0:00:01.60
Пиковый уровень 68.4 %
Качество трека 100.0 %
CRC теста 65DB708F
CRC копии 65DB708F
Копирование... OK
Ошибок не произошло
Конец отчёта
"Non-compilant CUE"
REM GENRE Instrumental
REM DATE 2011
REM DISCID 240EB714
REM COMMENT "ExactAudioCopy v0.95b3"
PERFORMER "Various"
TITLE "В ритме танца - Под луной"
FILE "01 - Billy Vaughn and his Orchestra - Sail Along Silv'ry Moon.wav" WAVE
TRACK 01 AUDIO
TITLE "Sail Along Silv'ry Moon"
PERFORMER "Billy Vaughn and his Orchestra"
INDEX 01 00:00:00
TRACK 02 AUDIO
TITLE "Isn't It Romantic"
PERFORMER "Johnny Gibbs and his Orchestra"
INDEX 00 02:11:44
FILE "02 - Johnny Gibbs and his Orchestra - Isn't It Romantic.wav" WAVE
INDEX 01 00:00:00
TRACK 03 AUDIO
TITLE "Does Your Heart Beat For Me?"
PERFORMER "Ken Barrie"
INDEX 00 02:30:59
FILE "03 - Ken Barrie - Does Your Heart Beat For Me .wav" WAVE
INDEX 01 00:00:00
TRACK 04 AUDIO
TITLE "Linger Awhile"
PERFORMER "Tony Ross and his Orchestra"
INDEX 00 02:28:17
FILE "04 - Tony Ross and his Orchestra - Linger Awhile.wav" WAVE
INDEX 01 00:00:00
TRACK 05 AUDIO
TITLE "I Wish You Love"
PERFORMER "Nelson Riddle and his Orchestra"
INDEX 00 03:14:25
FILE "05 - Nelson Riddle and his Orchestra - I Wish You Love.wav" WAVE
INDEX 01 00:00:00
TRACK 06 AUDIO
TITLE "In The Chapel In The Moonlight"
PERFORMER "Ben Cramer"
INDEX 00 02:44:28
FILE "06 - Ben Cramer - In The Chapel In The Moonlight.wav" WAVE
INDEX 01 00:00:00
TRACK 07 AUDIO
TITLE "Moon River"
PERFORMER "Henry Mancini, his Piano and Orchestra"
INDEX 00 02:32:14
FILE "07 - Henry Mancini, his Piano and Orchestra - Moon River.wav" WAVE
INDEX 01 00:00:00
TRACK 08 AUDIO
TITLE "Non dimenticar"
PERFORMER "Luca Olivieri"
INDEX 00 02:18:03
FILE "08 - Luca Olivieri - Non dimenticar.wav" WAVE
INDEX 01 00:00:00
TRACK 09 AUDIO
TITLE "Stranger On The Shore"
PERFORMER "Acker Bilk, his Clarinet and Orchestra"
INDEX 00 02:50:34
FILE "09 - Acker Bilk, his Clarinet and Orchestra - Stranger On The Shore.wav" WAVE
INDEX 01 00:00:00
TRACK 10 AUDIO
TITLE "Days Of Wine And Roses"
PERFORMER "Henry Mancini, his Piano and Orchestra"
INDEX 00 02:49:21
FILE "10 - Henry Mancini, his Piano and Orchestra - Days Of Wine And Roses.wav" WAVE
INDEX 01 00:00:00
TRACK 11 AUDIO
TITLE "A House Is Not A Home"
PERFORMER "Lance Ellington"
INDEX 00 03:15:27
FILE "11 - Lance Ellington - A House Is Not A Home.wav" WAVE
INDEX 01 00:00:00
TRACK 12 AUDIO
TITLE "Emmиne-moi danser ce soir"
PERFORMER "Ralph Benatar and his Orchestra"
INDEX 00 03:09:43
FILE "12 - Ralph Benatar and his Orchestra - Emmиne-moi danser ce soir.wav" WAVE
INDEX 01 00:00:00
TRACK 13 AUDIO
TITLE "It's Impossible"
PERFORMER "Vic Damone"
INDEX 00 03:29:30
FILE "13 - Vic Damone - It's Impossible.wav" WAVE
INDEX 01 00:00:00
TRACK 14 AUDIO
TITLE "The French Waltz"
PERFORMER "Gheorghe Zamfir, Pan Flute and Orchestra"
INDEX 00 04:29:01
FILE "14 - Gheorghe Zamfir, Pan Flute and Orchestra - The French Waltz.wav" WAVE
INDEX 01 00:00:00
TRACK 15 AUDIO
TITLE "Eres tъ"
PERFORMER "Acker Bilk, his Clarinet and Orchestra"
INDEX 00 03:32:68
FILE "15 - Acker Bilk, his Clarinet and Orchestra - Eres tъ.wav" WAVE
INDEX 01 00:00:00
TRACK 16 AUDIO
TITLE "This Melody"
PERFORMER "Dominique Chatelain, his Piano and Orchestra"
INDEX 00 03:12:18
FILE "16 - Dominique Chatelain, his Piano and Orchestra - This Melody.wav" WAVE
INDEX 01 00:00:00
TRACK 17 AUDIO
TITLE "Just When I Needed You Most"
PERFORMER "Herman Schoonderwalt, his Saxohone and Orchestra"
INDEX 00 04:08:65
FILE "17 - Herman Schoonderwalt, his Saxohone and Orchestra - Just When I Needed You Most.wav" WAVE
INDEX 01 00:00:00
TRACK 18 AUDIO
TITLE "Ballade pour Adeilne '99 *"
PERFORMER "Richard Clayderman, Piano, and Francis Goya, Guitar, with Orches"
INDEX 00 03:49:10
FILE "18 - Richard Clayderman, Piano, and Francis Goya, Guitar, with Orches - Ballade pour Adeilne '99 x.wav" WAVE
INDEX 01 00:00:00
TRACK 19 AUDIO
TITLE "These Foolish Things"
PERFORMER "Vic Damone"
INDEX 00 02:28:10
FILE "19 - Vic Damone - These Foolish Things.wav" WAVE
INDEX 01 00:00:00
TRACK 20 AUDIO
TITLE "Misty"
PERFORMER "Henry Mancini, Piano, and his Orchestra"
INDEX 00 03:44:30
FILE "20 - Henry Mancini, Piano, and his Orchestra - Misty.wav" WAVE
INDEX 01 00:00:00
"Лог Audiochecker"
AUDIOCHECKER v2.0 beta (build 457) - by Dester - [email protected]
~~~~~~~~~~~~~~~~~~~~~~~~~~~~~~~~~~
-=== НЕ РЕДАКТИРУЙТЕ ЭТОТ ФАЙЛ! ===-
Путь: ...\Под луной
01 -=- 01 - Billy Vaughn and his Orchestra - Sail Along Silv'ry Moon.flac -=- CDDA (100%)
02 -=- 02 - Johnny Gibbs and his Orchestra - Isn't It Romantic.flac -=- CDDA (100%)
03 -=- 03 - Ken Barrie - Does Your Heart Beat For Me .flac -=- CDDA (100%)
04 -=- 04 - Tony Ross and his Orchestra - Linger Awhile.flac -=- CDDA (100%)
05 -=- 05 - Nelson Riddle and his Orchestra - I Wish You Love.flac -=- CDDA (100%)
06 -=- 06 - Ben Cramer - In The Chapel In The Moonlight.flac -=- CDDA (100%)
07 -=- 07 - Henry Mancini, his Piano and Orchestra - Moon River.flac -=- CDDA (100%)
08 -=- 08 - Luca Olivieri - Non dimenticar.flac -=- CDDA (99%)
09 -=- 09 - Acker Bilk, his Clarinet and Orchestra - Stranger On The Shore.flac -=- CDDA (54%)
10 -=- 10 - Henry Mancini, his Piano and Orchestra - Days Of Wine And Roses.flac -=- CDDA (100%)
11 -=- 11 - Lance Ellington - A House Is Not A Home.flac -=- CDDA (100%)
12 -=- 12 - Ralph Benatar and his Orchestra - Emmиne-moi danser ce soir.flac -=- CDDA (100%)
13 -=- 13 - Vic Damone - It's Impossible.flac -=- CDDA (100%)
14 -=- 14 - Gheorghe Zamfir, Pan Flute and Orchestra - The French Waltz.flac -=- CDDA (92%)
15 -=- 15 - Acker Bilk, his Clarinet and Orchestra - Eres tъ.flac -=- MPEG (73%)
16 -=- 16 - Dominique Chatelain, his Piano and Orchestra - This Melody.flac -=- CDDA (100%)
17 -=- 17 - Herman Schoonderwalt, his Saxohone and Orchestra - Just When I Needed You Most.flac -=- CDDA (100%)
18 -=- 18 - Richard Clayderman, Piano, and Francis Goya, Guitar, with Orches - Ballade pour Adeilne '99 x.flac -=- CDDA (100%)
19 -=- 19 - Vic Damone - These Foolish Things.flac -=- CDDA (100%)
20 -=- 20 - Henry Mancini, Piano, and his Orchestra - Misty.flac -=- CDDA (100%)
Сводка 93,60% CDDA
25087540
Трэклист
01 - Pete King, his Orchestra and Singers - After The Ball. (3:05)
02 - Vic Damone - Mean to Me. (3:13)
03 - Rosemary Clooney - Don't Fence Me In. (4:23)
04 - Claude Blouin and his Orchestra - He'll Have To Go. (2:57)
05 - Rita Coolidge - For The Good Times. (5:16)
06 - Acker Bilk, his Clarinet and Orchestra - If I Give My Heart To You. (2:48)
07 - Steve Willaert, Piano, with the London Philharmonic Orchestra. D - Lonely Without You. (2:42)
08 - Tommy Blaize - Frenesн. (3:07)
09 - Rita Coolidge - Am I Blue. (4:41)
10 - Acker Bilk, his Clarinet and Orchestra - I Left My Heart In San Francisco. (2:37)
11 - Floyd Cramer, his Piano and Orchestra - Somewhere In My Broken Heart. (3:16)
12 - David Whitaker and his Orchestra - Je t'aime moi non plus. (2:52)
13 - Billy Vaughn and his Orchestra - Always On My Mind. (2:23)
14 - Ghislain Slingeneyer and his Orchestra - Winter Memories. (3:00)
15 - Cheryl Baker - Miss You Like Crazy. (3:14)
16 - Floyd Cramer, his Piano and Orchestra - I Really Don't Want To Know. (3:19)
17 - Nelson Riddle and his Orchestra - Until It's Time For You To Go. (2:58)
18 - Rosemary Clooney - Here's That Rainy Day. (3:40)
19 - Valto Laitinen and his Orchestra - Ce n'est que votre main, Madame. (2:47)
20 - Richard Abel, Piano, and Francis Goya, Guitar, with Orchestra - Je reviens chez nous. (3:22)
”Отчет ЕАС”
Отчёт EAC об извлечении, выполненном 27. февраля 2012, 8:52 для диска:
Various / В ритме танца - После бала
Дисковод: TSSTcorpCDDVDW SH-222AB Adapter: 0 ID: 0
Режим чтения: Достоверный (C2: нет, Точный поток: да, Отключение кэша: да)
Коррекция смещения при чтении: 6
Способность читать области Lead-in и Lead-out : Нет
Выходной формат: C:\Program Files (x86)\FLAC\flac.exe (Пользовательский кодировщик)
192 kBit/s
Дополнительные параметры: -8 -V -T "ARTIST=%a" -T "TITLE=%t" -T "ALBUM=%g" -T "DATE=%y" -T "TRACKNUMBER=%n" -T "GENRE=%m" -T "COMMENT=EAC FLAC -8" %s
Другие параметры:
Заполнение пропущенных сэмплов тишиной : Да
Удаление блоков с тишиной в начале и конце : Нет
Встроенный Win32-интерфейс для Win NT/2000
Трек 1
Имя файла C:\Sergei\новая папка\01 - Pete King, his Orchestra and Singers - After The Ball.wav
Длина предзазора 0:00:02.00
Пиковый уровень 99.3 %
Качество трека 100.0 %
CRC теста 7A3FFD50
CRC копии 7A3FFD50
Копирование... OK
Трек 2
Имя файла C:\Sergei\новая папка\02 - Vic Damone - Mean to Me.wav
Длина предзазора 0:00:01.60
Пиковый уровень 82.2 %
Качество трека 99.9 %
CRC теста 6FF4E267
CRC копии 6FF4E267
Копирование... OK
Трек 3
Имя файла C:\Sergei\новая папка\03 - Rosemary Clooney - Don't Fence Me In.wav
Длина предзазора 0:00:01.60
Пиковый уровень 70.4 %
Качество трека 100.0 %
CRC теста AABF66B8
CRC копии AABF66B8
Копирование... OK
Трек 4
Имя файла C:\Sergei\новая папка\04 - Claude Blouin and his Orchestra - He'll Have To Go.wav
Длина предзазора 0:00:01.60
Пиковый уровень 69.7 %
Качество трека 100.0 %
CRC теста E8DBA644
CRC копии E8DBA644
Копирование... OK
Трек 5
Имя файла C:\Sergei\новая папка\05 - Rita Coolidge - For The Good Times.wav
Длина предзазора 0:00:01.60
Пиковый уровень 94.4 %
Качество трека 100.0 %
CRC теста 9788DA39
CRC копии 9788DA39
Копирование... OK
Трек 6
Имя файла C:\Sergei\новая папка\06 - Acker Bilk, his Clarinet and Orchestra - If I Give My Heart To You.wav
Длина предзазора 0:00:01.60
Пиковый уровень 97.6 %
Качество трека 100.0 %
CRC теста 826BDDA3
CRC копии 826BDDA3
Копирование... OK
Трек 7
Имя файла C:\Sergei\новая папка\07 - Steve Willaert, Piano, with the London Philharmonic Orchestra. D - Lonely Without You.wav
Длина предзазора 0:00:01.60
Пиковый уровень 79.1 %
Качество трека 100.0 %
CRC теста AB005041
CRC копии AB005041
Копирование... OK
Трек 8
Имя файла C:\Sergei\новая папка\08 - Tommy Blaize - Frenesн.wav
Длина предзазора 0:00:01.60
Пиковый уровень 65.4 %
Качество трека 99.9 %
CRC теста 021EF223
CRC копии 021EF223
Копирование... OK
Трек 9
Имя файла C:\Sergei\новая папка\09 - Rita Coolidge - Am I Blue.wav
Длина предзазора 0:00:01.60
Пиковый уровень 69.6 %
Качество трека 100.0 %
CRC теста 366A18AE
CRC копии 366A18AE
Копирование... OK
Трек 10
Имя файла C:\Sergei\новая папка\10 - Acker Bilk, his Clarinet and Orchestra - I Left My Heart In San Francisco.wav
Длина предзазора 0:00:01.60
Пиковый уровень 59.2 %
Качество трека 100.0 %
CRC теста EBAB76FE
CRC копии EBAB76FE
Копирование... OK
Трек 11
Имя файла C:\Sergei\новая папка\11 - Floyd Cramer, his Piano and Orchestra - Somewhere In My Broken Heart.wav
Длина предзазора 0:00:01.60
Пиковый уровень 72.1 %
Качество трека 100.0 %
CRC теста C7D04FA3
CRC копии C7D04FA3
Копирование... OK
Трек 12
Имя файла C:\Sergei\новая папка\12 - David Whitaker and his Orchestra - Je t'aime moi non plus.wav
Длина предзазора 0:00:01.60
Пиковый уровень 69.5 %
Качество трека 100.0 %
CRC теста F9AB250B
CRC копии F9AB250B
Копирование... OK
Трек 13
Имя файла C:\Sergei\новая папка\13 - Billy Vaughn and his Orchestra - Always On My Mind.wav
Длина предзазора 0:00:01.60
Пиковый уровень 97.7 %
Качество трека 99.9 %
CRC теста 875E4004
CRC копии 875E4004
Копирование... OK
Трек 14
Имя файла C:\Sergei\новая папка\14 - Ghislain Slingeneyer and his Orchestra - Winter Memories.wav
Длина предзазора 0:00:01.60
Пиковый уровень 60.9 %
Качество трека 100.0 %
CRC теста 041ABD3E
CRC копии 041ABD3E
Копирование... OK
Трек 15
Имя файла C:\Sergei\новая папка\15 - Cheryl Baker - Miss You Like Crazy.wav
Длина предзазора 0:00:01.61
Пиковый уровень 98.6 %
Качество трека 99.9 %
CRC теста DF40608E
CRC копии DF40608E
Копирование... OK
Трек 16
Имя файла C:\Sergei\новая папка\16 - Floyd Cramer, his Piano and Orchestra - I Really Don't Want To Know.wav
Длина предзазора 0:00:01.60
Пиковый уровень 86.2 %
Качество трека 100.0 %
CRC теста F1483E6F
CRC копии F1483E6F
Копирование... OK
Трек 17
Имя файла C:\Sergei\новая папка\17 - Nelson Riddle and his Orchestra - Until It's Time For You To Go.wav
Длина предзазора 0:00:01.60
Пиковый уровень 78.0 %
Качество трека 100.0 %
CRC теста FEDA44C8
CRC копии FEDA44C8
Копирование... OK
Трек 18
Имя файла C:\Sergei\новая папка\18 - Rosemary Clooney - Here's That Rainy Day.wav
Длина предзазора 0:00:01.60
Пиковый уровень 87.6 %
Качество трека 100.0 %
CRC теста BBF48476
CRC копии BBF48476
Копирование... OK
Трек 19
Имя файла C:\Sergei\новая папка\19 - Valto Laitinen and his Orchestra - Ce n'est que votre main, Madame.wav
Длина предзазора 0:00:01.60
Пиковый уровень 81.8 %
Качество трека 100.0 %
CRC теста 02BFB277
CRC копии 02BFB277
Копирование... OK
Трек 20
Имя файла C:\Sergei\новая папка\20 - Richard Abel, Piano, and Francis Goya, Guitar, with Orchestra - Je reviens chez nous.wav
Длина предзазора 0:00:01.60
Пиковый уровень 80.5 %
Качество трека 100.0 %
CRC теста 9B499349
CRC копии 9B499349
Копирование... OK
Ошибок не произошло
Конец отчёта
"Non-compilant CUE"
REM GENRE Instrumental
REM DATE 2011
REM DISCID 3C0F6B14
REM COMMENT "ExactAudioCopy v0.95b3"
PERFORMER "Various"
TITLE "В ритме танца - После бала"
FILE "01 - Pete King, his Orchestra and Singers - After The Ball.wav" WAVE
TRACK 01 AUDIO
TITLE "After The Ball"
PERFORMER "Pete King, his Orchestra and Singers"
INDEX 01 00:00:00
TRACK 02 AUDIO
TITLE "Mean to Me "
PERFORMER "Vic Damone"
INDEX 00 03:03:23
FILE "02 - Vic Damone - Mean to Me.wav" WAVE
INDEX 01 00:00:00
TRACK 03 AUDIO
TITLE "Don't Fence Me In"
PERFORMER "Rosemary Clooney"
INDEX 00 03:11:32
FILE "03 - Rosemary Clooney - Don't Fence Me In.wav" WAVE
INDEX 01 00:00:00
TRACK 04 AUDIO
TITLE "He'll Have To Go"
PERFORMER "Claude Blouin and his Orchestra"
INDEX 00 04:21:24
FILE "04 - Claude Blouin and his Orchestra - He'll Have To Go.wav" WAVE
INDEX 01 00:00:00
TRACK 05 AUDIO
TITLE "For The Good Times"
PERFORMER "Rita Coolidge"
INDEX 00 02:55:58
FILE "05 - Rita Coolidge - For The Good Times.wav" WAVE
INDEX 01 00:00:00
TRACK 06 AUDIO
TITLE "If I Give My Heart To You"
PERFORMER "Acker Bilk, his Clarinet and Orchestra"
INDEX 00 05:14:53
FILE "06 - Acker Bilk, his Clarinet and Orchestra - If I Give My Heart To You.wav" WAVE
INDEX 01 00:00:00
TRACK 07 AUDIO
TITLE "Lonely Without You"
PERFORMER "Steve Willaert, Piano, with the London Philharmonic Orchestra. D"
INDEX 00 02:46:36
FILE "07 - Steve Willaert, Piano, with the London Philharmonic Orchestra. D - Lonely Without You.wav" WAVE
INDEX 01 00:00:00
TRACK 08 AUDIO
TITLE "Frenesн"
PERFORMER "Tommy Blaize"
INDEX 00 02:40:58
FILE "08 - Tommy Blaize - Frenesн.wav" WAVE
INDEX 01 00:00:00
TRACK 09 AUDIO
TITLE "Am I Blue"
PERFORMER "Rita Coolidge"
INDEX 00 03:05:61
FILE "09 - Rita Coolidge - Am I Blue.wav" WAVE
INDEX 01 00:00:00
TRACK 10 AUDIO
TITLE "I Left My Heart In San Francisco"
PERFORMER "Acker Bilk, his Clarinet and Orchestra"
INDEX 00 04:39:17
FILE "10 - Acker Bilk, his Clarinet and Orchestra - I Left My Heart In San Francisco.wav" WAVE
INDEX 01 00:00:00
TRACK 11 AUDIO
TITLE "Somewhere In My Broken Heart"
PERFORMER "Floyd Cramer, his Piano and Orchestra"
INDEX 00 02:35:74
FILE "11 - Floyd Cramer, his Piano and Orchestra - Somewhere In My Broken Heart.wav" WAVE
INDEX 01 00:00:00
TRACK 12 AUDIO
TITLE "Je t'aime moi non plus"
PERFORMER "David Whitaker and his Orchestra"
INDEX 00 03:14:52
FILE "12 - David Whitaker and his Orchestra - Je t'aime moi non plus.wav" WAVE
INDEX 01 00:00:00
TRACK 13 AUDIO
TITLE "Always On My Mind"
PERFORMER "Billy Vaughn and his Orchestra"
INDEX 00 02:51:08
FILE "13 - Billy Vaughn and his Orchestra - Always On My Mind.wav" WAVE
INDEX 01 00:00:00
TRACK 14 AUDIO
TITLE "Winter Memories"
PERFORMER "Ghislain Slingeneyer and his Orchestra"
INDEX 00 02:21:48
FILE "14 - Ghislain Slingeneyer and his Orchestra - Winter Memories.wav" WAVE
INDEX 01 00:00:00
TRACK 15 AUDIO
TITLE "Miss You Like Crazy"
PERFORMER "Cheryl Baker"
INDEX 00 02:58:49
FILE "15 - Cheryl Baker - Miss You Like Crazy.wav" WAVE
INDEX 01 00:00:00
TRACK 16 AUDIO
TITLE "I Really Don't Want To Know"
PERFORMER "Floyd Cramer, his Piano and Orchestra"
INDEX 00 03:12:57
FILE "16 - Floyd Cramer, his Piano and Orchestra - I Really Don't Want To Know.wav" WAVE
INDEX 01 00:00:00
TRACK 17 AUDIO
TITLE "Until It's Time For You To Go"
PERFORMER "Nelson Riddle and his Orchestra"
INDEX 00 03:17:21
FILE "17 - Nelson Riddle and his Orchestra - Until It's Time For You To Go.wav" WAVE
INDEX 01 00:00:00
TRACK 18 AUDIO
TITLE "Here's That Rainy Day"
PERFORMER "Rosemary Clooney"
INDEX 00 02:56:21
FILE "18 - Rosemary Clooney - Here's That Rainy Day.wav" WAVE
INDEX 01 00:00:00
TRACK 19 AUDIO
TITLE "Ce n'est que votre main, Madame"
PERFORMER "Valto Laitinen and his Orchestra"
INDEX 00 03:38:20
FILE "19 - Valto Laitinen and his Orchestra - Ce n'est que votre main, Madame.wav" WAVE
INDEX 01 00:00:00
TRACK 20 AUDIO
TITLE "Je reviens chez nous"
PERFORMER "Richard Abel, Piano, and Francis Goya, Guitar, with Orchestra"
INDEX 00 02:45:23
FILE "20 - Richard Abel, Piano, and Francis Goya, Guitar, with Orchestra - Je reviens chez nous.wav" WAVE
INDEX 01 00:00:00
"Лог Audiochecker"
AUDIOCHECKER v2.0 beta (build 457) - by Dester - [email protected]
~~~~~~~~~~~~~~~~~~~~~~~~~~~~~~~~~~
-=== НЕ РЕДАКТИРУЙТЕ ЭТОТ ФАЙЛ! ===-
Путь: ...\После бала
01 -=- 01 - Pete King, his Orchestra and Singers - After The Ball.flac -=- CDDA (100%)
02 -=- 02 - Vic Damone - Mean to Me.flac -=- CDDA (100%)
03 -=- 03 - Rosemary Clooney - Don't Fence Me In.flac -=- CDDA (100%)
04 -=- 04 - Claude Blouin and his Orchestra - He'll Have To Go.flac -=- CDDA (99%)
05 -=- 05 - Rita Coolidge - For The Good Times.flac -=- CDDA (100%)
06 -=- 06 - Acker Bilk, his Clarinet and Orchestra - If I Give My Heart To You.flac -=- CDDA (54%)
07 -=- 07 - Steve Willaert, Piano, with the London Philharmonic Orchestra. D - Lonely Without You.flac -=- CDDA (100%)
08 -=- 08 - Tommy Blaize - Frenesн.flac -=- CDDA (100%)
09 -=- 09 - Rita Coolidge - Am I Blue.flac -=- CDDA (100%)
10 -=- 10 - Acker Bilk, his Clarinet and Orchestra - I Left My Heart In San Francisco.flac -=- CDDA (49%)
11 -=- 11 - Floyd Cramer, his Piano and Orchestra - Somewhere In My Broken Heart.flac -=- CDDA (100%)
12 -=- 12 - David Whitaker and his Orchestra - Je t'aime moi non plus.flac -=- CDDA (100%)
13 -=- 13 - Billy Vaughn and his Orchestra - Always On My Mind.flac -=- CDDA (100%)
14 -=- 14 - Ghislain Slingeneyer and his Orchestra - Winter Memories.flac -=- CDDA (100%)
15 -=- 15 - Cheryl Baker - Miss You Like Crazy.flac -=- CDDA (99%)
16 -=- 16 - Floyd Cramer, his Piano and Orchestra - I Really Don't Want To Know.flac -=- CDDA (100%)
17 -=- 17 - Nelson Riddle and his Orchestra - Until It's Time For You To Go.flac -=- CDDA (100%)
18 -=- 18 - Rosemary Clooney - Here's That Rainy Day.flac -=- CDDA (100%)
19 -=- 19 - Valto Laitinen and his Orchestra - Ce n'est que votre main, Madame.flac -=- CDDA (100%)
20 -=- 20 - Richard Abel, Piano, and Francis Goya, Guitar, with Orchestra - Je reviens chez nous.flac -=- CDDA (100%)
Сводка 95,05% CDDA
83125172
Мы помогаем людям, чтобы они, в свою очередь, помогли нам; таким образом, наши услуги сводятся просто к благодеяниям, которые мы загодя оказываем самим себе. (Франсуа де Ларошфуко)
Download / Скачать

Хотите скачать бесплатно? Зарегистрируйтесь на сайте (ссылка на регистрацию). Pirat.ca - самый быстрый торрент трекер в рунете!

Как скачивать  ·   Что такое торрент  ·   Рейтинг и ограничения



Последний раз редактировалось: CHARLI2236 (2012-06-30 20:40), всего редактировалось 2 раз(а)

ficus42

Корсар

Пост 05-Мар-2012 11:23 (спустя 22 часа)

[Q] 

Будем послушать
[Профиль]  [ЛС] 

xdgx

Флибустьер

Пост 05-Мар-2012 19:14 (спустя 7 часов)

[Q] 

[Профиль]  [ЛС] 
Показать сообщения:    
Ответить на тему

Текущее время: Сегодня 15:45

Часовой пояс: GMT + 4



Вы не можете начинать темы
Вы не можете отвечать на сообщения
Вы не можете редактировать свои сообщения
Вы не можете удалять свои сообщения
Вы не можете голосовать в опросах
Вы не можете прикреплять файлы к сообщениям
Вы не можете скачивать файлы

▼ Вниз