Уважаемый Гость!
Вы можете поддержать проект и зарегистрироваться у наших партнеров - онлайн-стратегия MyLands. При регистрации в игре Вы получите код, который сможете активировать после регистрации на pirat.ca и получить 1000 дублонов.

Ваш код:
bf11e91c0c1b100e6d744ff94e07b9e8fb4f67bf
 
     

(Instrumental) В ритме танца - Танго (РД) (3CD), FLAC (tracks+cue) - 2011, lossless

Ответить на тему
 
Автор
Сообщение

Пост 04-Мар-2012 19:18

[Q] 

CHARLI2236

В ритме танца - Танго (РД) (3CD)
Год выпуска альбома: 2011
Страна: Россия
Жанр: Instrumental
Лейбл издания: ИД Ридерз Дайджест
Продолжительность: 3:09:47
Формат: FLAC
Битрейт аудио: lossless
Тип рипа: tracks+.cue
Источник (релизер): диск CDDA
Наличие сканов в содержимом раздачи: да
Трэклист
01 - The Palm Beach Dance Orchestra - Hernando's Hideaway. (2:28)
02 - Kenny King, his Trumpet and Orchestra - Poema. (2:45)
03 - Mary Carewe - Blue Tango. (2:29)
04 - The Romantic Strings Orchestra - Tango Of Roses. (2:39)
05 - Orquesta Tango 'Rнo de la Plata' - Just A Gigolo (Schцner Gigolo, armer Gigolo) . (2:37)
06 - Ralph Benatar and his Orchestra - La Violetera. (2:15)
07 - Don Cristobal and his Orchestra - Bйsame mucho. (2:31)
08 - Ambros Seelos, his Clarinet and Orchestra - Rote Rosen, rote Lippen, roter Wein. (3:22)
09 - Don Cristobal and his Orchestra - Vous permettez, monsieur . (2:20)
10 - Francis Goya, his Guitar and Orchestra - Guitar Tango. (3:04)
11 - Orquesta Tango 'Rнo de la Plata' - The Legs Of Dolores (Das machen nur die Beine von Dolores) . (3:14)
12 - Salon-Ensemble Prima Carezza- Primas Milton J. Kazinczy, Violin - Jealousy. (3:47)
13 - Nuevo Quinteto Real - La llamo silbando. (2:55)
14 - Enzo Valentino - Caminito. (2:53)
15 - Ernesto Franco and his Orchestra - El irresistible. (2:30)
16 - Heikki Mattinen and his Orchestra - Lily Blossom (Liljankukka) . (2:37)
17 - Ralph Benatar and his Orchestra - Isle Of Capri. (3:07)
18 - Rocco Granata - Tango d'amore. (2:33)
19 - Ambros Seelos and his Orchestra- Dan Aldea, Violin - Du schwarzer Zigeuner. (2:59)
20 - Don Cristobal and his Orchestra - Serenade In The Night (Violino tzigano- Un violon dans la nuit) . (2:06)
21 - Gordon Langford and his Orchestra - Olй Guapa. (3:06)
”Отчет ЕАС”
Отчёт EAC об извлечении, выполненном 4. марта 2012, 14:03 для диска:
Various / В ритме танца - Самое популярное танго
Дисковод: TSSTcorpCDDVDW SH-222AB Adapter: 0 ID: 0
Режим чтения: Достоверный (C2: нет, Точный поток: да, Отключение кэша: да)
Коррекция смещения при чтении: 6
Способность читать области Lead-in и Lead-out : Нет
Выходной формат: C:\Program Files (x86)\FLAC\flac.exe (Пользовательский кодировщик)
128 kBit/s
Дополнительные параметры: -8 -V -T "ARTIST=%a" -T "TITLE=%t" -T "ALBUM=%g" -T "DATE=%y" -T "TRACKNUMBER=%n" -T "GENRE=%m" -T "COMMENT=EAC FLAC -8" %s
Другие параметры:
Заполнение пропущенных сэмплов тишиной : Да
Удаление блоков с тишиной в начале и конце : Нет
Встроенный Win32-интерфейс для Win NT/2000
Трек 1
Имя файла C:\Sergei\новая папка\01 - The Palm Beach Dance Orchestra - Hernando's Hideaway.wav
Длина предзазора 0:00:02.00
Пиковый уровень 96.0 %
Качество трека 100.0 %
CRC теста 8DD03350
CRC копии 8DD03350
Копирование... OK
Трек 2
Имя файла C:\Sergei\новая папка\02 - Kenny King, his Trumpet and Orchestra - Poema.wav
Длина предзазора 0:00:01.80
Пиковый уровень 88.1 %
Качество трека 100.0 %
CRC теста 7967C963
CRC копии 7967C963
Копирование... OK
Трек 3
Имя файла C:\Sergei\новая папка\03 - Mary Carewe - Blue Tango.wav
Длина предзазора 0:00:01.80
Пиковый уровень 41.9 %
Качество трека 100.0 %
CRC теста 45175AAA
CRC копии 45175AAA
Копирование... OK
Трек 4
Имя файла C:\Sergei\новая папка\04 - The Romantic Strings Orchestra - Tango Of Roses.wav
Длина предзазора 0:00:01.80
Пиковый уровень 98.9 %
Качество трека 100.0 %
CRC теста 749708CC
CRC копии 749708CC
Копирование... OK
Трек 5
Имя файла C:\Sergei\новая папка\05 - Orquesta Tango 'Rнo de la Plata' - Just A Gigolo (Schцner Gigolo, armer Gigolo).wav
Длина предзазора 0:00:01.80
Пиковый уровень 47.0 %
Качество трека 99.9 %
CRC теста E45E2370
CRC копии E45E2370
Копирование... OK
Трек 6
Имя файла C:\Sergei\новая папка\06 - Ralph Benatar and his Orchestra - La Violetera.wav
Длина предзазора 0:00:01.80
Пиковый уровень 58.0 %
Качество трека 100.0 %
CRC теста 60568398
CRC копии 60568398
Копирование... OK
Трек 7
Имя файла C:\Sergei\новая папка\07 - Don Cristobal and his Orchestra - Bйsame mucho.wav
Длина предзазора 0:00:01.80
Пиковый уровень 68.4 %
Качество трека 100.0 %
CRC теста 879B28E9
CRC копии 879B28E9
Копирование... OK
Трек 8
Имя файла C:\Sergei\новая папка\08 - Ambros Seelos, his Clarinet and Orchestra - Rote Rosen, rote Lippen, roter Wein.wav
Длина предзазора 0:00:01.80
Пиковый уровень 68.6 %
Качество трека 100.0 %
CRC теста 2308F25A
CRC копии 2308F25A
Копирование... OK
Трек 9
Имя файла C:\Sergei\новая папка\09 - Don Cristobal and his Orchestra - Vous permettez, monsieur .wav
Длина предзазора 0:00:01.80
Пиковый уровень 64.5 %
Качество трека 100.0 %
CRC теста 2D62BD4E
CRC копии 2D62BD4E
Копирование... OK
Трек 10
Имя файла C:\Sergei\новая папка\10 - Francis Goya, his Guitar and Orchestra - Guitar Tango.wav
Длина предзазора 0:00:01.80
Пиковый уровень 43.3 %
Качество трека 100.0 %
CRC теста D43FA881
CRC копии D43FA881
Копирование... OK
Трек 11
Имя файла C:\Sergei\новая папка\11 - Orquesta Tango 'Rнo de la Plata' - The Legs Of Dolores (Das machen nur die Beine von Dolores).wav
Длина предзазора 0:00:01.80
Пиковый уровень 50.8 %
Качество трека 100.0 %
CRC теста C63D9A04
CRC копии C63D9A04
Копирование... OK
Трек 12
Имя файла C:\Sergei\новая папка\12 - Salon-Ensemble Prima Carezza- Primas Milton J. Kazinczy, Violin - Jealousy.wav
Длина предзазора 0:00:01.78
Пиковый уровень 55.8 %
Качество трека 100.0 %
CRC теста 2D95B08F
CRC копии 2D95B08F
Копирование... OK
Трек 13
Имя файла C:\Sergei\новая папка\13 - Nuevo Quinteto Real - La llamo silbando.wav
Длина предзазора 0:00:01.80
Пиковый уровень 51.0 %
Качество трека 100.0 %
CRC теста B13A031B
CRC копии B13A031B
Копирование... OK
Трек 14
Имя файла C:\Sergei\новая папка\14 - Enzo Valentino - Caminito.wav
Длина предзазора 0:00:01.80
Пиковый уровень 60.7 %
Качество трека 100.0 %
CRC теста 033A1808
CRC копии 033A1808
Копирование... OK
Трек 15
Имя файла C:\Sergei\новая папка\15 - Ernesto Franco and his Orchestra - El irresistible.wav
Длина предзазора 0:00:01.80
Пиковый уровень 65.4 %
Качество трека 100.0 %
CRC теста A5F0BAB1
CRC копии A5F0BAB1
Копирование... OK
Трек 16
Имя файла C:\Sergei\новая папка\16 - Heikki Mattinen and his Orchestra - Lily Blossom (Liljankukka).wav
Длина предзазора 0:00:01.80
Пиковый уровень 43.3 %
Качество трека 100.0 %
CRC теста 0DE8988A
CRC копии 0DE8988A
Копирование... OK
Трек 17
Имя файла C:\Sergei\новая папка\17 - Ralph Benatar and his Orchestra - Isle Of Capri.wav
Длина предзазора 0:00:01.80
Пиковый уровень 44.4 %
Качество трека 100.0 %
CRC теста D7DA8040
CRC копии D7DA8040
Копирование... OK
Трек 18
Имя файла C:\Sergei\новая папка\18 - Rocco Granata - Tango d'amore.wav
Длина предзазора 0:00:01.80
Пиковый уровень 33.5 %
Качество трека 99.9 %
CRC теста 0811A93D
CRC копии 0811A93D
Копирование... OK
Трек 19
Имя файла C:\Sergei\новая папка\19 - Ambros Seelos and his Orchestra- Dan Aldea, Violin - Du schwarzer Zigeuner.wav
Длина предзазора 0:00:01.80
Пиковый уровень 51.7 %
Качество трека 100.0 %
CRC теста FC1A4C11
CRC копии FC1A4C11
Копирование... OK
Трек 20
Имя файла C:\Sergei\новая папка\20 - Don Cristobal and his Orchestra - Serenade In The Night (Violino tzigano- Un violon dans la nuit).wav
Длина предзазора 0:00:01.80
Пиковый уровень 51.6 %
Качество трека 100.0 %
CRC теста ECB599EC
CRC копии ECB599EC
Копирование... OK
Трек 21
Имя файла C:\Sergei\новая папка\21 - Gordon Langford and his Orchestra - Olй Guapa.wav
Длина предзазора 0:00:01.80
Пиковый уровень 98.9 %
Качество трека 100.0 %
CRC теста 5D58907F
CRC копии 5D58907F
Копирование... OK
Ошибок не произошло
Конец отчёта
"Non-compilant CUE"
REM GENRE Instrumental
REM DATE 2011
REM DISCID 150DB115
REM COMMENT "ExactAudioCopy v0.95b3"
PERFORMER "Various"
TITLE "В ритме танца - Самое популярное танго "
FILE "01 - The Palm Beach Dance Orchestra - Hernando's Hideaway.wav" WAVE
TRACK 01 AUDIO
TITLE "Hernando's Hideaway"
PERFORMER "The Palm Beach Dance Orchestra"
INDEX 01 00:00:00
TRACK 02 AUDIO
TITLE "Poema"
PERFORMER "Kenny King, his Trumpet and Orchestra"
INDEX 00 02:26:17
FILE "02 - Kenny King, his Trumpet and Orchestra - Poema.wav" WAVE
INDEX 01 00:00:00
TRACK 03 AUDIO
TITLE "Blue Tango"
PERFORMER "Mary Carewe"
INDEX 00 02:43:27
FILE "03 - Mary Carewe - Blue Tango.wav" WAVE
INDEX 01 00:00:00
TRACK 04 AUDIO
TITLE "Tango Of Roses"
PERFORMER "The Romantic Strings Orchestra"
INDEX 00 02:27:38
FILE "04 - The Romantic Strings Orchestra - Tango Of Roses.wav" WAVE
INDEX 01 00:00:00
TRACK 05 AUDIO
TITLE "Just A Gigolo (Schцner Gigolo, armer Gigolo)"
PERFORMER "Orquesta Tango 'Rнo de la Plata'"
INDEX 00 02:37:72
FILE "05 - Orquesta Tango 'Rнo de la Plata' - Just A Gigolo (Schцner Gigolo, armer Gigolo).wav" WAVE
INDEX 01 00:00:00
TRACK 06 AUDIO
TITLE "La Violetera"
PERFORMER "Ralph Benatar and his Orchestra"
INDEX 00 02:35:18
FILE "06 - Ralph Benatar and his Orchestra - La Violetera.wav" WAVE
INDEX 01 00:00:00
TRACK 07 AUDIO
TITLE "Bйsame mucho"
PERFORMER "Don Cristobal and his Orchestra"
INDEX 00 02:13:22
FILE "07 - Don Cristobal and his Orchestra - Bйsame mucho.wav" WAVE
INDEX 01 00:00:00
TRACK 08 AUDIO
TITLE "Rote Rosen, rote Lippen, roter Wein"
PERFORMER "Ambros Seelos, his Clarinet and Orchestra"
INDEX 00 02:29:39
FILE "08 - Ambros Seelos, his Clarinet and Orchestra - Rote Rosen, rote Lippen, roter Wein.wav" WAVE
INDEX 01 00:00:00
TRACK 09 AUDIO
TITLE "Vous permettez, monsieur?"
PERFORMER "Don Cristobal and his Orchestra"
INDEX 00 03:20:70
FILE "09 - Don Cristobal and his Orchestra - Vous permettez, monsieur .wav" WAVE
INDEX 01 00:00:00
TRACK 10 AUDIO
TITLE "Guitar Tango"
PERFORMER "Francis Goya, his Guitar and Orchestra"
INDEX 00 02:18:30
FILE "10 - Francis Goya, his Guitar and Orchestra - Guitar Tango.wav" WAVE
INDEX 01 00:00:00
TRACK 11 AUDIO
TITLE "The Legs Of Dolores (Das machen nur die Beine von Dolores)"
PERFORMER "Orquesta Tango 'Rнo de la Plata'"
INDEX 00 03:02:49
FILE "11 - Orquesta Tango 'Rнo de la Plata' - The Legs Of Dolores (Das machen nur die Beine von Dolores).wav" WAVE
INDEX 01 00:00:00
TRACK 12 AUDIO
TITLE "Jealousy"
PERFORMER "Salon-Ensemble Prima Carezza\ Primas Milton J. Kazinczy, Violin"
INDEX 00 03:12:49
FILE "12 - Salon-Ensemble Prima Carezza- Primas Milton J. Kazinczy, Violin - Jealousy.wav" WAVE
INDEX 01 00:00:00
TRACK 13 AUDIO
TITLE "La llamo silbando"
PERFORMER "Nuevo Quinteto Real"
INDEX 00 03:45:66
FILE "13 - Nuevo Quinteto Real - La llamo silbando.wav" WAVE
INDEX 01 00:00:00
TRACK 14 AUDIO
TITLE "Caminito"
PERFORMER "Enzo Valentino"
INDEX 00 02:53:55
FILE "14 - Enzo Valentino - Caminito.wav" WAVE
INDEX 01 00:00:00
TRACK 15 AUDIO
TITLE "El irresistible"
PERFORMER "Ernesto Franco and his Orchestra"
INDEX 00 02:51:60
FILE "15 - Ernesto Franco and his Orchestra - El irresistible.wav" WAVE
INDEX 01 00:00:00
TRACK 16 AUDIO
TITLE "Lily Blossom (Liljankukka)"
PERFORMER "Heikki Mattinen and his Orchestra"
INDEX 00 02:28:65
FILE "16 - Heikki Mattinen and his Orchestra - Lily Blossom (Liljankukka).wav" WAVE
INDEX 01 00:00:00
TRACK 17 AUDIO
TITLE "Isle Of Capri"
PERFORMER "Ralph Benatar and his Orchestra"
INDEX 00 02:35:57
FILE "17 - Ralph Benatar and his Orchestra - Isle Of Capri.wav" WAVE
INDEX 01 00:00:00
TRACK 18 AUDIO
TITLE "Tango d'amore"
PERFORMER "Rocco Granata"
INDEX 00 03:05:23
FILE "18 - Rocco Granata - Tango d'amore.wav" WAVE
INDEX 01 00:00:00
TRACK 19 AUDIO
TITLE "Du schwarzer Zigeuner"
PERFORMER "Ambros Seelos and his Orchestra\ Dan Aldea, Violin"
INDEX 00 02:31:70
FILE "19 - Ambros Seelos and his Orchestra- Dan Aldea, Violin - Du schwarzer Zigeuner.wav" WAVE
INDEX 01 00:00:00
TRACK 20 AUDIO
TITLE "Serenade In The Night (Violino tzigano\ Un violon dans la nuit)"
PERFORMER "Don Cristobal and his Orchestra"
INDEX 00 02:57:47
FILE "20 - Don Cristobal and his Orchestra - Serenade In The Night (Violino tzigano- Un violon dans la nuit).wav" WAVE
INDEX 01 00:00:00
TRACK 21 AUDIO
TITLE "Olй Guapa"
PERFORMER "Gordon Langford and his Orchestra"
INDEX 00 02:04:17
FILE "21 - Gordon Langford and his Orchestra - Olй Guapa.wav" WAVE
INDEX 01 00:00:00
"Лог Audiochecker"
AUDIOCHECKER v2.0 beta (build 457) - by Dester - [email protected]
~~~~~~~~~~~~~~~~~~~~~~~~~~~~~~~~~~
-=== НЕ РЕДАКТИРУЙТЕ ЭТОТ ФАЙЛ! ===-
Путь: ...\Самое популярное танго
01 -=- 01 - The Palm Beach Dance Orchestra - Hernando's Hideaway.flac -=- CDDA (100%)
02 -=- 02 - Kenny King, his Trumpet and Orchestra - Poema.flac -=- CDDA (76%)
03 -=- 03 - Mary Carewe - Blue Tango.flac -=- MPEG (95%)
04 -=- 04 - The Romantic Strings Orchestra - Tango Of Roses.flac -=- CDDA (100%)
05 -=- 05 - Orquesta Tango 'Rнo de la Plata' - Just A Gigolo (Schцner Gigolo, armer Gigolo).flac -=- CDDA (42%)
06 -=- 06 - Ralph Benatar and his Orchestra - La Violetera.flac -=- CDDA (99%)
07 -=- 07 - Don Cristobal and his Orchestra - Bйsame mucho.flac -=- CDDA (100%)
08 -=- 08 - Ambros Seelos, his Clarinet and Orchestra - Rote Rosen, rote Lippen, roter Wein.flac -=- CDDA (100%)
09 -=- 09 - Don Cristobal and his Orchestra - Vous permettez, monsieur .flac -=- CDDA (100%)
10 -=- 10 - Francis Goya, his Guitar and Orchestra - Guitar Tango.flac -=- CDDA (100%)
11 -=- 11 - Orquesta Tango 'Rнo de la Plata' - The Legs Of Dolores (Das machen nur die Beine von Dolores).flac -=- CDDA (100%)
12 -=- 12 - Salon-Ensemble Prima Carezza- Primas Milton J. Kazinczy, Violin - Jealousy.flac -=- CDDA (100%)
13 -=- 13 - Nuevo Quinteto Real - La llamo silbando.flac -=- CDDA (100%)
14 -=- 14 - Enzo Valentino - Caminito.flac -=- CDDA (100%)
15 -=- 15 - Ernesto Franco and his Orchestra - El irresistible.flac -=- CDDA (99%)
16 -=- 16 - Heikki Mattinen and his Orchestra - Lily Blossom (Liljankukka).flac -=- CDDA (100%)
17 -=- 17 - Ralph Benatar and his Orchestra - Isle Of Capri.flac -=- CDDA (100%)
18 -=- 18 - Rocco Granata - Tango d'amore.flac -=- CDDA (100%)
19 -=- 19 - Ambros Seelos and his Orchestra- Dan Aldea, Violin - Du schwarzer Zigeuner.flac -=- CDDA (99%)
20 -=- 20 - Don Cristobal and his Orchestra - Serenade In The Night (Violino tzigano- Un violon dans la nuit).flac -=- CDDA (76%)
21 -=- 21 - Gordon Langford and his Orchestra - Olй Guapa.flac -=- CDDA (100%)
Сводка 90,29% CDDA
251469092
Трэклист
01 - Ernesto Franco and his Orchestra - La cumparsita. (4:24)
02 - Ana Medrano - El choclo. (2:34)
03 - Ernesto Franco and his Orchestra - Loca. (2:36)
04 - Diego Solis - Historia de un amor. (2:17)
05 - Osvaldo Piro and his Orchestra - Danzarin. (4:53)
06 - Martнn De Leуn - Uno. (4:05)
07 - Las Tangueras - Griseta. (2:39)
08 - Ricardo 'Chiqui' Pereyra - Mano a mano. (3:04)
09 - Orquesta Color Tango - Maypa. (3:09)
10 - Martнn De Leуn - Soledad. (3:57)
11 - Quique Lannoo and his Orchestra - Canaro en Parнs. (3:09)
12 - Ana Medrano - Golondrinas. (3:01)
13 - Quique Lannoo and his Orchestra - El amanecer. (2:49)
14 - Omar Valente - Milonga con variaciуn. (3:48)
15 - Josй Colangelo and his Orchestra - Mariposita. (2:40)
16 - Ernesto Franco and his Orchestra- Gabriel Reynal, vocal - Y todavia te quiero. (3:14)
17 - Orquesta Escuela de Tango - La Yumba. (2:57)
18 - Facundo Dнaz y sus Amigos - Yira, Yira. (2:43)
19 - Josй Colangelo and his Orchestra- Guillermo Fernandez, vocal - Gricel. (3:54)
20 - Astor Piazzolla, his Bandoneon and Orchestra - Libertango. (2:46)
21 - Ricardo 'Chiqui' Pereyra - Volver. (3:19)
22 - El Arranque - Adiуs pampa mнa. (3:05)
”Отчет ЕАС”
Отчёт EAC об извлечении, выполненном 4. марта 2012, 15:12 для диска:
Various / В ритме танца - Аргентинское танго
Дисковод: TSSTcorpCDDVDW SH-222AB Adapter: 0 ID: 0
Режим чтения: Достоверный (C2: нет, Точный поток: да, Отключение кэша: да)
Коррекция смещения при чтении: 6
Способность читать области Lead-in и Lead-out : Нет
Выходной формат: C:\Program Files (x86)\FLAC\flac.exe (Пользовательский кодировщик)
128 kBit/s
Дополнительные параметры: -8 -V -T "ARTIST=%a" -T "TITLE=%t" -T "ALBUM=%g" -T "DATE=%y" -T "TRACKNUMBER=%n" -T "GENRE=%m" -T "COMMENT=EAC FLAC -8" %s
Другие параметры:
Заполнение пропущенных сэмплов тишиной : Да
Удаление блоков с тишиной в начале и конце : Нет
Встроенный Win32-интерфейс для Win NT/2000
Трек 1
Имя файла C:\Sergei\новая папка\01 - Ernesto Franco and his Orchestra - La cumparsita.wav
Длина предзазора 0:00:02.00
Пиковый уровень 85.7 %
Качество трека 100.0 %
CRC теста 9EFB7EF0
CRC копии 9EFB7EF0
Копирование... OK
Трек 2
Имя файла C:\Sergei\новая папка\02 - Ana Medrano - El choclo.wav
Длина предзазора 0:00:01.80
Пиковый уровень 77.7 %
Качество трека 100.0 %
CRC теста 3A1946F7
CRC копии 3A1946F7
Копирование... OK
Трек 3
Имя файла C:\Sergei\новая папка\03 - Ernesto Franco and his Orchestra - Loca.wav
Длина предзазора 0:00:01.80
Пиковый уровень 80.1 %
Качество трека 99.9 %
CRC теста BE537FDB
CRC копии BE537FDB
Копирование... OK
Трек 4
Имя файла C:\Sergei\новая папка\04 - Diego Solis - Historia de un amor.wav
Длина предзазора 0:00:01.80
Пиковый уровень 91.1 %
Качество трека 99.9 %
CRC теста B3911B10
CRC копии B3911B10
Копирование... OK
Трек 5
Имя файла C:\Sergei\новая папка\05 - Osvaldo Piro and his Orchestra - Danzarin.wav
Длина предзазора 0:00:01.80
Пиковый уровень 92.6 %
Качество трека 100.0 %
CRC теста B49A49FF
CRC копии B49A49FF
Копирование... OK
Трек 6
Имя файла C:\Sergei\новая папка\06 - Martнn De Leуn - Uno.wav
Длина предзазора 0:00:01.80
Пиковый уровень 63.9 %
Качество трека 100.0 %
CRC теста 7052CD2A
CRC копии 7052CD2A
Копирование... OK
Трек 7
Имя файла C:\Sergei\новая папка\07 - Las Tangueras - Griseta.wav
Длина предзазора 0:00:01.80
Пиковый уровень 91.0 %
Качество трека 100.0 %
CRC теста 9796E363
CRC копии 9796E363
Копирование... OK
Трек 8
Имя файла C:\Sergei\новая папка\08 - Ricardo 'Chiqui' Pereyra - Mano a mano.wav
Длина предзазора 0:00:01.80
Пиковый уровень 88.4 %
Качество трека 99.9 %
CRC теста 88F9199A
CRC копии 88F9199A
Копирование... OK
Трек 9
Имя файла C:\Sergei\новая папка\09 - Orquesta Color Tango - Maypa.wav
Длина предзазора 0:00:01.80
Пиковый уровень 93.7 %
Качество трека 100.0 %
CRC теста 19E6837A
CRC копии 19E6837A
Копирование... OK
Трек 10
Имя файла C:\Sergei\новая папка\10 - Martнn De Leуn - Soledad.wav
Длина предзазора 0:00:01.80
Пиковый уровень 74.4 %
Качество трека 100.0 %
CRC теста 351EBC13
CRC копии 351EBC13
Копирование... OK
Трек 11
Имя файла C:\Sergei\новая папка\11 - Quique Lannoo and his Orchestra - Canaro en Parнs.wav
Длина предзазора 0:00:01.80
Пиковый уровень 83.8 %
Качество трека 100.0 %
CRC теста BEE01186
CRC копии BEE01186
Копирование... OK
Трек 12
Имя файла C:\Sergei\новая папка\12 - Ana Medrano - Golondrinas.wav
Длина предзазора 0:00:01.80
Пиковый уровень 92.6 %
Качество трека 99.9 %
CRC теста 6B7A107D
CRC копии 6B7A107D
Копирование... OK
Трек 13
Имя файла C:\Sergei\новая папка\13 - Quique Lannoo and his Orchestra - El amanecer.wav
Длина предзазора 0:00:01.80
Пиковый уровень 86.2 %
Качество трека 100.0 %
CRC теста 5BB758FE
CRC копии 5BB758FE
Копирование... OK
Трек 14
Имя файла C:\Sergei\новая папка\14 - Omar Valente - Milonga con variaciуn.wav
Длина предзазора 0:00:01.80
Пиковый уровень 88.1 %
Качество трека 100.0 %
CRC теста FA26906F
CRC копии FA26906F
Копирование... OK
Трек 15
Имя файла C:\Sergei\новая папка\15 - Josй Colangelo and his Orchestra - Mariposita.wav
Длина предзазора 0:00:01.80
Пиковый уровень 91.0 %
Качество трека 100.0 %
CRC теста E9CC0C16
CRC копии E9CC0C16
Копирование... OK
Трек 16
Имя файла C:\Sergei\новая папка\16 - Ernesto Franco and his Orchestra- Gabriel Reynal, vocal - Y todavia te quiero.wav
Длина предзазора 0:00:01.80
Пиковый уровень 92.3 %
Качество трека 100.0 %
CRC теста 57C860F9
CRC копии 57C860F9
Копирование... OK
Трек 17
Имя файла C:\Sergei\новая папка\17 - Orquesta Escuela de Tango - La Yumba.wav
Длина предзазора 0:00:01.80
Пиковый уровень 99.3 %
Качество трека 100.0 %
CRC теста 3B0A485B
CRC копии 3B0A485B
Копирование... OK
Трек 18
Имя файла C:\Sergei\новая папка\18 - Facundo Dнaz y sus Amigos - Yira, Yira.wav
Длина предзазора 0:00:01.80
Пиковый уровень 98.1 %
Качество трека 100.0 %
CRC теста BBB3EA72
CRC копии BBB3EA72
Копирование... OK
Трек 19
Имя файла C:\Sergei\новая папка\19 - Josй Colangelo and his Orchestra- Guillermo Fernandez, vocal - Gricel.wav
Длина предзазора 0:00:01.80
Пиковый уровень 87.6 %
Качество трека 100.0 %
CRC теста 337D6E5D
CRC копии 337D6E5D
Копирование... OK
Трек 20
Имя файла C:\Sergei\новая папка\20 - Astor Piazzolla, his Bandoneon and Orchestra - Libertango.wav
Длина предзазора 0:00:01.80
Пиковый уровень 71.8 %
Качество трека 100.0 %
CRC теста DC8544D7
CRC копии DC8544D7
Копирование... OK
Трек 21
Имя файла C:\Sergei\новая папка\21 - Ricardo 'Chiqui' Pereyra - Volver.wav
Длина предзазора 0:00:01.80
Пиковый уровень 92.0 %
Качество трека 100.0 %
CRC теста E2F9FD44
CRC копии E2F9FD44
Копирование... OK
Трек 22
Имя файла C:\Sergei\новая папка\22 - El Arranque - Adiуs pampa mнa.wav
Длина предзазора 0:00:01.80
Пиковый уровень 88.4 %
Качество трека 100.0 %
CRC теста 0F67434B
CRC копии 0F67434B
Копирование... OK
Ошибок не произошло
Конец отчёта
"Non-compilant CUE"
REM GENRE Instrumental
REM DATE 2011
REM DISCID 5110B116
REM COMMENT "ExactAudioCopy v0.95b3"
PERFORMER "Various"
TITLE "В ритме танца - Аргентинское танго"
FILE "01 - Ernesto Franco and his Orchestra - La cumparsita.wav" WAVE
TRACK 01 AUDIO
TITLE "La cumparsita"
PERFORMER "Ernesto Franco and his Orchestra"
INDEX 01 00:00:00
TRACK 02 AUDIO
TITLE "El choclo"
PERFORMER "Ana Medrano"
INDEX 00 04:23:03
FILE "02 - Ana Medrano - El choclo.wav" WAVE
INDEX 01 00:00:00
TRACK 03 AUDIO
TITLE "Loca"
PERFORMER "Ernesto Franco and his Orchestra"
INDEX 00 02:32:65
FILE "03 - Ernesto Franco and his Orchestra - Loca.wav" WAVE
INDEX 01 00:00:00
TRACK 04 AUDIO
TITLE "Historia de un amor"
PERFORMER "Diego Solis"
INDEX 00 02:34:19
FILE "04 - Diego Solis - Historia de un amor.wav" WAVE
INDEX 01 00:00:00
TRACK 05 AUDIO
TITLE "Danzarin"
PERFORMER "Osvaldo Piro and his Orchestra"
INDEX 00 02:15:48
FILE "05 - Osvaldo Piro and his Orchestra - Danzarin.wav" WAVE
INDEX 01 00:00:00
TRACK 06 AUDIO
TITLE "Uno"
PERFORMER "Martнn De Leуn"
INDEX 00 04:52:09
FILE "06 - Martнn De Leуn - Uno.wav" WAVE
INDEX 01 00:00:00
TRACK 07 AUDIO
TITLE "Griseta"
PERFORMER "Las Tangueras"
INDEX 00 04:03:49
FILE "07 - Las Tangueras - Griseta.wav" WAVE
INDEX 01 00:00:00
TRACK 08 AUDIO
TITLE "Mano a mano"
PERFORMER "Ricardo 'Chiqui' Pereyra"
INDEX 00 02:37:66
FILE "08 - Ricardo 'Chiqui' Pereyra - Mano a mano.wav" WAVE
INDEX 01 00:00:00
TRACK 09 AUDIO
TITLE "Maypa"
PERFORMER "Orquesta Color Tango"
INDEX 00 03:03:12
FILE "09 - Orquesta Color Tango - Maypa.wav" WAVE
INDEX 01 00:00:00
TRACK 10 AUDIO
TITLE "Soledad"
PERFORMER "Martнn De Leуn"
INDEX 00 03:07:21
FILE "10 - Martнn De Leуn - Soledad.wav" WAVE
INDEX 01 00:00:00
TRACK 11 AUDIO
TITLE "Canaro en Parнs"
PERFORMER "Quique Lannoo and his Orchestra"
INDEX 00 03:55:51
FILE "11 - Quique Lannoo and his Orchestra - Canaro en Parнs.wav" WAVE
INDEX 01 00:00:00
TRACK 12 AUDIO
TITLE "Golondrinas"
PERFORMER "Ana Medrano"
INDEX 00 03:07:29
FILE "12 - Ana Medrano - Golondrinas.wav" WAVE
INDEX 01 00:00:00
TRACK 13 AUDIO
TITLE "El amanecer"
PERFORMER "Quique Lannoo and his Orchestra"
INDEX 00 03:00:12
FILE "13 - Quique Lannoo and his Orchestra - El amanecer.wav" WAVE
INDEX 01 00:00:00
TRACK 14 AUDIO
TITLE "Milonga con variaciуn"
PERFORMER "Omar Valente"
INDEX 00 02:47:20
FILE "14 - Omar Valente - Milonga con variaciуn.wav" WAVE
INDEX 01 00:00:00
TRACK 15 AUDIO
TITLE "Mariposita"
PERFORMER "Josй Colangelo and his Orchestra"
INDEX 00 03:46:62
FILE "15 - Josй Colangelo and his Orchestra - Mariposita.wav" WAVE
INDEX 01 00:00:00
TRACK 16 AUDIO
TITLE "Y todavia te quiero"
PERFORMER "Ernesto Franco and his Orchestra\ Gabriel Reynal, vocal"
INDEX 00 02:38:36
FILE "16 - Ernesto Franco and his Orchestra- Gabriel Reynal, vocal - Y todavia te quiero.wav" WAVE
INDEX 01 00:00:00
TRACK 17 AUDIO
TITLE "La Yumba"
PERFORMER "Orquesta Escuela de Tango"
INDEX 00 03:12:53
FILE "17 - Orquesta Escuela de Tango - La Yumba.wav" WAVE
INDEX 01 00:00:00
TRACK 18 AUDIO
TITLE "Yira, Yira"
PERFORMER "Facundo Dнaz y sus Amigos"
INDEX 00 02:55:25
FILE "18 - Facundo Dнaz y sus Amigos - Yira, Yira.wav" WAVE
INDEX 01 00:00:00
TRACK 19 AUDIO
TITLE "Gricel"
PERFORMER "Josй Colangelo and his Orchestra\ Guillermo Fernandez, vocal"
INDEX 00 02:41:74
FILE "19 - Josй Colangelo and his Orchestra- Guillermo Fernandez, vocal - Gricel.wav" WAVE
INDEX 01 00:00:00
TRACK 20 AUDIO
TITLE "Libertango"
PERFORMER "Astor Piazzolla, his Bandoneon and Orchestra"
INDEX 00 03:52:30
FILE "20 - Astor Piazzolla, his Bandoneon and Orchestra - Libertango.wav" WAVE
INDEX 01 00:00:00
TRACK 21 AUDIO
TITLE "Volver"
PERFORMER "Ricardo 'Chiqui' Pereyra"
INDEX 00 02:44:32
FILE "21 - Ricardo 'Chiqui' Pereyra - Volver.wav" WAVE
INDEX 01 00:00:00
TRACK 22 AUDIO
TITLE "Adiуs pampa mнa"
PERFORMER "El Arranque"
INDEX 00 03:17:48
FILE "22 - El Arranque - Adiуs pampa mнa.wav" WAVE
INDEX 01 00:00:00
"Лог Audiochecker"
AUDIOCHECKER v2.0 beta (build 457) - by Dester - [email protected]
~~~~~~~~~~~~~~~~~~~~~~~~~~~~~~~~~~
-=== НЕ РЕДАКТИРУЙТЕ ЭТОТ ФАЙЛ! ===-
Путь: ...\Аргентинское танго
01 -=- 01 - Ernesto Franco and his Orchestra - La cumparsita.flac -=- CDDA (100%)
02 -=- 02 - Ana Medrano - El choclo.flac -=- CDDA (100%)
03 -=- 03 - Ernesto Franco and his Orchestra - Loca.flac -=- CDDA (100%)
04 -=- 04 - Diego Solis - Historia de un amor.flac -=- CDDA (100%)
05 -=- 05 - Osvaldo Piro and his Orchestra - Danzarin.flac -=- CDDA (100%)
06 -=- 06 - Martнn De Leуn - Uno.flac -=- CDDA (99%)
07 -=- 07 - Las Tangueras - Griseta.flac -=- CDDA (100%)
08 -=- 08 - Ricardo 'Chiqui' Pereyra - Mano a mano.flac -=- CDDA (100%)
09 -=- 09 - Orquesta Color Tango - Maypa.flac -=- CDDA (100%)
10 -=- 10 - Martнn De Leуn - Soledad.flac -=- CDDA (100%)
11 -=- 11 - Quique Lannoo and his Orchestra - Canaro en Parнs.flac -=- CDDA (100%)
12 -=- 12 - Ana Medrano - Golondrinas.flac -=- CDDA (100%)
13 -=- 13 - Quique Lannoo and his Orchestra - El amanecer.flac -=- CDDA (99%)
14 -=- 14 - Omar Valente - Milonga con variaciуn.flac -=- CDDA (100%)
15 -=- 15 - Josй Colangelo and his Orchestra - Mariposita.flac -=- CDDA (100%)
16 -=- 16 - Ernesto Franco and his Orchestra- Gabriel Reynal, vocal - Y todavia te quiero.flac -=- CDDA (100%)
17 -=- 17 - Orquesta Escuela de Tango - La Yumba.flac -=- CDDA (100%)
18 -=- 18 - Facundo Dнaz y sus Amigos - Yira, Yira.flac -=- CDDA (100%)
19 -=- 19 - Josй Colangelo and his Orchestra- Guillermo Fernandez, vocal - Gricel.flac -=- CDDA (100%)
20 -=- 20 - Astor Piazzolla, his Bandoneon and Orchestra - Libertango.flac -=- CDDA (99%)
21 -=- 21 - Ricardo 'Chiqui' Pereyra - Volver.flac -=- CDDA (100%)
22 -=- 22 - El Arranque - Adiуs pampa mнa.flac -=- CDDA (100%)
Сводка 99,86% CDDA
97804804
Трэклист
01 - Ernesto Franco and his Orchestra - A media luz. (2:32)
02 - Osvaldo Requena - Sentimiento gaucho. (3:11)
03 - Orquesta Tango 'Rнo de la Plata' - Chйrie. (2:56)
04 - Richard Hayman and his Symphony Orchestra - Orchids In The Moonlight. (3:09)
05 - Musica Varia Ensemble- Michael Schwarz, Violin - Youkali. (5:01)
06 - Orquesta Escuela de Tango - Organito de la tarde. (3:04)
07 - Ambros Seelos and his Orchestra - Tanze mit mir in den Morgen. (2:38)
08 - Ralph Benatar and his Orchestra - Il pleut sur la route. (3:06)
09 - Claude Blouin and his Orchestra - Le plus beau tango du monde (The Most Beautiful Tango In The Wor. (2:37)
10 - Don Cristobal and his Orchestra - Kriminal-Tango. (2:39)
11 - Ralph Benatar and his Orchestra - Wonderland (Satumaa) . (2:39)
12 - Orquesta Escuela de Tango - Gallo ciego. (2:47)
13 - Salon-Ensemble Prima Carezza - Tango Torrero. (3:28)
14 - Marcel Azzola, his Accordion and Orchestra - Le tango des fauvettes. (2:52)
15 - Orquesta Color Tango - De floreo. (2:50)
16 - Sexteto Sur - Pб que te oigan bandonйon. (2:50)
17 - Pedro Lozano - Noche de Reyes. (1:54)
18 - Orquesta Color Tango - Troileana. (2:18)
19 - Enzo Valentino - Te quiero. (2:23)
20 - Ernesto Franco and his Orchestra - La tablada. (2:53)
21 - Nuevo Quinteto Real - Adiуs muchachos. (2:12)
”Отчет ЕАС”
Отчёт EAC об извлечении, выполненном 4. марта 2012, 18:17 для диска:
Various / В ритме танца - Адиос мучачос
Дисковод: TSSTcorpCDDVDW SH-222AB Adapter: 0 ID: 0
Режим чтения: Достоверный (C2: нет, Точный поток: да, Отключение кэша: да)
Коррекция смещения при чтении: 6
Способность читать области Lead-in и Lead-out : Нет
Выходной формат: C:\Program Files (x86)\FLAC\flac.exe (Пользовательский кодировщик)
128 kBit/s
Дополнительные параметры: -8 -V -T "ARTIST=%a" -T "TITLE=%t" -T "ALBUM=%g" -T "DATE=%y" -T "TRACKNUMBER=%n" -T "GENRE=%m" -T "COMMENT=EAC FLAC -8" %s
Другие параметры:
Заполнение пропущенных сэмплов тишиной : Да
Удаление блоков с тишиной в начале и конце : Нет
Встроенный Win32-интерфейс для Win NT/2000
Трек 1
Имя файла C:\Sergei\новая папка\01 - Ernesto Franco and his Orchestra - A media luz.wav
Длина предзазора 0:00:02.00
Пиковый уровень 78.3 %
Качество трека 100.0 %
CRC теста F50EE88D
CRC копии F50EE88D
Копирование... OK
Трек 2
Имя файла C:\Sergei\новая папка\02 - Osvaldo Requena - Sentimiento gaucho.wav
Длина предзазора 0:00:01.80
Пиковый уровень 56.1 %
Качество трека 99.9 %
CRC теста 4B55A350
CRC копии 4B55A350
Копирование... OK
Трек 3
Имя файла C:\Sergei\новая папка\03 - Orquesta Tango 'Rнo de la Plata' - Chйrie.wav
Длина предзазора 0:00:01.80
Пиковый уровень 33.3 %
Качество трека 100.0 %
CRC теста 5C5095CC
CRC копии 5C5095CC
Копирование... OK
Трек 4
Имя файла C:\Sergei\новая папка\04 - Richard Hayman and his Symphony Orchestra - Orchids In The Moonlight.wav
Длина предзазора 0:00:01.80
Пиковый уровень 99.0 %
Качество трека 100.0 %
CRC теста 50805C7C
CRC копии 50805C7C
Копирование... OK
Трек 5
Имя файла C:\Sergei\новая папка\05 - Musica Varia Ensemble- Michael Schwarz, Violin - Youkali.wav
Длина предзазора 0:00:01.80
Пиковый уровень 87.4 %
Качество трека 100.0 %
CRC теста 6F22F9BB
CRC копии 6F22F9BB
Копирование... OK
Трек 6
Имя файла C:\Sergei\новая папка\06 - Orquesta Escuela de Tango - Organito de la tarde.wav
Длина предзазора 0:00:01.80
Пиковый уровень 51.5 %
Качество трека 100.0 %
CRC теста 60FAD8F9
CRC копии 60FAD8F9
Копирование... OK
Трек 7
Имя файла C:\Sergei\новая папка\07 - Ambros Seelos and his Orchestra - Tanze mit mir in den Morgen.wav
Длина предзазора 0:00:01.80
Пиковый уровень 54.0 %
Качество трека 100.0 %
CRC теста 603ACCBA
CRC копии 603ACCBA
Копирование... OK
Трек 8
Имя файла C:\Sergei\новая папка\08 - Ralph Benatar and his Orchestra - Il pleut sur la route.wav
Длина предзазора 0:00:01.80
Пиковый уровень 48.2 %
Качество трека 99.9 %
CRC теста 8391EF55
CRC копии 8391EF55
Копирование... OK
Трек 9
Имя файла C:\Sergei\новая папка\09 - Claude Blouin and his Orchestra - Le plus beau tango du monde (The Most Beautiful Tango In The Wor.wav
Длина предзазора 0:00:01.80
Пиковый уровень 54.8 %
Качество трека 100.0 %
CRC теста 0ED71606
CRC копии 0ED71606
Копирование... OK
Трек 10
Имя файла C:\Sergei\новая папка\10 - Don Cristobal and his Orchestra - Kriminal-Tango.wav
Длина предзазора 0:00:01.80
Пиковый уровень 53.3 %
Качество трека 100.0 %
CRC теста A2EC0591
CRC копии A2EC0591
Копирование... OK
Трек 11
Имя файла C:\Sergei\новая папка\11 - Ralph Benatar and his Orchestra - Wonderland (Satumaa).wav
Длина предзазора 0:00:01.80
Пиковый уровень 44.4 %
Качество трека 100.0 %
CRC теста BEF7362D
CRC копии BEF7362D
Копирование... OK
Трек 12
Имя файла C:\Sergei\новая папка\12 - Orquesta Escuela de Tango - Gallo ciego.wav
Длина предзазора 0:00:01.80
Пиковый уровень 59.5 %
Качество трека 99.9 %
CRC теста F32529E7
CRC копии F32529E7
Копирование... OK
Трек 13
Имя файла C:\Sergei\новая папка\13 - Salon-Ensemble Prima Carezza - Tango Torrero.wav
Длина предзазора 0:00:01.80
Пиковый уровень 77.8 %
Качество трека 100.0 %
CRC теста EDD7522B
CRC копии EDD7522B
Копирование... OK
Трек 14
Имя файла C:\Sergei\новая папка\14 - Marcel Azzola, his Accordion and Orchestra - Le tango des fauvettes.wav
Длина предзазора 0:00:01.80
Пиковый уровень 38.9 %
Качество трека 100.0 %
CRC теста B1D1C4F1
CRC копии B1D1C4F1
Копирование... OK
Трек 15
Имя файла C:\Sergei\новая папка\15 - Orquesta Color Tango - De floreo.wav
Длина предзазора 0:00:01.80
Пиковый уровень 72.5 %
Качество трека 100.0 %
CRC теста 164E57B4
CRC копии 164E57B4
Копирование... OK
Трек 16
Имя файла C:\Sergei\новая папка\16 - Sexteto Sur - Pб que te oigan bandonйon.wav
Длина предзазора 0:00:01.80
Пиковый уровень 87.7 %
Качество трека 100.0 %
CRC теста 2CA884C8
CRC копии 2CA884C8
Копирование... OK
Трек 17
Имя файла C:\Sergei\новая папка\17 - Pedro Lozano - Noche de Reyes.wav
Длина предзазора 0:00:01.80
Пиковый уровень 73.2 %
Качество трека 99.9 %
CRC теста FC00E098
CRC копии FC00E098
Копирование... OK
Трек 18
Имя файла C:\Sergei\новая папка\18 - Orquesta Color Tango - Troileana.wav
Длина предзазора 0:00:01.80
Пиковый уровень 83.1 %
Качество трека 100.0 %
CRC теста ED709A61
CRC копии ED709A61
Копирование... OK
Трек 19
Имя файла C:\Sergei\новая папка\19 - Enzo Valentino - Te quiero.wav
Длина предзазора 0:00:01.80
Пиковый уровень 56.3 %
Качество трека 100.0 %
CRC теста 2ECC63A4
CRC копии 2ECC63A4
Копирование... OK
Трек 20
Имя файла C:\Sergei\новая папка\20 - Ernesto Franco and his Orchestra - La tablada.wav
Длина предзазора 0:00:01.80
Пиковый уровень 90.5 %
Качество трека 100.0 %
CRC теста 46784735
CRC копии 46784735
Копирование... OK
Трек 21
Имя файла C:\Sergei\новая папка\21 - Nuevo Quinteto Real - Adiуs muchachos.wav
Длина предзазора 0:00:01.80
Пиковый уровень 56.5 %
Качество трека 100.0 %
CRC теста 5550FB38
CRC копии 5550FB38
Копирование... OK
Ошибок не произошло
Конец отчёта
"Non-compilant CUE"
REM GENRE Instrumental
REM DATE 2011
REM DISCID 170E1915
REM COMMENT "ExactAudioCopy v0.95b3"
PERFORMER "Various"
TITLE "В ритме танца - Адиос мучачос"
FILE "01 - Ernesto Franco and his Orchestra - A media luz.wav" WAVE
TRACK 01 AUDIO
TITLE "A media luz"
PERFORMER "Ernesto Franco and his Orchestra"
INDEX 01 00:00:00
TRACK 02 AUDIO
TITLE "Sentimiento gaucho"
PERFORMER "Osvaldo Requena"
INDEX 00 02:30:65
FILE "02 - Osvaldo Requena - Sentimiento gaucho.wav" WAVE
INDEX 01 00:00:00
TRACK 03 AUDIO
TITLE "Chйrie"
PERFORMER "Orquesta Tango 'Rнo de la Plata'"
INDEX 00 03:10:08
FILE "03 - Orquesta Tango 'Rнo de la Plata' - Chйrie.wav" WAVE
INDEX 01 00:00:00
TRACK 04 AUDIO
TITLE "Orchids In The Moonlight"
PERFORMER "Richard Hayman and his Symphony Orchestra"
INDEX 00 02:54:58
FILE "04 - Richard Hayman and his Symphony Orchestra - Orchids In The Moonlight.wav" WAVE
INDEX 01 00:00:00
TRACK 05 AUDIO
TITLE "Youkali"
PERFORMER "Musica Varia Ensemble\ Michael Schwarz, Violin"
INDEX 00 03:07:68
FILE "05 - Musica Varia Ensemble- Michael Schwarz, Violin - Youkali.wav" WAVE
INDEX 01 00:00:00
TRACK 06 AUDIO
TITLE "Organito de la tarde"
PERFORMER "Orquesta Escuela de Tango"
INDEX 00 04:59:19
FILE "06 - Orquesta Escuela de Tango - Organito de la tarde.wav" WAVE
INDEX 01 00:00:00
TRACK 07 AUDIO
TITLE "Tanze mit mir in den Morgen"
PERFORMER "Ambros Seelos and his Orchestra"
INDEX 00 03:02:30
FILE "07 - Ambros Seelos and his Orchestra - Tanze mit mir in den Morgen.wav" WAVE
INDEX 01 00:00:00
TRACK 08 AUDIO
TITLE "Il pleut sur la route"
PERFORMER "Ralph Benatar and his Orchestra"
INDEX 00 02:36:55
FILE "08 - Ralph Benatar and his Orchestra - Il pleut sur la route.wav" WAVE
INDEX 01 00:00:00
TRACK 09 AUDIO
TITLE "Le plus beau tango du monde (The Most Beautiful Tango In The Wor"
PERFORMER "Claude Blouin and his Orchestra"
INDEX 00 03:05:09
FILE "09 - Claude Blouin and his Orchestra - Le plus beau tango du monde (The Most Beautiful Tango In The Wor.wav" WAVE
INDEX 01 00:00:00
TRACK 10 AUDIO
TITLE "Kriminal-Tango"
PERFORMER "Don Cristobal and his Orchestra"
INDEX 00 02:35:59
FILE "10 - Don Cristobal and his Orchestra - Kriminal-Tango.wav" WAVE
INDEX 01 00:00:00
TRACK 11 AUDIO
TITLE "Wonderland (Satumaa)"
PERFORMER "Ralph Benatar and his Orchestra"
INDEX 00 02:37:71
FILE "11 - Ralph Benatar and his Orchestra - Wonderland (Satumaa).wav" WAVE
INDEX 01 00:00:00
TRACK 12 AUDIO
TITLE "Gallo ciego"
PERFORMER "Orquesta Escuela de Tango"
INDEX 00 02:37:53
FILE "12 - Orquesta Escuela de Tango - Gallo ciego.wav" WAVE
INDEX 01 00:00:00
TRACK 13 AUDIO
TITLE "Tango Torrero"
PERFORMER "Salon-Ensemble Prima Carezza"
INDEX 00 02:45:68
FILE "13 - Salon-Ensemble Prima Carezza - Tango Torrero.wav" WAVE
INDEX 01 00:00:00
TRACK 14 AUDIO
TITLE "Le tango des fauvettes"
PERFORMER "Marcel Azzola, his Accordion and Orchestra"
INDEX 00 03:26:74
FILE "14 - Marcel Azzola, his Accordion and Orchestra - Le tango des fauvettes.wav" WAVE
INDEX 01 00:00:00
TRACK 15 AUDIO
TITLE "De floreo"
PERFORMER "Orquesta Color Tango"
INDEX 00 02:50:17
FILE "15 - Orquesta Color Tango - De floreo.wav" WAVE
INDEX 01 00:00:00
TRACK 16 AUDIO
TITLE "Pб que te oigan bandonйon"
PERFORMER "Sexteto Sur"
INDEX 00 02:48:17
FILE "16 - Sexteto Sur - Pб que te oigan bandonйon.wav" WAVE
INDEX 01 00:00:00
TRACK 17 AUDIO
TITLE "Noche de Reyes"
PERFORMER "Pedro Lozano"
INDEX 00 02:48:28
FILE "17 - Pedro Lozano - Noche de Reyes.wav" WAVE
INDEX 01 00:00:00
TRACK 18 AUDIO
TITLE "Troileana"
PERFORMER "Orquesta Color Tango"
INDEX 00 01:52:55
FILE "18 - Orquesta Color Tango - Troileana.wav" WAVE
INDEX 01 00:00:00
TRACK 19 AUDIO
TITLE "Te quiero"
PERFORMER "Enzo Valentino"
INDEX 00 02:16:34
FILE "19 - Enzo Valentino - Te quiero.wav" WAVE
INDEX 01 00:00:00
TRACK 20 AUDIO
TITLE "La tablada"
PERFORMER "Ernesto Franco and his Orchestra"
INDEX 00 02:22:06
FILE "20 - Ernesto Franco and his Orchestra - La tablada.wav" WAVE
INDEX 01 00:00:00
TRACK 21 AUDIO
TITLE "Adiуs muchachos"
PERFORMER "Nuevo Quinteto Real"
INDEX 00 02:51:36
FILE "21 - Nuevo Quinteto Real - Adiуs muchachos.wav" WAVE
INDEX 01 00:00:00
"Лог Audiochecker"
AUDIOCHECKER v2.0 beta (build 457) - by Dester - [email protected]
~~~~~~~~~~~~~~~~~~~~~~~~~~~~~~~~~~
-=== НЕ РЕДАКТИРУЙТЕ ЭТОТ ФАЙЛ! ===-
Путь: ...\Адиос мучачос (До свидания, парни)
01 -=- 01 - Ernesto Franco and his Orchestra - A media luz.flac -=- CDDA (100%)
02 -=- 02 - Osvaldo Requena - Sentimiento gaucho.flac -=- CDDA (100%)
03 -=- 03 - Orquesta Tango 'Rнo de la Plata' - Chйrie.flac -=- CDDA (43%)
04 -=- 04 - Richard Hayman and his Symphony Orchestra - Orchids In The Moonlight.flac -=- CDDA (100%)
05 -=- 05 - Musica Varia Ensemble- Michael Schwarz, Violin - Youkali.flac -=- CDDA (100%)
06 -=- 06 - Orquesta Escuela de Tango - Organito de la tarde.flac -=- CDDA (100%)
07 -=- 07 - Ambros Seelos and his Orchestra - Tanze mit mir in den Morgen.flac -=- CDDA (99%)
08 -=- 08 - Ralph Benatar and his Orchestra - Il pleut sur la route.flac -=- CDDA (100%)
09 -=- 09 - Claude Blouin and his Orchestra - Le plus beau tango du monde (The Most Beautiful Tango In The Wor.flac -=- CDDA (100%)
10 -=- 10 - Don Cristobal and his Orchestra - Kriminal-Tango.flac -=- ERROR
11 -=- 11 - Ralph Benatar and his Orchestra - Wonderland (Satumaa).flac -=- CDDA (99%)
12 -=- 12 - Orquesta Escuela de Tango - Gallo ciego.flac -=- CDDA (100%)
13 -=- 13 - Salon-Ensemble Prima Carezza - Tango Torrero.flac -=- CDDA (100%)
14 -=- 14 - Marcel Azzola, his Accordion and Orchestra - Le tango des fauvettes.flac -=- CDDA (100%)
15 -=- 15 - Orquesta Color Tango - De floreo.flac -=- CDDA (42%)
16 -=- 16 - Sexteto Sur - Pб que te oigan bandonйon.flac -=- CDDA (87%)
17 -=- 17 - Pedro Lozano - Noche de Reyes.flac -=- CDDA (100%)
18 -=- 18 - Orquesta Color Tango - Troileana.flac -=- CDDA (100%)
19 -=- 19 - Enzo Valentino - Te quiero.flac -=- CDDA (100%)
20 -=- 20 - Ernesto Franco and his Orchestra - La tablada.flac -=- CDDA (100%)
21 -=- 21 - Nuevo Quinteto Real - Adiуs muchachos.flac -=- CDDA (100%)
Сводка 93,50% CDDA
108794708
Мы помогаем людям, чтобы они, в свою очередь, помогли нам; таким образом, наши услуги сводятся просто к благодеяниям, которые мы загодя оказываем самим себе. (Франсуа де Ларошфуко)
Download / Скачать

Хотите скачать бесплатно? Зарегистрируйтесь на сайте (ссылка на регистрацию). Pirat.ca - самый быстрый торрент трекер в рунете!

Как скачивать  ·   Что такое торрент  ·   Рейтинг и ограничения



Последний раз редактировалось: CHARLI2236 (2012-06-30 20:42), всего редактировалось 2 раз(а)

axxell2006

Морской Волк

Пост 04-Мар-2012 22:28 (спустя 3 часа)

[Q] 

Большое спасибо!!!

_________________
Родился в прошлом веке, в стране и городе которых больше нет.
[Профиль]  [ЛС] 

ficus42

Корсар

Пост 05-Мар-2012 11:20 (спустя 12 часов)

[Q] 

Будем послушать
[Профиль]  [ЛС] 

xdgx

Флибустьер

Пост 05-Мар-2012 19:15 (спустя 7 часов)

[Q] 

[Профиль]  [ЛС] 
Показать сообщения:    
Ответить на тему

Текущее время: Сегодня 08:15

Часовой пояс: GMT + 4



Вы не можете начинать темы
Вы не можете отвечать на сообщения
Вы не можете редактировать свои сообщения
Вы не можете удалять свои сообщения
Вы не можете голосовать в опросах
Вы не можете прикреплять файлы к сообщениям
Вы не можете скачивать файлы

▼ Вниз